#TITLE:Paparazzi;
#SUBTITLE:;
#ARTIST:Lady GaGa;
#TITLETRANSLIT:;
#SUBTITLETRANSLIT:;
#ARTISTTRANSLIT:;
#GENRE:;
#CREDIT:;
#BANNER:Paparazzi2.png;
#BACKGROUND:;
#LYRICSPATH:;
#CDTITLE:;
#MUSIC:03 Lady GaGa - Paparazzi.ogg;
#OFFSET:-0.145;
#SAMPLESTART:37.970;
#SAMPLELENGTH:13.200;
#SELECTABLE:YES;
#BPMS:0.000=114.990;
#STOPS:;
#BGCHANGES:;
#KEYSOUNDS:;

//---------------dance-single - ----------------
#NOTES:
     dance-single:
     :
     Hard:
     6:
     0.343,0.314,0.060,0.172,0.071,290.000,8.000,23.000,6.000,0.000,0.000,0.343,0.314,0.060,0.172,0.071,290.000,8.000,23.000,6.000,0.000,0.000:
0000
0000
0000
0000
,
0000
0000
0000
0000
,
0000
0000
0000
0000
,
0000
0000
0000
0000
,
1000
0010
0100
0010
0000
0000
0020
0000
,
1030
0100
0010
0001
0000
0000
0010
1000
,
0010
0001
0100
0010
0000
0000
0010
1000
,
0100
0001
0100
2000
0000
3200
0000
0310
,
2000
0000
3010
0002
0000
0000
0013
0000
,
0020
0032
0203
0302
,
0203
0000
0301
0010
0000
0010
0001
0000
,
1000
0001
1000
0100
,
0010
1000
0010
0100
0000
0010
0001
0000
,
0001
0100
0010
1000
0000
0100
0010
0000
,
0001
0100
0010
1000
0000
0100
0010
0000
,
0001
0100
0010
2000
0000
3020
0000
0130
,
0010
0000
1000
0100
0000
0010
0001
0000
,
2000
3200
0320
0032
,
0013
0000
0000
0000
0010
0000
0001
0000
0000
0000
0001
0000
0100
0000
0010
0100
,
0010
0010
1000
0100
0020
0000
0000
0000
,
0031
0001
0100
0010
1000
0000
0010
0100
,
0000
0100
0010
1000
0100
0000
0010
0001
,
0000
0000
0100
0000
0000
0000
0000
0000
0010
0000
0000
1000
0000
0000
0000
0000
,
0100
0000
0000
1000
0000
0000
0001
0000
0000
0000
0100
0000
0000
0000
0000
0000
,
0010
1000
0100
0010
0001
0000
0001
0100
,
0000
0100
0010
1000
0100
0000
0100
1000
,
0000
0000
1000
0000
0000
0000
0000
0000
0001
0000
0000
0100
0000
0000
0000
0000
,
0100
0000
0000
0010
0000
0000
1000
0000
0000
0000
0100
0000
1000
0000
0000
0000
,
0001
0000
0100
0000
0010
0000
1000
0000
0010
0000
0000
1000
0000
0000
0010
0000
,
0000
0100
0010
0000
0010
1000
0100
0010
,
0001
0000
0000
0000
0100
0000
0000
0000
0010
0000
0000
1000
0000
0000
0100
0000
,
0000
0001
1000
0000
0010
0100
0001
0000
,
0001
1000
0100
0010
0001
0000
0001
0100
,
0000
1000
0100
0010
1000
0000
0100
0010
,
0000
0000
0001
0000
0000
0000
0000
0000
0001
0000
0000
0100
0000
0000
0000
0000
,
0010
0000
0000
1000
0000
0000
0100
0000
0000
0000
1000
0000
0000
0000
0000
0000
,
0002
0000
0013
0010
0000
0100
1000
1000
,
0000
0100
0000
0010
0001
0100
0010
0000
,
0110
0000
0000
1001
0000
0000
0010
2000
,
0000
3200
0000
0310
0001
0100
0010
0000
,
0MM0
2000
3200
0300
,
0010
0001
1000
0010
0000
0000
1001
0000
,
0110
0000
0020
0000
1030
0100
0010
0001
,
0011
0101
1010
MMMM
,
1000
0010
0100
0001
0010
0000
0100
1000
,
0000
0010
0100
0010
1000
0000
0100
0010
,
0000
0000
0001
0000
0000
0000
0000
0000
0001
0000
0000
0100
0000
0000
0000
0000
,
0010
0000
0000
1000
0000
0000
0100
0000
0000
0000
0010
0000
0000
0000
0000
0000
,
0001
1000
0010
0100
0010
0000
1000
0100
,
0000
0010
0001
1000
0001
0000
0100
0010
,
0000
0000
0010
0000
0000
0000
0000
0000
1000
0000
0000
0001
0000
0000
0000
0000
,
0001
0000
0000
0010
0000
0000
0100
0000
0000
0000
1000
0000
1000
0100
1000
0100
,
1000
0000
0000
0000
1000
0000
0000
0000
0010
0000
0000
0100
0000
0000
0010
0000
,
0000
0010
1000
0000
1000
0010
0001
0010
,
1000
0000
0000
0000
0010
0000
0000
0000
1000
0000
0000
0100
0000
0000
0010
0000
,
0000
0000
0001
0000
1000
0100
1000
0000
,
0010
1000
0001
1000
0100
0000
0010
0001
,
0000
0001
0100
0010
1000
0000
0100
0010
,
0000
0000
0001
0000
0000
0000
0000
0000
0100
0000
0000
0010
0000
0000
0000
0000
,
0010
0000
0000
1000
0000
0000
1000
0000
0000
0000
0100
0000
0000
0000
0000
0000
,
1001
0000
0000
0000
;

//---------------dance-single - ----------------
#NOTES:
     dance-single:
     :
     Medium:
     4:
     0.220,0.223,0.052,0.030,0.000,195.000,7.000,4.000,0.000,0.000,0.000,0.220,0.223,0.052,0.030,0.000,195.000,7.000,4.000,0.000,0.000,0.000:
0000
0000
0000
0000
,
0000
0000
0000
0000
,
0000
0000
0000
0000
,
0000
0000
0000
0000
,
1000
0010
0000
0010
,
1000
0100
1000
0000
,
0001
0100
0010
0000
,
0010
1000
0010
0000
0100
0000
0010
0000
,
2000
0000
3200
0000
,
0310
0001
0100
0010
,
2000
0000
3200
0000
,
0310
0000
0001
0000
0100
0010
0100
0000
,
0010
0000
0000
1000
0000
0000
0010
0000
,
1000
0000
0000
0100
0000
0000
0010
0000
,
0001
0000
0000
0100
0000
0000
0010
0000
,
1000
0000
0000
0100
0000
0010
0000
0000
,
0001
0000
0000
0100
0000
0000
0010
0000
,
1000
0100
0010
0001
,
0100
0000
0000
0100
0000
0000
0000
0000
,
0010
1000
0100
0000
,
0010
0000
0001
0000
0100
0000
0000
0010
,
0000
0000
1000
0000
0100
0000
0000
1000
,
0000
0001
0000
0000
0100
0000
0000
0000
,
0010
0000
1000
0010
,
0100
0000
0100
0000
,
0001
0000
0010
0000
0100
0000
0000
1000
,
0000
1000
0000
0000
0001
0000
0000
0000
,
0100
0000
0010
1000
,
0010
0000
0100
0010
,
1000
0000
0001
0100
,
0010
0000
1000
0100
,
0010
0000
0000
0000
0010
0001
0100
0000
,
0010
0000
0010
1000
,
0100
0000
0010
0001
,
0100
1000
0100
0010
,
1000
0100
0010
0001
,
1001
0010
0101
0010
,
1000
0100
0010
0001
,
1001
0000
0010
0100
,
0001
0000
1000
0000
0100
0010
0001
0000
,
0000
0100
0010
0000
,
1000
0100
0010
0000
,
0010
0001
0100
0010
,
1010
0101
0011
0000
,
1000
0100
0010
0001
,
0100
0000
1000
0000
0100
0000
0010
1000
,
0100
0010
0001
0100
,
0010
0000
1000
0000
0100
0000
0010
0001
,
0100
0010
1000
0100
,
1000
0001
0100
0010
,
1000
0100
0010
0001
,
1000
0000
0001
0000
0100
0000
0001
0100
,
0001
1000
0100
0010
,
0100
1000
0001
0100
,
0010
1000
0100
1000
,
0001
0000
0100
0000
0010
1000
0100
0000
,
0010
0001
0100
0010
,
1000
0100
0010
0100
,
1000
0001
0001
0000
,
0100
0010
1001
0000
;

//---------------dance-single - ----------------
#NOTES:
     dance-single:
     :
     Easy:
     2:
     0.164,0.202,0.037,0.000,0.000,148.000,5.000,0.000,0.000,0.000,0.000,0.164,0.202,0.037,0.000,0.000,148.000,5.000,0.000,0.000,0.000,0.000:
0000
0000
0000
0000
,
0000
0000
0000
0000
,
0000
0000
0000
0000
,
0000
0000
0000
0000
,
1000
0000
0010
0000
,
0100
0010
0100
0000
,
0010
0000
1000
0000
,
0100
0010
0001
0100
,
0010
0000
0010
0000
,
1000
0000
0100
0000
,
1000
0000
0010
0000
,
0100
0000
0010
1000
,
0100
0000
0010
0000
,
1000
0000
0001
0000
,
0100
0000
0010
0000
,
1000
0000
0001
0000
,
0100
0100
0100
0000
,
1000
0000
0010
0000
,
0100
0000
0001
0000
,
1000
0001
1000
0000
,
0100
0000
0100
0000
,
0010
0000
1000
0000
,
0100
0000
0010
0001
,
1000
0100
0010
0001
,
0100
0000
0100
0000
,
0010
0000
1000
0000
,
0100
0000
0010
0000
,
0001
0100
0010
1000
,
0100
0000
0010
0001
,
0100
0000
1000
0000
,
0100
0010
1000
0100
,
0010
0000
0010
0001
,
0100
0000
0010
0000
,
1000
0000
0100
0000
,
0010
0001
1000
0000
,
1000
0100
0010
0001
,
0100
0000
0100
0000
,
0010
1000
0100
0010
,
0011
0000
1000
0000
,
0100
0010
1000
0100
,
0000
0010
0010
0000
,
0100
0001
1000
0000
,
1000
0010
0100
0000
,
1001
1001
1001
0000
,
1000
0000
0100
0000
,
0010
0000
0100
0000
,
0010
1000
0100
0000
,
0010
0000
0010
0001
,
0100
0000
0010
0000
,
1000
0000
0100
0010
,
0001
0000
0100
0000
,
0010
1000
0100
0100
,
0100
1000
0001
0000
,
0100
0000
0010
1000
,
0100
0000
1000
0000
,
0001
0000
0100
0010
,
1000
0000
1000
0000
,
0010
0100
0001
0000
,
1000
0000
0100
0000
,
0010
0001
0100
0000
,
1001
0000
0000
0000
;
