#TITLE:PLATONIC-XXX;
#SUBTITLE:;
#ARTIST:PlatoniX;
#TITLETRANSLIT:;
#SUBTITLETRANSLIT:;
#ARTISTTRANSLIT:;
#GENRE:;
#CREDIT:;
#BANNER:;
#BACKGROUND:;
#LYRICSPATH:;
#CDTITLE:;
#MUSIC:PLATONIC-XXX.ogg;
#OFFSET:0.923;
#SAMPLESTART:40.510;
#SAMPLELENGTH:15.000;
#SELECTABLE:YES;
#BPMS:0.000=98.000;
#STOPS:124.500=1.840
;
#BGCHANGES:;
#KEYSOUNDS:;

//---------------dance-single - ----------------
#NOTES:
     dance-single:
     :
     Hard:
     9:
     0.591,0.565,0.313,0.163,0.833,292.000,25.000,13.000,0.000,0.000,0.000,0.591,0.565,0.313,0.163,0.833,292.000,25.000,13.000,0.000,0.000,0.000:
0000
0000
0000
0000
,
1001
0000
0000
0000
0000
0000
0000
0000
1000
0100
1000
0100
0000
1000
0001
0000
,
0110
0000
0000
0000
1000
0001
1000
0000
0000
0000
1010
0000
0000
0000
0001
0000
,
1000
0001
1000
0001
1000
0000
0001
0000
0010
0000
0100
0000
0000
0000
0010
0000
0100
0000
0010
0000
0001
0000
0000
0000
0000
0000
0000
0000
0000
0000
0000
0000
,
1001
0000
1000
0000
0001
0000
0010
0100
1000
0001
1000
0000
1000
0000
0100
0000
,
1100
0000
0001
0010
0100
0000
1000
0100
0010
0100
1000
0000
0100
0000
0010
0000
,
0011
0000
1000
0100
0001
0000
0000
0100
1000
0010
1000
0000
0000
0010
0100
0010
,
0100
0001
0000
1000
0000
0001
0000
0010
0000
0100
0000
0010
0000
0110
0000
0000
,
1001
0000
0001
0010
0100
1000
0001
1000
0001
0010
0200
0000
0010
0000
0000
0000
,
0310
0000
0010
0001
1000
0010
1000
0010
1000
0100
0010
0000
0001
0000
1000
0200
,
0000
0000
0310
0001
0010
0001
1000
0100
1000
0010
1000
0000
0000
1000
0001
0010
,
0100
0010
0000
0001
0000
1000
0000
0100
0000
0010
0000
0001
0000
1001
0000
0000
,
1001
0000
1000
0100
0001
0000
0100
1000
0000
0010
0000
0100
0000
0000
0100
0010
,
0100
0000
0001
1000
0000
0010
0100
0000
0010
0100
0000
0100
0010
0000
0010
0000
,
1000
0100
0010
2001
0000
3001
0000
1000
,
0100
0000
0010
0000
0001
0000
1000
0000
0000
0000
2002
0000
0000
0000
0000
3003
,
1000
0001
0000
1000
0000
0010
0000
0100
0000
1001
0000
0001
0000
0001
1000
0000
,
1000
0010
0000
0100
0000
0001
0000
1000
0000
1001
1000
0001
0000
0001
1000
0000
,
1000
0000
0100
0010
0000
0100
0010
0000
0001
0000
1000
0100
0000
0100
0010
0000
,
0001
0000
1000
0000
0000
0000
0001
0000
0000
0000
0010
0000
0100
0000
0000
0000
1000
0000
0001
0000
0000
0000
1000
0000
0000
0000
1000
0000
0001
1000
0001
1000
,
0001
0010
0000
0100
0000
1000
0000
0001
0000
1001
0000
0001
0000
0001
1000
0000
,
1000
0000
0100
0010
0000
0001
0000
1000
0000
2002
0000
0000
0000
0000
0000
3003
,
1001
0000
0000
0000
0110
0000
0000
0000
1100
0000
0000
0010
0001
0000
0000
0000
,
1000
0000
0100
0010
0000
0001
0000
0000
1000
0000
0000
0000
0200
0000
0000
0000
,
0310
0001
0010
0001
0010
0000
0100
1000
0100
1000
0200
0020
0000
0000
0000
0030
,
0310
0100
0010
0100
0010
0000
0001
1000
0001
1000
0001
0000
0000
0000
0000
0000
,
1000
0100
1000
0100
1000
0000
0000
0001
0010
0001
0010
0000
0000
0000
0000
0000
,
1000
0010
1000
0010
1000
0000
0000
0000
1001
0000
0000
0000
1010
0000
0000
0000
,
0001
0100
0001
0100
0001
0000
0010
1000
0010
1000
0020
0000
0000
0000
0000
0000
,
1030
0001
1000
0001
1000
0000
0010
0100
0010
0100
0020
0000
0000
0000
0000
0000
,
1030
0000
1000
0001
1000
0001
1000
0001
1000
0000
0100
0010
0100
0010
0100
0010
,
0200
0000
0000
0300
0110
0000
0100
0010
0110
0000
0100
0010
0110
0000
1000
0001
,
1001
0000
1000
0001
0000
0000
0000
0000
0000
0000
0000
0000
0000
0000
0000
0000
;

//---------------dance-single - Copied from----------------
#NOTES:
     dance-single:
     Copied from:
     Medium:
     5:
     0.281,0.261,0.163,0.000,0.000,144.000,13.000,0.000,0.000,0.000,0.000,0.281,0.261,0.163,0.000,0.000,144.000,13.000,0.000,0.000,0.000,0.000:
0000
0000
0000
0000
,
0000
0000
1000
0001
,
0101
0010
1000
0100
,
1100
0000
0001
0000
0001
0100
0001
0000
,
0001
0000
0100
0000
0010
0100
0010
0000
,
0010
0000
1000
0000
0100
1000
0100
0000
,
1000
0000
0010
0000
0010
0100
0000
0000
,
0010
0100
0001
1000
,
1100
0000
0001
0000
0001
0100
0000
0001
,
0100
0000
0010
0000
1000
0010
0000
1000
,
0010
1000
0001
0100
,
0010
1000
0001
0001
,
0001
0100
0010
0000
0010
0100
0001
0000
,
1001
1100
0101
0010
,
0010
0000
1000
0100
0000
1000
0100
0000
,
0001
0000
0100
0001
0000
0001
0000
0000
,
1001
0010
0100
0001
,
1000
0001
0100
0010
,
1001
0100
1000
0001
,
0100
0000
0010
0000
1000
0001
1000
0001
,
1000
0010
0100
0001
,
0100
0010
1000
0000
0100
1000
0001
0000
,
0010
0100
1000
0001
,
0100
1000
0100
0010
,
0010
1000
0100
0000
0100
1000
0000
0000
,
0001
0100
0010
0000
0010
1000
0100
0000
,
0100
1000
0001
0100
,
0010
0100
1100
0000
1000
0100
0010
0000
,
0010
1000
0100
0000
0100
0010
0001
0000
,
0001
0100
1000
0000
0010
1000
0100
0000
,
0001
1000
0001
1000
,
1000
0110
1001
1100
,
0101
0000
0000
0000
;

//---------------dance-single - Copied from Copied from----------------
#NOTES:
     dance-single:
     Copied from Copied from:
     Easy:
     2:
     0.181,0.200,0.125,0.038,0.000,88.000,10.000,3.000,0.000,0.000,0.000,0.181,0.200,0.125,0.038,0.000,88.000,10.000,3.000,0.000,0.000,0.000:
0000
0000
0000
0000
,
0000
0000
1000
0001
,
1001
0000
0010
0100
,
0110
0001
1000
0001
,
1000
0000
0010
0100
,
0101
0000
0010
1000
,
1100
0000
0010
0100
,
0101
0010
1100
0100
,
1001
0000
0010
0000
,
1000
0000
0001
0000
,
0010
0000
1000
0000
,
0001
0000
0100
0000
,
0010
0010
0010
0000
,
1000
0100
1000
0000
,
0001
0100
0010
0000
,
1000
0100
2000
0000
,
3001
0010
0200
0000
,
0310
1000
0200
0000
,
0310
0001
1000
0010
,
0100
0010
0000
1000
,
0100
1000
0001
0000
,
0010
0100
1100
0000
,
0001
0000
1000
0000
,
0001
0000
0010
0000
,
0010
1000
0100
1000
,
0001
0100
0010
1000
,
0100
0000
1000
0000
,
0001
0000
0010
0000
,
1000
0000
0001
0000
,
0100
0000
0010
0000
,
1000
0000
0001
0000
,
1001
0001
1000
0001
,
0110
0000
0000
0000
;
