#TITLE:Musical Endeavour;
#SUBTITLE:;
#ARTIST:Darwin, Obie & Macca;
#TITLETRANSLIT:;
#SUBTITLETRANSLIT:;
#ARTISTTRANSLIT:;
#GENRE:;
#CREDIT:;
#BANNER:Musical Endeavour.png;
#BACKGROUND:;
#LYRICSPATH:;
#CDTITLE:;
#MUSIC:Musical Endeavour.ogg;
#OFFSET:-0.015;
#SAMPLESTART:23.842;
#SAMPLELENGTH:23.000;
#SELECTABLE:YES;
#BPMS:0.000=182.030;
#STOPS:327.000=5.200
;
#BGCHANGES:;
#KEYSOUNDS:;

//---------------dance-single - ----------------
#NOTES:
     dance-single:
     :
     Hard:
     10:
     0.763,0.894,0.525,0.079,0.525,542.000,60.000,9.000,0.000,0.000,0.000,0.763,0.894,0.525,0.079,0.525,542.000,60.000,9.000,0.000,0.000,0.000:
0000
0000
0000
0000
,
0000
0000
0000
0000
0000
0000
0000
0000
0000
1000
0000
0001
,
1000
0000
0100
0010
0000
0001
0010
0000
0100
1000
0000
0010
,
0100
0000
0001
0100
0000
0110
0000
0000
0000
1000
0000
0001
,
0100
0000
1000
0100
0000
0001
0010
0000
1000
0010
0000
0001
,
0100
0000
0010
0100
0000
0110
0000
0000
0000
1000
0000
0010
,
0100
0000
0100
0010
0000
0010
1000
0000
1000
0100
0000
0010
,
0001
0000
1000
0100
0000
0110
0000
0000
0000
0001
0000
0010
,
0100
0000
1000
0001
0000
0100
0010
0000
1000
0010
0000
0100
,
0010
0000
0001
0010
0000
0110
0000
0000
0000
1001
0000
1000
,
0100
0000
1000
0100
0000
0010
0001
0000
0010
0001
0000
0001
,
1000
0000
1000
0001
0000
1001
0000
0000
0000
1000
0000
0100
,
0010
0000
0001
0010
0000
0100
1000
0000
0010
0100
0000
0100
,
0010
0000
1000
0100
0000
0110
0000
0000
0000
1000
0000
0010
,
0100
0000
0001
0010
0000
0100
1000
0000
0100
0001
0000
0100
,
1000
0000
0010
0100
0000
0110
0000
0000
0000
1000
0000
0100
,
0010
0000
0001
0010
0000
0100
0010
0000
1000
0010
0000
0000
,
0110
0000
1001
0000
1100
0000
1000
0001
,
0010
0000
0100
0000
1000
0000
0010
0000
0100
0000
0000
0000
0001
0010
0001
0010
,
0001
0000
1000
0000
0001
0000
0010
0100
0000
0000
0000
0000
1000
0010
1000
0100
,
1000
0010
0100
0001
1000
0000
1000
0100
,
0110
0000
0001
0010
0110
0010
0100
1000
,
0100
0100
0010
0001
1000
1000
0010
0010
,
0100
0100
0001
0001
1000
1000
0100
0010
,
0001
1000
0010
0100
0001
0010
0100
1000
,
0001
1000
1000
0001
0001
0010
0100
1000
,
0010
0100
0001
1000
1000
0100
0100
0010
,
0001
0001
1000
1000
0100
0010
0001
1000
,
0010
0100
1000
0100
0010
0000
1000
0100
,
0001
0100
0010
0001
0000
0000
1000
0001
,
0010
0100
0001
0000
0100
1000
0010
0100
,
0010
0010
0100
0010
1000
0100
0010
0001
,
1000
0002
0000
0000
1003
0100
0010
0001
,
0100
1000
0010
1000
0000
0000
1000
0000
,
1000
0000
0000
0001
0000
0000
0001
0000
0000
0000
1000
0000
0001
0000
0000
0000
,
0001
0000
0001
1000
0000
0000
1000
0000
0000
0000
1000
0000
0100
0000
0000
0000
,
0100
0000
0000
0010
0000
0000
0010
0000
0000
0000
0001
0000
1000
0000
0000
0000
,
1000
0000
0000
1000
0010
0000
0010
0000
0000
0000
0010
0000
0110
0000
0000
0000
,
1000
0000
0000
1000
0000
0000
1000
0000
0000
0000
1000
0000
0100
0000
0000
0000
,
0010
0000
0000
0100
0000
0000
0001
0000
0000
0000
0100
0000
1000
0000
0000
0000
,
0010
0000
0000
0100
0000
0000
0010
0000
0000
0000
0010
0000
1000
0000
0000
0000
,
0001
0000
0000
0100
0000
0000
0010
0000
0000
0000
1000
0000
0100
0000
0000
0000
,
0010
0000
0000
0001
0000
0000
1000
0000
0000
0000
0010
0000
0100
0000
0000
0000
,
0001
0000
0000
0100
0000
0000
0010
0000
0000
0000
1000
0000
1000
0000
0000
0000
,
0100
0000
0000
0010
0000
0000
0001
0000
0000
0000
0010
0000
0010
0000
0000
0000
,
1000
0000
0000
0010
0000
0000
0001
0000
0000
0000
0100
0000
0010
0000
1000
0000
,
0010
1000
0010
1000
0010
1000
0100
1000
,
0100
0000
1000
0000
0100
0000
1000
0000
0100
0000
1000
0000
0010
0100
0010
0100
,
0010
0100
0010
0100
0010
0100
0010
0100
0010
0200
0020
0000
0000
0000
0000
0000
,
0000
0000
0330
1001
,
1001
0000
0000
0010
0000
0000
0001
0000
0000
0000
1000
0000
1100
0000
0000
0000
,
1010
0000
0000
0100
0000
0000
0100
0000
0000
0000
0010
0000
0110
0000
0000
0000
,
0011
0000
0000
1000
0000
0000
1000
0000
0000
0000
1000
0000
1100
0000
0000
0000
,
0110
0000
0000
0100
0000
0000
0100
0000
0000
0000
0001
0000
1001
0000
0000
0000
,
1010
0000
0000
0100
0000
0000
0010
0000
0000
0000
1000
0000
0110
0000
0000
0000
,
0011
0000
0000
0001
0000
0000
0010
0000
0000
0000
0100
0000
1010
0000
0000
0000
,
1010
0000
0000
1000
0000
0000
1010
0000
0000
0000
0010
0000
1000
0000
0100
0000
,
0010
0001
0010
0200
2000
0000
0000
0000
3300
0000
0100
0000
1000
0000
0000
0000
,
0100
0000
0000
0010
0000
0000
0100
0000
0000
0000
0100
0000
0100
0000
0000
0000
,
1000
0000
0000
0100
0000
0000
0010
0000
0000
0000
0001
0000
0011
0000
0000
0000
,
0110
0000
0000
1000
0000
0000
1000
0000
0000
0000
1000
0000
1010
0000
0000
0000
,
0110
0000
0000
0101
0000
0000
0110
0000
0000
0000
1000
0000
1100
0000
0000
0000
,
0110
0000
0000
0011
0000
0000
0110
0000
0000
0000
1100
0000
1100
0000
0000
0000
,
0110
0000
0000
1001
0000
0000
0110
0000
0000
0000
1000
0000
1000
0000
0100
0000
,
0100
0000
0010
0000
0010
0000
0001
0000
0001
0000
1000
0000
0100
0010
0100
0010
,
0100
0010
0100
0020
0200
0000
0000
0000
0000
0000
0330
0000
1000
0000
0100
0000
,
0010
0000
0001
0010
0001
0010
0001
0000
1000
0000
0010
0000
1000
0000
0010
0000
,
0001
0000
0010
1000
0010
1000
0010
0000
1000
0000
0100
0000
0010
0000
0001
0000
,
1000
0000
0100
0010
0100
0010
0100
0000
0010
0000
0001
0000
1000
0000
0010
0000
,
0100
0000
0010
1000
0010
1000
0010
0000
1000
0000
0100
0000
0010
0000
0001
0000
,
0010
0000
0100
0001
0100
0001
0100
0000
1000
0000
0010
0000
0100
0000
1000
0000
,
0010
0000
1000
0100
1000
0100
1000
0000
0100
0000
0010
0000
1000
0000
0100
0000
,
0010
0000
0001
1000
0001
1000
0001
0000
1000
0000
0100
0000
0010
0000
0001
0000
,
1000
0000
0100
0010
0001
0010
0001
0000
1000
0000
0100
0000
0110
0000
0000
0000
,
0001
0101
0100
0110
,
0010
1010
0100
0110
,
1000
1100
0010
0110
,
0001
0011
1000
1001
,
0110
1100
0011
0110
,
1100
0000
0011
0000
1100
0000
1000
0001
,
1000
0000
0001
0000
1000
0000
0001
0000
1000
0000
0001
0000
1000
0010
0100
0010
,
0100
0000
0000
0000
0010
0000
0000
0000
0100
0000
0000
0000
0010
0000
0000
0000
0100
0000
0000
0000
0010
0000
0000
0000
0100
0000
0000
0000
0010
0000
0000
0000
0100
0000
0000
0000
0010
0000
0000
0000
0100
0000
0000
0000
0020
0000
0000
0000
0200
0330
0000
0000
0000
0000
0000
0000
0000
0000
0000
0000
0000
0000
0000
0000
;

//---------------dance-single - Copied from----------------
#NOTES:
     dance-single:
     Copied from:
     Medium:
     7:
     0.498,0.572,0.175,0.026,0.035,376.000,20.000,3.000,0.000,0.000,0.000,0.498,0.572,0.175,0.026,0.035,376.000,20.000,3.000,0.000,0.000,0.000:
0000
0000
0000
0000
,
0000
0000
0000
1000
,
0100
1000
0001
1000
,
0001
0000
0000
0001
0000
1000
0000
0000
0000
0010
0000
0000
,
1000
0100
0010
0001
,
1000
0000
0000
0001
0000
1000
0000
0000
0000
0001
0000
0000
,
1000
0010
0100
0001
,
1000
0000
0000
0100
0000
1000
0000
0000
0000
0001
0000
0000
,
0100
1000
0100
0001
,
0010
0000
0000
0100
0000
1000
0000
0000
0000
0001
0000
0000
,
1000
0010
0100
0001
,
0010
0000
0000
0100
0000
1000
0000
0000
0000
0010
0000
0000
,
0100
0010
1000
0100
,
0010
0000
0000
0001
0000
0010
0000
0000
0000
0001
0000
0000
,
0100
0010
1000
0010
,
0001
0000
0000
0010
0000
1000
0000
0000
0000
0100
0000
0000
,
1000
0001
1000
1001
,
0110
1001
1100
1000
,
0100
0000
1000
0010
1000
0000
0100
0000
,
1000
0000
0001
0010
0001
0000
1000
0000
,
0010
0000
1000
0100
1000
0000
0001
0010
,
0001
0000
1000
0100
1000
0000
0010
0000
,
1000
0000
0100
0000
0010
0000
0001
0100
,
0001
0000
1000
0100
1000
0000
0001
0010
,
0001
0000
1000
0010
1000
0000
0100
0000
,
1000
0000
0001
0000
0010
0000
0001
1000
,
0100
0000
1000
0001
0100
0000
0010
0000
,
1000
0000
0100
0000
0010
0000
0001
0100
,
0001
0000
1000
0100
1000
0000
0010
0000
,
0100
1000
0100
0001
0000
0000
1000
0000
,
0001
0100
0010
1000
,
0100
0010
0001
1000
,
0010
0100
0000
0010
1000
0000
0100
1000
,
0001
1000
0001
1000
0000
0000
1000
0000
,
0100
1000
0010
0010
,
1000
0100
0000
0001
,
1000
0010
0100
0001
,
0010
0100
0000
1000
0000
0001
0000
0000
,
0001
0000
1000
0000
0010
0100
0000
0010
,
1000
0100
0000
0000
0000
0000
1000
0000
,
0001
1000
0000
0100
1000
0010
0000
0010
,
0100
0001
0000
0001
1000
0100
1000
0000
,
0001
1000
0010
1000
,
0100
1000
0001
0010
,
0001
1000
0100
1000
,
0010
0100
0001
1000
,
0010
1000
0100
1000
,
0001
0000
0100
0000
0010
0000
0010
1000
,
0010
1000
0010
0000
1000
0100
1000
0100
,
1000
0001
1000
0001
0000
0000
1000
0000
,
0100
0000
1000
0010
1000
0000
0100
0000
,
1000
0000
0001
1000
0001
0000
0100
0000
,
0010
0000
0010
1000
0010
0000
1000
0000
,
0100
0000
0010
0001
0010
0000
0001
0000
,
0100
0000
0010
1000
0010
0000
1000
0000
,
0100
0000
0010
0100
0010
0000
0001
0000
,
1000
0000
0010
0100
0001
0000
1000
0000
,
0100
0000
2000
0000
0000
3000
0001
0000
,
1000
0000
0010
0100
0010
0000
1000
0000
,
0100
0000
1000
0100
1000
0000
0001
0000
,
0100
0000
0010
1000
0010
0000
1000
0000
,
0100
0000
0010
0001
0010
0000
0001
0000
,
0100
0000
0010
1000
0010
0000
1000
0000
,
0100
0000
1000
0100
1000
0000
0001
0000
,
1000
0000
0010
1000
0100
0000
1000
0001
,
1000
0000
0001
1000
0000
0000
0100
0000
,
1000
0010
0000
1000
0100
1000
0000
0001
,
1000
0001
0000
0010
0001
0010
0000
0100
,
1000
0100
0000
1000
0010
1000
0000
0010
,
0100
0010
0000
0010
1000
0100
0000
0100
,
1000
0001
0000
0001
0010
0001
0000
0001
,
1000
0100
0000
0010
1000
0010
0000
0010
,
0100
0001
0000
0001
1000
0100
0000
0100
,
0010
0001
0000
0001
1000
0000
0110
0000
,
0001
0101
0100
0110
,
0010
1010
0100
0110
,
1000
1100
0010
0110
,
0001
0011
1000
1001
,
0110
1100
0011
0110
,
1100
0000
0011
0000
1100
0000
1000
0001
,
1000
0000
0001
0000
1000
0000
0001
0000
1000
0000
0001
0000
0020
0200
0000
0000
,
0000
0000
0000
0000
0000
0000
0000
0000
0000
0000
0000
0000
0000
0000
0000
0000
0000
0000
0000
0000
0000
0000
0000
0000
0000
0000
0000
0000
0000
0000
0000
0000
0000
0000
0000
0000
0000
0000
0000
0000
0000
0000
0000
0000
0000
0000
0000
0000
0000
0330
0000
0000
0000
0000
0000
0000
0000
0000
0000
0000
0000
0000
0000
0000
;

//---------------dance-single - Copied from Copied from----------------
#NOTES:
     dance-single:
     Copied from Copied from:
     Easy:
     4:
     0.336,0.429,0.149,0.122,0.031,238.000,17.000,14.000,0.000,0.000,0.000,0.336,0.429,0.149,0.122,0.031,238.000,17.000,14.000,0.000,0.000,0.000:
0000
0000
0000
0000
,
0000
0000
0000
1000
,
0100
1000
0001
1000
,
0001
0000
0000
0001
0000
1000
0000
0000
0000
0010
0000
0000
,
1000
0100
0010
0001
,
1000
0000
0000
0001
0000
1000
0000
0000
0000
0001
0000
0000
,
1000
0010
0100
0001
,
1000
0000
0000
0100
0000
1000
0000
0000
0000
0001
0000
0000
,
0100
1000
0100
0001
,
0010
0000
0000
0100
0000
1000
0000
0000
0000
0001
0000
0000
,
1000
0010
0100
0001
,
0010
0000
0000
0100
0000
1000
0000
0000
0000
0010
0000
0000
,
0100
0010
1000
0100
,
0010
0000
0000
0001
0000
0010
0000
0000
0000
0001
0000
0000
,
0100
0010
1000
0010
,
0001
0000
0000
0010
0000
1000
0000
0000
0000
0100
0000
0000
,
1000
0001
1000
1001
,
0110
1001
1100
1000
,
0001
0100
1000
0001
,
1000
0010
1000
0100
,
1000
0001
1000
0001
,
1000
0010
1000
0100
,
0000
1000
0000
0001
,
0000
1000
0000
0010
,
0000
1000
0000
0100
,
0000
1000
0000
0010
,
0000
1000
0000
0100
,
0000
1000
0000
0001
0000
0000
0001
0000
,
0000
1000
0000
0010
,
0000
1000
0000
0001
0000
0000
1000
0000
,
0000
0100
0000
1000
,
0000
0010
0000
1000
,
0000
0001
0000
0000
0000
0000
0002
0000
,
0000
2003
0000
3010
,
1000
0100
0000
1000
,
0001
0100
0000
0001
,
0010
0100
0000
1000
,
0001
0100
0010
0000
,
0010
0000
1000
0100
,
0000
1000
0001
0000
,
1000
0010
0100
0000
,
0001
0000
1000
0100
,
0000
0001
1000
0010
,
0000
1000
0000
0100
,
0000
1000
0000
0001
,
0000
0010
0000
0100
,
1000
0010
0100
0001
,
0010
0100
1000
0001
,
0100
0010
1000
2002
,
0000
0000
3003
0001
,
0000
1000
0000
0010
,
1000
0100
0000
0001
,
1000
0100
0000
0010
,
0001
0100
0000
0010
,
1000
0100
0000
0001
,
0100
1000
0000
1000
,
0100
0001
0000
0001
,
1000
2002
3003
0001
,
1000
0010
0000
0010
,
1000
0100
0000
0001
,
0010
0100
0000
0100
,
1000
0010
0000
0010
,
0100
0001
0000
0001
,
0010
0100
0000
1001
,
0000
1001
0000
0220
,
0000
0000
0330
0001
,
0000
1000
0000
0100
,
0000
1000
0000
0010
,
0100
0001
0000
0001
,
1000
0100
0100
0000
,
1000
0000
0010
0100
,
0000
0001
1000
0000
,
0100
1000
0000
0010
,
0100
0000
0001
0110
,
0000
0101
0000
0110
,
0000
1010
0000
0110
,
0000
1100
0000
0110
,
0000
0011
0000
0001
,
0010
0100
0010
0010
,
0100
0010
0100
2000
,
3002
2003
3002
0023
,
0200
0000
0000
0000
0000
0000
0000
0000
0000
0000
0000
0000
0000
0000
0000
0000
0000
0000
0000
0000
0000
0000
0000
0000
0000
0000
0000
0000
0000
0000
0000
0000
0000
0000
0000
0000
0000
0000
0000
0000
0000
0000
0000
0000
0000
0000
0000
0000
0000
0330
0000
0000
0000
0000
0000
0000
0000
0000
0000
0000
0000
0000
0000
0000
;
