#TITLE:Moscow Mule;
#SUBTITLE:;
#ARTIST:Brisk & Stormtrooper;
#TITLETRANSLIT:;
#SUBTITLETRANSLIT:;
#ARTISTTRANSLIT:;
#GENRE:;
#CREDIT:;
#BANNER:Moscow Mule.png;
#BACKGROUND:;
#LYRICSPATH:;
#CDTITLE:;
#MUSIC:Moscow Mule.ogg;
#OFFSET:-0.259;
#SAMPLESTART:37.970;
#SAMPLELENGTH:13.180;
#SELECTABLE:YES;
#BPMS:0.000=181.990;
#STOPS:83.000=0.659
;
#BGCHANGES:;
#KEYSOUNDS:;

//---------------dance-single - Highflyer----------------
#NOTES:
     dance-single:
     Highflyer:
     Hard:
     9:
     0.688,0.824,0.315,0.259,0.101,525.000,39.000,32.000,32.000,0.000,0.000,0.688,0.824,0.315,0.259,0.101,525.000,39.000,32.000,32.000,0.000,0.000:
0000
0000
0000
0000
,
0000
0000
0000
0000
,
0000
0000
0000
0000
,
0000
0000
0000
0000
,
0000
0000
0000
0000
,
0000
0000
0000
0001
1000
0010
0100
0010
,
0000
0000
0000
1000
0100
0010
0001
1000
,
0000
0000
0000
0010
1000
0100
0010
0100
,
1000
0010
0100
0010
1000
0100
0220
0000
,
0000
0330
0000
1000
0001
1000
0001
1000
,
0000
0000
0000
0010
1000
0010
1000
0010
,
0000
0000
0000
0001
0100
0010
0100
0010
,
1000
0001
1000
0100
1000
0001
2002
0000
,
0000
0000
3003
0100
0001
1000
0001
1000
,
0000
0000
0000
0010
1000
0010
1000
0001
,
0000
0000
0000
0001
0100
1000
0100
0010
,
1000
0001
0010
0100
0001
0100
2000
0000
,
0000
0000
3000
0001
0100
1000
0100
0010
,
0000
0000
0000
0001
1000
0100
1000
0001
,
0000
0000
0000
0001
0100
0010
1000
0001
,
1000
0100
0010
0001
1000
0001
1001
0001
,
0100
0100
0001
0100
0000
0101
0000
0010
,
1000
0100
1000
0001
0000
1001
0000
0001
,
0200
0000
0310
1000
0001
1000
0100
0010
,
0001
1000
2002
0000
0000
0003
0000
3001
,
0200
0300
0100
0010
0000
1001
0000
0001
,
0100
1000
0100
0010
0000
1001
0000
0001
,
0010
0000
0100
1000
0001
0100
1000
0100
,
0010
1000
2002
0000
0000
0003
0000
0001
,
3100
1000
0100
0010
0000
1001
0000
0001
,
0100
1000
0100
0010
0000
1001
0000
0001
,
0020
0000
0130
0010
0100
1000
0001
0100
,
1000
0100
0020
0000
0000
0031
0000
0001
,
2000
0000
3001
0001
0000
1010
0000
0001
,
0100
1000
0100
0010
0000
1001
0000
0001
,
0200
0000
0310
1000
0100
0010
0001
1000
,
0010
0100
0202
0000
0000
0000
0303
0001
,
1000
0001
1000
0001
0000
1010
0000
0001
,
0100
1000
0100
0010
0000
1001
0000
0001
,
0020
0000
0130
1000
0001
0100
1000
0100
,
0010
1000
2002
0000
0000
3003
0000
0001
,
0100
1000
0001
0010
0000
1001
0000
0001
,
1000
0100
0001
1000
0000
0011
0000
0001
,
2000
3000
0010
0100
0001
0100
1000
0001
,
0010
1000
0002
0000
0000
2000
0003
3001
,
0100
1000
0100
0010
0000
1001
0000
0001
,
0010
0100
1000
0100
0000
1001
0000
0001
,
0200
0000
1300
0100
0001
0010
1000
0010
,
0001
0200
2000
0000
0300
3000
0000
0010
,
2000
0000
3001
1000
0000
1100
0000
0001
,
0100
1000
0100
0010
0000
1001
0000
0001
,
0200
0000
0310
1000
0100
0010
0001
1000
,
0010
0100
0202
0000
0000
0000
0000
0000
,
0303
0000
0000
0000
0010
0000
1000
0000
0100
0000
1000
0000
0001
0000
1000
0001
,
0000
0000
0001
0000
0010
0000
0100
0000
0010
0000
0100
0000
0010
0000
0001
1000
,
0000
0000
1000
0000
0001
0000
1000
0000
0001
0000
0100
0000
0010
0000
0100
0010
,
0000
1000
0001
1000
0100
1000
0001
1000
,
1001
0000
0000
0000
0001
0000
0100
0000
0010
0000
0100
0000
0010
0000
1000
0010
,
0000
0000
1000
0000
0010
0000
0100
0000
0001
0000
1000
0000
0100
0000
0010
0001
,
0000
0010
0001
0100
0010
1000
0010
1000
,
0001
0000
0100
0000
0010
1000
0001
0000
0001
0000
1000
0100
0000
0000
1000
0000
,
0001
0000
0000
0000
0001
0000
1000
0000
0010
0000
1000
0000
0010
0000
1000
0010
,
0000
0000
1000
0000
0001
0000
1000
0000
0100
0000
0010
0000
0001
0000
0010
0001
,
0000
0000
0100
0000
0010
0000
0100
0000
0010
0000
1000
0000
0100
0000
0010
0001
,
0000
0100
1000
0100
0010
1000
0001
0010
,
0100
0000
0000
0000
0100
0000
1000
0000
0001
0000
0100
0000
1000
0000
0100
0010
,
0000
0000
1000
0000
0010
0000
1000
0000
0100
0000
0010
0000
0001
0000
0100
0010
,
0000
0100
1000
0100
0010
1000
0001
0010
,
0100
0000
1000
0000
0001
0000
1000
0000
0010
0000
0100
0001
0000
0000
0100
0000
,
0010
0000
0000
0000
0000
0000
0000
0000
1000
0000
0000
0000
0000
0000
0000
0000
0000
0001
0000
0000
0000
0000
0000
0000
MMMM
0000
0000
0000
0000
0000
0000
0000
,
MMMM
0000
0000
0000
0000
0000
0000
0000
1000
0000
0000
0000
0000
0000
0000
0000
0000
0001
0000
0000
0000
0000
0000
0000
MMMM
0000
0000
0000
0000
0000
0000
0000
,
MMMM
0000
0000
0000
0000
0000
0000
0000
1000
0000
0000
0000
0000
0000
0000
0000
0000
0001
0000
0000
0000
0000
0000
0000
MMMM
0000
0000
0000
0000
0000
0000
0000
,
MMMM
0000
0000
0000
0000
0000
0000
0000
1000
0000
0000
0000
0000
0000
0000
0000
0000
0001
0000
0000
0000
0000
0000
0000
MMMM
0000
0000
0000
0000
0000
0000
0000
,
MMMM
0000
1000
0001
0010
0100
1000
0100
,
0010
0001
0100
0010
1000
0010
0100
0001
,
1000
0000
0100
0000
0010
0001
0010
0001
0010
0100
0010
0100
0010
0100
1000
0100
,
1000
0100
1000
0100
1000
0000
0001
0000
1000
0000
0001
0000
1000
0000
0000
0000
,
1001
0000
0010
0000
0100
0000
0001
1000
,
0000
0100
1000
0001
0100
0000
1010
0000
,
0101
0000
0010
0000
1000
0000
0001
0100
,
0000
1000
0100
0010
1000
0000
2001
0000
,
3200
0000
0301
0000
0100
0000
0010
1000
,
0000
1000
0001
0100
1000
0000
1010
0000
,
1001
0000
0010
1000
0010
0000
0010
0000
,
0010
1001
1100
1001
,
0101
0000
0010
1000
0001
0000
0100
0010
,
0000
1000
0100
0010
1000
0000
1010
0000
,
0011
0000
0001
0100
1000
0100
0010
1000
,
0000
0001
1000
0100
1000
0000
1001
0000
,
0010
0000
1000
0000
0001
0000
0100
1000
,
0000
0100
0010
1000
0100
0000
0010
0000
,
0001
0000
0001
0100
0001
0100
0010
0100
,
0010
1000
0010
0000
1000
0000
1001
0000
;

//---------------dance-single - Highflyer----------------
#NOTES:
     dance-single:
     Highflyer:
     Medium:
     6:
     0.415,0.450,0.250,0.000,0.000,329.000,31.000,0.000,0.000,0.000,0.000,0.415,0.450,0.250,0.000,0.000,329.000,31.000,0.000,0.000,0.000,0.000:
0000
0000
0000
0000
,
0000
0000
0000
0000
,
0000
0000
0000
0000
,
0000
0000
0000
0000
,
0000
0000
0000
0000
,
0000
0000
1000
0001
,
0000
0000
1000
0010
,
0000
0000
0010
0100
,
0001
0000
1000
0000
0100
1000
0100
0000
,
0000
0000
0001
1000
,
0000
0000
0010
0100
,
0000
0000
0001
1000
,
0100
0000
0010
0000
0001
0010
0001
0000
,
0000
0000
0010
1000
,
0000
0000
0010
0100
,
0000
0000
0001
1000
,
0100
0000
0010
0000
0001
0010
0001
0000
,
0000
0000
1000
0010
,
0000
0000
0001
0100
,
0000
0000
0000
0010
,
1000
0100
1000
0001
,
1000
0000
0010
0000
0000
0010
0000
0000
,
0010
0000
0100
0000
0000
0101
0000
0010
,
1000
1100
1001
1010
,
0101
0110
0000
0000
,
1000
0000
0001
0000
0000
0001
0000
0100
,
0010
0000
1000
0000
0000
1000
0000
0100
,
1000
0001
0100
1000
,
0100
1010
0000
0000
,
0001
0000
0100
0000
0000
0010
0000
0010
,
1000
0000
0100
0000
0000
1000
0000
0001
,
0100
0010
1000
0100
,
0010
0011
0000
0000
,
0001
0000
1000
0010
0000
0010
0000
0000
,
0100
0000
0010
0100
0000
0100
0000
0010
,
1000
1000
0100
1000
,
0001
1001
0000
0000
,
0000
0000
1000
0000
0000
0001
0000
0100
,
0010
0000
1000
0100
0000
1000
0000
0001
,
1000
0010
0100
0001
,
1000
1100
0000
0000
,
0001
0000
0100
0010
0000
0010
0000
1000
,
0100
0000
1000
0001
0000
0100
0000
0010
,
1000
0001
0100
0010
,
1000
0100
1000
0000
0000
0000
0000
0000
,
0001
0000
0100
0010
0000
0010
0000
1000
,
0100
0000
1000
0001
0000
0100
0000
0010
,
1000
0100
1000
0001
,
0010
0001
0010
0000
0000
0000
0000
0000
,
0010
0000
1000
0010
0000
0010
0000
0100
,
0001
0000
1000
0100
0000
1000
0000
0001
,
1000
0000
0010
0100
0001
0000
1000
0100
,
1000
1001
0000
0000
,
0000
0000
0010
0000
1000
0000
0010
1000
,
0010
0000
0100
0000
0001
0000
0100
0001
,
0100
0000
0010
0000
1000
0000
0100
0010
,
0001
0100
1000
0100
,
0110
0000
0001
0000
1000
0000
0100
1000
,
0100
0000
1000
0000
0001
0000
0100
0010
,
1000
0001
1000
0010
,
0100
0000
0001
0100
0001
0000
1000
0010
,
1000
0000
0001
0000
1000
0000
0100
1000
,
0100
0000
1000
0000
0001
0000
0010
0001
,
0010
0000
0001
0000
0100
0000
0010
1000
,
0010
1000
0100
1000
,
1001
0000
0001
0000
0100
0000
1000
0100
,
0010
0000
0010
0000
1000
0000
0100
0010
,
0001
0001
1000
0010
,
1000
0000
0010
1000
0010
0000
0010
1000
,
0010
1001
1100
0000
,
0000
1001
0101
0000
,
0000
1001
1100
0000
,
0000
1001
0101
0000
,
0000
0010
0000
1000
,
0000
0100
0000
0010
,
0000
0000
0001
0010
0001
0010
0001
1000
,
0100
1000
0001
0000
1000
0000
0001
0000
,
1001
0000
0010
0000
1000
0000
0001
0100
,
0000
0100
0001
1000
,
0000
0000
1001
0000
1100
0000
0001
1000
,
0000
0001
0100
0110
,
0010
0000
1000
0000
0100
0000
1000
0001
,
0000
0001
0100
0010
,
0000
0010
1000
0100
,
1000
0001
0100
1001
,
0100
0000
1000
0000
0001
0000
0100
0010
,
0000
0010
1000
0000
0010
0000
0001
0000
,
1000
0000
1001
0000
0110
0000
0001
1000
,
0000
1000
0001
0000
0100
0000
0010
0000
,
0000
0000
0101
0000
1010
0000
0001
1000
,
0000
1000
0100
0000
1000
0000
0001
0000
,
0000
0001
0100
0010
,
1000
0000
0100
1000
0001
0000
1001
0000
;

//---------------dance-single - Highflyer----------------
#NOTES:
     dance-single:
     Highflyer:
     Easy:
     3:
     0.257,0.300,0.113,0.000,0.000,209.000,14.000,0.000,0.000,0.000,0.000,0.257,0.300,0.113,0.000,0.000,209.000,14.000,0.000,0.000,0.000,0.000:
0000
0000
0000
0000
,
0000
0000
0000
0000
,
0000
0000
0000
0000
,
0000
0000
0000
0000
,
0000
0000
0000
0000
,
0000
0000
1000
1000
,
0000
0000
0001
1000
,
0000
0000
0010
0100
,
0001
1000
0100
1100
,
0000
0000
0001
0001
,
0000
0000
1000
0001
,
0000
0000
0010
1000
,
0100
1000
0010
1001
,
0000
0000
0010
0100
,
0000
0000
0001
1000
,
0000
0000
1000
1000
,
0001
0001
1000
1001
,
0000
0000
0010
0010
,
0000
0000
0100
0100
,
0000
0000
0001
1000
,
0100
1000
0001
1001
,
0010
1000
0000
1000
,
0000
0001
0000
1000
,
0000
0010
0000
1000
,
0000
0100
0000
0000
,
0001
0000
1000
0000
0000
1000
0000
0000
,
0001
0000
1000
0000
0000
1000
0000
0000
,
0010
0100
0000
0001
,
0000
1001
0000
0000
,
0010
0000
1000
0000
0000
1000
0000
0000
,
0010
0000
0100
0000
0000
0100
0000
0000
,
0010
0000
1000
0000
,
0001
0000
0001
0000
,
0100
0000
0100
0000
0000
0100
0000
0000
,
0010
0000
0010
0000
0000
0010
0000
0000
,
1000
0000
0001
0000
,
1000
0000
0010
0000
,
0010
0000
1000
0000
0000
1000
0000
0000
,
0001
0000
0100
0000
0000
0100
0000
0000
,
0010
1000
0000
0001
,
0000
1000
0000
0000
,
0010
0000
1000
0000
0000
1000
0000
0000
,
0001
0000
0100
0000
0000
0100
0000
0000
,
0010
1000
0000
0001
,
0000
1000
0000
0000
,
0010
0000
0100
0000
0000
0100
0000
0000
,
0001
0000
1000
0000
0000
1000
0000
0000
,
0010
0100
0000
0001
,
0000
1100
0000
0000
,
0001
0000
1000
0000
0000
1000
0000
0000
,
0010
0000
0100
0000
0000
0100
0000
0000
,
0010
1000
0000
1000
,
0000
1000
0000
0000
,
0000
0001
1000
0000
,
1000
0000
0001
0000
,
0100
0000
0010
0000
,
1000
0001
0000
0100
,
0000
0010
0000
1000
,
0001
0000
0100
0000
,
0010
1000
0000
0001
,
0000
1000
0000
0010
,
0000
1000
0000
0001
,
1000
0000
0001
0000
,
0100
0001
0000
1000
,
0000
0010
1000
0000
,
0001
0000
1000
0000
,
0010
0100
0000
0001
,
0000
1000
0000
0100
,
0000
1000
0001
0000
,
0000
1000
0001
0000
,
0000
1000
0001
0000
,
0000
1000
0001
0000
,
0000
1000
0001
0000
,
0000
1000
0000
1000
,
0000
1000
0000
1000
,
0000
1000
0000
0001
,
0000
1000
0001
1000
,
0000
1001
0000
1100
,
0000
0001
0100
0001
,
0000
0110
0000
0110
,
0000
0010
1000
0100
,
0000
1001
0000
1001
,
0000
0001
0100
0010
,
0000
0010
0000
1000
,
0000
0001
0000
1001
,
0000
0010
0000
1000
,
0000
0100
1000
0010
,
0000
0100
0000
0100
,
0000
0001
1000
0100
,
0000
1000
0000
1000
,
0000
0010
0100
0001
,
0000
1000
0000
1000
,
0000
0100
0000
1001
;
