#TITLE:Live Forever;
#SUBTITLE:(Soundfactory Eternal Club Mix);
#ARTIST:Magnus Carlsson;
#TITLETRANSLIT:;
#SUBTITLETRANSLIT:;
#ARTISTTRANSLIT:;
#GENRE:;
#CREDIT:;
#BANNER:Live Forever.png;
#BACKGROUND:;
#LYRICSPATH:;
#CDTITLE:;
#MUSIC:Magnus_Carlsson_-_Live_Forever__Soundfactory_Eternal_Club_Mix_.ogg;
#OFFSET:-0.477;
#SAMPLESTART:37.990;
#SAMPLELENGTH:13.200;
#SELECTABLE:YES;
#BPMS:0.000=134.990;
#STOPS:240.000=2.222
;
#BGCHANGES:;
#KEYSOUNDS:;

//---------------dance-single - FlyaRespect2Ceder----------------
#NOTES:
     dance-single:
     FlyaRespect2Ceder:
     Challenge:
     12:
     1.000,1.000,0.181,0.333,1.000,1957.000,19.000,35.000,16.000,6.000,0.000,1.000,1.000,0.181,0.333,1.000,1957.000,19.000,35.000,16.000,6.000,0.000:
0000
0000
0000
0000
,
0000
0000
0000
0000
,
0000
0000
0000
0000
,
0000
0000
0000
0000
,
0000
0000
0000
0000
,
0000
0000
1000
0010
0000
1000
0010
0000
0000
0000
1000
0100
0000
1000
0100
0000
,
0000
0000
0010
0001
0000
0010
0001
0000
0011
0000
0001
0100
0000
0001
0100
0000
,
0001
0010
0100
1000
0001
0010
0100
1000
,
0100
0010
0001
1000
0100
0010
0001
0010
,
0100
1000
0100
1000
0100
1000
0100
1000
0001
0100
0001
0100
0001
0100
0001
0100
,
0001
1000
0001
1000
0001
1000
0001
1000
0010
0100
0010
0100
0010
0100
0010
0100
,
0020
0000
2030
0000
,
3200
0000
0300
MMMM
,
0020
0000
0032
0000
,
0203
0000
0300
MMMM
,
2000
0000
3200
0000
,
0320
0000
0000
0032
,
0203
0000
0000
0000
0320
0000
0000
2030
,
0000
0000
0000
0000
,
0000
0000
3000
MMMM
,
1000
0100
1000
0100
1000
0100
1000
0100
0010
0001
0010
0001
0010
0001
0010
0001
,
0100
0010
0100
0010
0100
0010
0100
0010
0100
0010
0100
0010
0100
0010
0100
0010
,
1000
0001
1000
0001
1000
0001
1000
0001
1000
0100
1000
0100
1000
0100
1000
0100
,
0010
0001
0010
0001
0010
0001
0010
0001
0010
0001
0010
0001
0010
0001
0010
0001
,
0100
0001
0100
0001
0100
0001
0100
0001
0100
0010
0100
0010
0100
0010
0100
0010
,
1000
0010
1000
0010
1000
0010
1000
0010
1000
0010
1000
0010
1000
0100
1000
0100
,
0010
0001
0010
0001
0010
0001
0010
0001
0100
0001
0100
0001
0100
0001
0010
0100
,
1000
0100
1000
0100
1000
0100
1000
0100
1000
0100
1000
0100
1000
0100
1000
0100
,
1000
0000
0010
1000
0100
0000
0010
0001
,
0000
0100
0000
0010
0000
1000
0000
0100
,
0000
0010
0001
0100
1000
0000
0100
0020
,
0000
2030
0000
3200
0000
2300
0000
3201
,
0000
0300
0001
0100
0010
0000
1000
0100
,
0000
0010
0000
0000
0000
0000
0001
0000
,
0100
0000
0010
1000
0000
1000
0010
0100
,
0001
0000
0001
0010
0000
0010
0100
1000
,
0001
0000
0001
0100
1000
0000
0100
0010
,
0000
1000
0000
0100
0000
0010
0000
0001
,
0000
0100
0010
1000
0010
0000
1000
0020
,
0000
0230
0000
0302
0000
0023
0000
2130
,
0000
3000
0001
0100
0010
0000
1000
0100
,
0000
0010
0000
0000
0000
0000
0001
0000
,
0100
0000
0010
2000
0000
0000
0000
0000
,
0000
3000
0002
0000
2000
0000
3013
0000
,
1000
0100
1000
0100
1000
0100
1000
0100
0010
0100
0010
0100
0010
0100
1000
0010
,
1000
0010
0100
0001
0100
0001
0100
0001
0100
0001
0100
0001
0100
0010
1000
0100
,
1000
0001
1000
0001
1000
0001
0100
0010
0100
0010
1000
0100
1000
0100
0010
0001
,
0010
0001
0010
0001
0100
0001
0100
0001
0100
0010
0100
0010
1000
0010
1000
0010
,
1000
0100
1000
0100
1000
0100
1000
0100
0010
0100
0010
0100
0010
0100
1000
0001
,
1000
0001
0010
0001
0010
0001
0010
0001
0010
0001
0010
0001
0010
0100
1000
0100
,
0010
0100
0010
0100
0010
0100
0010
0001
0100
0001
0100
0001
0100
0001
1000
0010
,
1000
0010
1000
0010
1000
0001
1000
0001
1000
0100
1000
0100
0010
0001
0010
0001
,
0100
0010
0100
0010
0100
0010
0100
0010
1000
0100
1000
0100
1000
0100
0010
0001
,
0010
0001
1000
0010
1000
0010
1000
0010
1000
0010
1000
0010
1000
0100
1000
0100
,
0010
0001
0010
0001
0010
0001
0100
0010
0100
0010
1000
0100
1000
0100
1000
0001
,
1000
0001
1000
0001
0010
0100
0010
0100
1000
0100
1000
0100
1000
0010
1000
0010
,
0100
0010
0100
0010
0100
0010
0100
0010
1000
0100
1000
0100
1000
0100
1000
0010
,
1000
0010
0100
0001
0100
0001
0100
0001
0100
0001
0100
0001
1000
0100
1000
0100
,
0010
0001
0010
0001
0010
0001
0010
0001
1000
0010
1000
0010
1000
0010
0100
0001
,
0010
0100
1000
0010
0100
0001
0010
0100
1000
0100
0010
0001
0100
0010
1000
0100
,
0010
0000
0000
0000
1001
0000
0000
1100
0000
0000
0011
0000
0110
0000
0000
0000
,
0010
1000
0100
0000
0010
0002
0000
0203
,
0000
0320
0000
2030
0000
3210
0000
0300
,
0001
0100
0010
0000
1000
0100
0000
0010
,
0000
MMMM
0000
0000
0010
0000
0010
0000
,
0001
0100
0000
1000
0010
0001
0100
0000
,
0100
0001
0000
0100
1000
0010
0001
0000
,
0010
1000
0100
0000
0001
0010
0000
0101
,
0000
0010
0000
1100
0000
0001
0000
0100
,
0010
1000
0100
0000
0010
0001
0000
0100
,
0000
1000
0000
0100
0000
0110
0000
0000
,
0010
1000
0100
0000
0010
0001
0000
0100
,
0000
0010
1000
0010
,
0100
0010
0000
1000
0001
0000
1000
0000
,
2000
0000
0000
0000
0002
0000
0000
0000
3013
0000
0000
0000
0010
1000
0010
1000
,
0010
1000
0010
1000
0100
0010
0100
0010
0100
0010
0001
0100
0001
0100
0010
1000
,
0010
1000
0010
1000
0010
1000
0010
1000
0001
0010
0100
1000
0100
0010
0001
0010
,
0001
0010
0100
1000
0100
1000
0001
1000
0001
1000
0010
1000
0010
1000
0010
1000
,
0001
0100
0001
0100
0010
0100
0010
0100
0010
1000
0010
1000
0001
0010
0001
0010
,
0001
0010
0001
0010
0100
1000
0100
1000
0100
1000
0010
1000
0010
1000
0001
0100
,
0001
0100
0001
0100
0001
0100
0001
0100
0001
1000
0001
1000
0100
0010
0100
0010
,
0100
0010
0100
0010
0001
0100
0001
0100
0001
0100
0010
0100
0010
0100
0010
0100
,
0001
1000
0001
1000
0001
0100
0001
0010
0001
0100
0001
1000
0100
1000
0100
1000
,
0100
1000
0100
1000
0001
0100
0001
0100
0001
0100
0010
1000
0010
1000
0100
0010
,
0100
0010
0100
0010
0100
0010
0100
0010
0001
0100
0001
0100
0010
1000
0010
1000
,
0010
1000
0001
1000
0001
1000
0010
0100
0010
0100
0001
0100
0001
0100
0001
0100
,
0010
1000
0010
1000
0100
1000
0100
1000
0001
0010
0001
0010
0100
0010
0100
0010
,
0100
0010
0100
0010
0001
1000
0001
1000
0001
1000
0010
1000
0010
1000
0100
1000
,
0100
1000
0100
1000
0100
1000
0100
1000
0001
0010
0001
0010
0001
0100
0010
1000
,
0100
0010
0001
0100
0010
1000
0010
1000
0010
1000
0100
0010
0001
0100
0010
1000
,
0100
0010
0001
0100
0010
0000
0100
0000
0110
0000
0100
0000
0110
0000
0000
0000
,
0010
1000
0100
0010
0001
0000
0001
0000
,
0100
1000
0100
0010
1000
0000
0100
0000
,
1000
0001
0010
0001
0100
0000
0010
0000
,
0010
1000
0100
0010
0001
0000
0001
0000
,
0100
0010
1000
0100
0010
0000
0001
0000
,
0100
0010
1000
0010
0100
0000
0001
0000
,
0100
0001
0010
0100
1000
0000
0001
0000
,
0100
0000
0010
1000
0010
0000
0100
0000
,
0001
0000
0010
0100
1000
0000
0001
0000
,
0100
0010
1000
0010
,
0100
0010
0000
1000
0000
0100
0000
1100
,
0001
0100
0010
1000
,
0010
0100
0000
0001
0000
1000
0000
1001
,
0001
0000
0100
0000
0010
0000
1000
1000
,
0010
0010
0100
0100
0010
0010
1000
0100
,
0010
0000
0000
0000
0000
0000
0001
0000
0000
0000
0000
0000
1000
0000
0000
0100
0000
0000
0010
0000
0000
0001
0000
0000
0010
0000
0000
0001
0000
0000
0010
0000
0001
0000
0010
0000
0001
0000
0000
0010
0000
0000
0001
0000
0000
0010
0000
0000
,
0001
0010
0001
0010
0100
1000
0100
1000
0100
1000
0010
0100
0010
0100
0001
0100
,
0001
0100
0001
0100
0001
0100
0001
0100
0010
1000
0100
0010
0001
0100
0001
0100
,
0001
0100
0010
1000
0010
1000
0001
0010
0001
0010
0100
1000
0100
1000
0100
1000
,
0010
1000
0010
1000
0100
0010
0100
0010
0001
1000
0001
1000
0001
0100
0001
0100
,
0001
0100
0001
0100
0001
1000
0010
1000
0010
1000
0100
0010
0100
0010
0001
0100
,
0001
0100
0001
0100
0001
0100
0001
0100
0001
1000
0001
1000
0100
1000
0100
1000
,
0100
1000
0100
1000
0010
0100
0010
0100
0010
0100
0001
0010
0001
0010
0001
0010
,
0100
1000
0100
1000
0010
1000
0010
1000
0001
0100
0001
0100
0010
0100
0010
0100
,
0010
0100
0010
0100
0010
1000
0010
1000
0010
1000
0100
0010
0100
0010
0001
0100
,
0001
0100
0001
0100
0001
0100
0001
0100
0010
0100
0010
0100
0010
1000
0010
1000
,
0010
1000
0001
0010
0001
0010
0001
1000
0001
1000
0001
0100
0001
0100
0001
0100
,
0010
1000
0010
1000
0100
1000
0100
1000
0100
0010
0100
0010
0001
0100
0001
0100
,
0001
0100
0001
0100
0010
0100
0010
0100
0010
0100
0001
0010
0001
0010
0001
1000
,
0001
1000
0001
1000
0001
1000
0001
1000
0010
1000
0010
1000
0100
1000
0100
1000
,
0100
1000
0100
1000
0010
0100
0010
0100
0010
0100
0001
0100
0001
0100
0001
0100
,
0001
0100
0001
0100
0001
0100
0001
0100
0001
0100
0001
0100
0001
0010
0100
0010
,
0001
0100
0010
1000
0100
0010
0001
1000
0001
0010
0100
1000
0100
1000
0100
1000
,
0100
1000
0100
0010
0001
0010
0001
0010
0001
0010
0001
0010
0001
0010
0001
0010
,
0001
0010
0001
0010
0100
1000
0100
0010
0001
0100
0010
1000
0001
1000
0001
1000
,
0001
1000
0001
1000
0100
1000
0100
1000
0100
1000
0100
1000
0100
0010
0100
0010
,
0100
0010
0100
0010
0100
0010
0100
0010
0001
0100
0010
1000
0100
0010
0001
0100
,
0010
1000
0100
1000
0010
1000
0010
1000
0010
1000
0010
1000
0010
1000
0010
1000
,
0010
1000
0010
1000
0001
0010
0100
1000
0001
0010
0100
1000
0001
0100
0001
0100
,
0001
0100
0001
0100
0010
1000
0010
1000
0010
1000
0010
1000
0100
0010
0100
0010
,
0100
0010
0100
0010
0001
1000
0001
1000
0001
1000
0001
1000
0001
0100
0001
0100
,
0001
0000
1000
0100
1000
0100
1000
0100
0000
0000
1000
0001
1000
0001
0000
0000
,
0002
0000
0000
0000
2000
0000
0000
0000
3103
0000
0000
0000
0001
0100
0001
0100
,
0001
0100
0001
0100
0010
1000
0010
1000
0010
1000
0100
1000
0100
1000
0010
0100
,
0010
0100
0010
0100
0010
0100
0010
0100
0001
0010
0100
1000
0001
1000
0001
1000
,
0001
1000
0010
1000
0010
1000
0100
0010
0100
0010
0001
0100
0001
0100
0001
0100
,
0010
1000
0010
1000
0001
1000
0001
1000
0001
0100
0001
0100
0001
0010
0001
0010
,
0001
0010
0001
0010
0100
1000
0100
1000
0100
1000
0010
1000
0010
1000
0100
0010
,
0100
0010
0100
0010
0100
0010
0100
0010
0001
1000
0001
1000
0100
0010
0001
1000
,
0100
0010
0001
1000
0100
1000
0001
0010
0100
1000
0001
0100
0001
0100
0001
0100
,
0001
0010
0001
0010
0001
0100
0001
0100
0010
1000
0010
1000
0100
0010
0100
0010
,
0100
0010
0100
0010
0001
0100
0001
0100
0001
0100
0001
0010
0001
0010
0001
1000
,
0001
1000
0001
1000
0001
1000
0001
1000
0010
1000
0010
1000
0100
0010
0100
0010
,
0100
0010
0001
0100
0001
0100
0010
1000
0010
1000
0100
1000
0100
1000
0100
1000
,
0100
0010
0100
0010
0001
0100
0001
0100
0010
0100
0010
0100
0010
1000
0010
1000
,
0010
1000
0010
1000
0001
0100
0001
0100
0001
0100
0001
0010
0001
0010
0100
1000
,
0100
1000
0100
1000
0100
1000
0100
1000
0010
1000
0010
1000
0001
0010
0001
0010
,
0001
0010
0001
0010
0001
0100
0001
0100
0001
0100
0010
0100
0010
0100
0010
0100
,
0010
1000
0010
1000
0100
1000
0100
1000
0001
0010
0001
0010
0001
0100
0001
0100
,
0001
0100
0001
0100
0001
1000
0001
1000
0001
1000
0001
1000
0001
0100
0001
0100
,
0001
0100
0001
0100
0001
0100
0001
0100
0001
0100
0001
0100
0010
1000
0010
1000
,
0010
1000
0010
1000
0100
0010
0100
0010
0100
0010
0100
0010
0001
0010
0001
0010
,
0001
0010
0001
0010
0001
0010
0001
0010
0001
0010
0001
0010
0100
1000
0100
1000
,
0100
1000
0100
1000
0001
1000
0001
1000
0001
1000
0001
1000
0100
1000
0100
1000
,
0100
1000
0100
1000
0100
1000
0100
1000
0010
0100
0010
0100
0001
0010
0100
1000
,
0001
0010
0100
1000
0010
0100
0001
1000
0010
0100
0001
0010
0001
0010
0001
0010
,
0001
0100
0001
0100
0010
0100
0010
0100
0010
1000
0010
1000
0100
1000
0100
1000
,
0100
1000
0100
1000
0001
1000
0001
1000
0001
1000
0001
0100
0001
0100
0010
1000
,
0010
1000
0010
1000
0010
1000
0010
1000
0010
0100
0001
0010
0100
1000
0100
1000
,
0100
1000
0100
0010
0100
0010
0001
0010
0001
0010
0001
0100
0001
0100
0001
0100
,
0010
0100
0010
0100
0010
1000
0010
1000
0001
0010
0001
0010
0100
1000
0100
1000
,
0100
1000
0100
1000
0010
0100
0010
0100
0010
0100
0001
0010
0001
0010
0100
1000
,
0100
1000
0100
1000
0100
1000
0100
1000
0010
0100
0010
0100
0010
1000
0010
1000
,
0010
1000
0010
1000
0100
0010
0100
0010
0100
0010
0001
0100
0010
1000
0001
0010
,
0100
1000
0001
0100
0010
1000
0001
0010
0100
1000
0001
0100
0010
0100
0010
0100
,
0000
0010
0100
0000
0000
0000
0001
0100
0000
0001
0100
0000
0000
0000
0001
0100
,
0000
0010
1000
0000
1010
0000
1000
0100
0000
0010
0001
0000
1000
0100
1000
0100
,
0000
0100
0010
0000
0000
0000
0001
0100
0000
0010
0100
0000
0000
0000
0010
1000
,
0000
1000
0100
0000
0110
0000
0010
0001
0000
0001
0100
0000
0001
0100
0001
0100
,
0000
0001
0100
0000
0000
0000
0100
0010
0000
0010
1000
0000
0000
0000
1000
0100
,
0000
0100
0010
0000
0110
0000
0001
0100
0000
0100
0010
0000
1000
0010
1000
0010
,
0000
1000
0010
0000
0000
0000
0010
1000
0000
1000
0100
0000
0000
0000
0100
1000
,
0000
0100
1000
0000
1001
0000
1000
0001
0000
1000
0001
0000
0000
0000
0000
0000
;
