#TITLE:Last Forever;
#SUBTITLE:(Cube..Hard Remix);
#ARTIST:Darwin & Fracus feat. Ant Johnson;
#TITLETRANSLIT:;
#SUBTITLETRANSLIT:;
#ARTISTTRANSLIT:;
#GENRE:;
#CREDIT:;
#BANNER:Last Forever.png;
#BACKGROUND:;
#LYRICSPATH:;
#CDTITLE:;
#MUSIC:Last Forever (Cube..Hard Remix).ogg;
#OFFSET:0.072;
#SAMPLESTART:64.890;
#SAMPLELENGTH:21.020;
#SELECTABLE:YES;
#DISPLAYBPM:175.000;
#BPMS:0.000=175.040,163.000=350.039,164.000=175.040;
#STOPS:163.750=0.171
;
#BGCHANGES:;
#KEYSOUNDS:;

//---------------dance-single - Highflyer----------------
#NOTES:
     dance-single:
     Highflyer:
     Hard:
     8:
     0.612,0.646,0.386,0.182,0.032,347.000,36.000,17.000,0.000,0.000,0.000,0.612,0.646,0.386,0.182,0.032,347.000,36.000,17.000,0.000,0.000,0.000:
0000
0000
0000
0000
,
0000
0000
0000
0000
,
0000
0000
0000
0000
,
0000
0000
0000
0000
,
0000
0000
0000
0000
,
1000
0010
0100
0001
0010
0100
1000
0100
,
0001
0100
1000
0010
0001
0010
1000
0100
,
0001
0000
1000
0000
0010
0000
0001
0000
1000
0000
0001
0000
1000
0000
0001
2000
,
0002
0000
0000
0000
0000
0000
0000
0000
0000
0000
0000
0000
0000
0000
0000
3003
,
1001
0000
0100
0000
0010
0001
0010
0001
,
0000
0000
1001
0000
1000
0010
0100
0001
,
1100
0000
1001
0000
0100
0010
0001
1000
,
0000
0100
0000
0010
0001
1000
0010
0100
,
0110
0000
1100
0000
1000
0001
0010
0100
,
0000
1000
0000
1000
0100
0010
0001
1000
,
1001
0000
1010
0000
1000
0100
0010
0002
,
0000
2003
0000
3000
0100
0010
0100
0010
,
0110
0000
1001
0000
1000
0010
0001
0020
,
0000
1030
0000
0000
0100
0010
0001
1000
,
1001
0000
1010
0000
1000
0100
0010
1000
,
0000
0010
0000
0001
0100
1000
0100
0010
,
1010
0000
1001
1000
0100
0010
0001
2000
,
0000
0000
3020
0000
0000
0000
0130
0010
0100
0000
0001
0000
1000
0000
0000
0000
,
1100
0000
0100
0010
1000
0001
0100
1000
,
0000
1000
0000
0000
0100
0010
0100
0000
,
0110
0000
0010
0000
1000
0100
1000
0000
,
0001
0000
0010
0000
0100
0010
0100
0000
,
0001
0000
0100
0000
0010
0100
0010
0000
,
1000
0000
0100
0000
0010
0100
0010
0000
,
0001
0000
0100
0000
0010
0100
0010
0000
,
1000
0000
0100
0000
0001
0100
1000
0000
,
0010
0000
0100
0000
0010
1000
0100
0000
,
0001
0000
1000
0000
0010
1000
0100
0000
,
2001
0000
3010
0000
1000
0100
0010
0000
,
0001
0000
0010
0000
0100
1000
0010
0000
,
0100
0000
0010
0000
1000
0100
0010
0000
,
0010
0000
0001
0000
0010
0100
0010
0000
,
0001
0000
1000
0000
0100
0010
0100
0000
,
0010
0000
1000
0000
1000
0100
1000
0000
,
0100
0000
0010
0000
0001
0010
0001
0000
,
0001
0000
0010
0000
0100
0000
1000
0100
1000
0100
1000
0100
1000
0000
0000
0000
,
1001
0000
1000
0100
0010
0000
0010
0100
,
1000
0100
0001
0100
0000
0000
0100
0010
,
0100
0010
0100
0000
0010
0001
0010
1000
,
0010
0001
0100
1000
0100
0000
0010
0100
,
1000
0000
1000
0100
0010
1000
0001
1000
,
0000
0001
0010
0200
0000
2000
0000
3300
,
1000
0001
0010
0100
1000
0001
1000
0000
,
1000
0010
0100
0001
0010
1000
0001
0000
,
0001
0100
1000
0010
0100
0010
1000
0100
,
0010
0001
0000
0001
1000
0001
1000
0001
,
0000
0010
0100
1000
0001
0100
1000
0100
,
0001
0010
0100
2000
0000
0200
3300
0100
,
1000
0000
1001
0000
1100
0000
1000
0010
,
1000
0100
0000
0010
0001
0100
0010
1000
,
0000
1000
0010
0100
0010
1000
0000
0100
,
0000
0011
0000
2002
3003
0000
1001
0000
,
1100
0000
1001
0000
0101
0000
0010
1000
,
0100
1000
0000
1000
0100
0010
0011
0000
,
1001
0000
1100
0000
1001
0001
0010
0100
,
1000
0002
0000
0000
0003
0001
1001
0000
,
1100
0000
1001
0000
0011
0000
1000
0100
,
0010
0001
1000
0000
1000
0000
0010
0100
,
0010
0000
1000
0001
1000
0000
1001
0000
,
0000
0000
0000
0000
1000
0000
0100
0000
0010
0000
0000
0001
0000
0000
1000
0000
,
2002
0000
0000
0000
,
0000
0000
0000
0000
,
3003
0000
0000
0000
;

//---------------dance-single - Copied from Highflye----------------
#NOTES:
     dance-single:
     Copied from Highflye:
     Challenge:
     13:
     1.000,1.000,0.193,0.150,1.000,648.000,18.000,14.000,0.000,1.000,0.000,1.000,1.000,0.193,0.150,1.000,648.000,18.000,14.000,0.000,1.000,0.000:
0000
0000
0000
0000
,
0000
0000
0000
0000
,
0000
0000
0000
0000
,
0000
0000
0000
0000
,
0000
0000
0000
0000
,
1000
0100
0010
0001
0010
0100
1000
0010
0100
0001
0010
0100
0010
0100
0010
0001
,
0010
0100
1000
0100
0010
0001
1000
0001
1000
0010
0100
0010
0100
0010
1000
0100
,
0010
0001
1000
0001
1000
0100
0010
0001
0010
0100
1000
0100
0010
0001
1000
0002
,
2000
0000
0000
0000
0000
0000
0000
0000
0000
0000
0000
0000
0000
0000
0000
3003
,
1001
0000
0100
0000
0010
0001
0010
0002
,
0000
1003
1001
0000
1000
0010
0100
0001
,
1100
0000
1001
0000
0100
0010
0001
2000
,
0000
3200
0000
0310
0001
1000
0010
0100
,
0110
0000
1100
0000
1000
0001
0010
0200
,
0000
1300
0000
1000
0100
0010
0001
1000
,
1001
0000
1010
0000
1000
0100
0010
0002
,
0000
2003
0000
3000
0100
0010
0100
0010
,
0110
0000
1001
0000
1000
0010
0001
0020
,
0000
1030
0000
0000
0100
0010
0001
1000
,
1001
0000
1010
0000
1000
0100
0010
1000
,
0000
0010
0000
0001
0100
1000
0100
0010
,
1010
0000
1001
1000
0100
0010
0001
2000
,
0000
0000
3020
0000
0000
0000
0130
0010
0100
0000
0001
0000
1000
0000
0000
0000
,
1100
0000
0100
0010
1000
0001
0100
1000
,
0000
1000
0000
0000
0100
0010
0100
0000
,
0110
0000
1000
0000
0100
0000
0010
0001
0000
0001
0010
0000
0100
0000
0010
0000
,
0001
0000
1000
0000
0001
0000
1000
0001
0000
1000
0001
0000
1000
0000
0001
0000
,
1000
0000
0100
0000
0010
0000
0001
0010
0000
0100
0000
1000
0100
0000
0010
0000
,
0001
0000
0100
0000
0010
0000
1000
0100
0000
1000
0000
0100
1000
0000
0010
0000
,
1000
0000
0010
0000
0100
0000
0010
1000
0000
1000
0000
1000
0100
0000
0010
0000
,
0001
0000
1000
0000
0010
0000
0100
0010
0000
1000
0000
0100
0010
0000
0001
0000
,
1000
0000
0100
0000
0010
0000
0001
0100
0000
0010
0000
1000
0100
0000
0010
0000
,
0001
0000
0100
0000
1000
0000
0100
0001
0000
0010
0000
1000
0010
0000
0001
0000
,
1001
0000
0001
0000
0010
0000
0100
1000
0000
0001
0000
0100
1000
0000
0100
0000
,
0010
0000
1000
0000
0100
0000
0010
0001
0000
0001
0000
0010
0001
0000
0010
0000
,
0100
0000
1000
0000
0010
0000
1000
0010
0000
0100
0000
1000
0100
0000
0010
0000
,
1000
0000
0100
0000
0010
0000
0001
0010
0000
0100
0000
1000
0100
0000
0100
0000
,
0010
0000
0001
0000
0001
0010
0000
0001
0000
0010
0000
0100
1000
0000
0100
0000
,
0010
0000
0001
0000
0010
0000
0100
1000
0000
0010
0000
0100
0001
0000
0010
0000
,
0100
0000
1000
0000
0010
0000
0100
0010
0000
1000
0000
0100
0010
0000
0001
0000
,
0010
0000
0100
0000
1000
0000
1000
0100
1000
0100
1000
0100
1000
0000
0000
0000
,
1001
0000
0000
0000
1000
0000
0001
0010
0100
1000
0001
1000
0010
1000
0010
0000
,
1000
0000
0100
0000
0010
0000
0001
0010
0100
1000
0010
0100
0001
0010
0100
1000
,
0001
0000
1000
0000
0010
0000
1000
0100
0010
0001
0010
0001
0010
0100
1000
0100
,
1000
0000
0010
0000
0100
0000
0010
1000
0100
0010
0001
0010
0100
1000
0100
0010
,
0100
0000
0010
0000
0001
0000
0001
0100
0010
1000
0100
0010
0001
0010
0100
1000
,
0100
0000
0010
0000
0001
0000
1000
0010
0100
0001
0010
0100
1000
0010
0100
0001
,
1000
0000
0100
0000
0010
0000
0001
0010
0100
0010
0001
0010
0100
1000
0100
0010
,
0100
0000
0010
0000
0001
0000
1000
0010
0100
0010
1000
0100
0010
0001
0010
0100
,
1000
0100
0010
0100
0010
0100
0010
0001
1000
0100
0010
0001
0010
0100
1000
0100
,
0010
0001
0010
0001
0010
0001
0010
0100
1000
0100
0010
0001
0100
0010
1000
0100
,
0010
0001
0010
0001
0010
0001
0010
0100
1000
0010
0100
1000
0100
0010
1000
0100
,
1000
0001
1000
0001
1000
0001
1000
0100
0010
0001
0100
0010
1000
0100
0010
0001
,
0100
0001
0100
0001
0100
0001
0100
0010
1000
0100
0010
0001
1000
0001
1000
0010
,
0100
0001
0100
0001
0100
0001
0100
0001
0010
0100
1000
0100
0010
0100
1000
0100
,
0010
0100
0010
0100
0010
0100
0010
0001
0010
0100
1000
0010
0100
0010
1000
0100
,
0010
0001
0010
0001
0010
0001
0010
0001
0010
0100
1000
0010
1000
0100
0010
0100
,
1000
0100
1000
0100
1000
0100
1000
0010
0100
0010
1000
0100
0010
0100
1000
0010
,
0100
0001
0100
0001
0100
0001
0100
0001
1000
0001
1000
0100
0010
0001
1000
0010
,
0100
0010
0100
0010
0100
0010
0100
0010
1000
0100
0010
0001
0010
0100
1000
0100
,
0010
0001
0010
0001
0010
0001
0010
0100
1000
0010
0100
0010
1000
0100
1000
0010
,
1000
0001
1000
0001
1000
0001
1000
0010
1000
0100
0010
0001
0010
0001
0100
0001
,
1000
0010
1000
0010
1000
0010
1000
0100
1000
0010
1000
0100
0010
0001
0010
0100
,
1000
0100
1000
0100
1000
0100
1000
0010
0100
0001
0010
0100
1000
0100
0010
0001
,
1000
0010
1000
0010
1000
0010
1000
0010
1000
0100
0010
0001
0010
0100
1000
0002
,
2000
0000
0000
0000
0000
0000
0000
0020
,
0000
0000
0000
0000
,
3033
0000
0000
0000
;

//---------------dance-single - Highflyer----------------
#NOTES:
     dance-single:
     Highflyer:
     Medium:
     6:
     0.410,0.395,0.268,0.096,0.000,234.000,25.000,9.000,0.000,0.000,0.000,0.410,0.395,0.268,0.096,0.000,234.000,25.000,9.000,0.000,0.000,0.000:
0000
0000
0000
0000
,
0000
0000
0000
0000
,
0000
0000
0000
0000
,
0000
0000
0000
0000
,
0000
0000
0000
0000
,
0010
1000
0100
1000
,
0001
0100
0010
1000
,
0100
1000
0001
1000
,
2002
0000
0000
3003
,
1010
0100
1000
0001
,
1001
0010
1000
0100
,
1001
0010
0100
0001
,
0011
0000
0100
0000
1000
0010
1000
0000
,
1100
1000
0001
0010
,
1000
0100
0010
0001
,
0011
0100
1000
0010
,
1000
0100
1000
0001
,
1001
0010
0100
0001
,
0011
0100
1000
0010
,
1010
0100
1000
0001
,
0011
0001
1000
0010
,
1000
0000
0100
0000
,
1000
0010
0100
0000
,
0001
0000
1000
0000
,
0010
1000
0100
0000
,
0001
0010
0001
0000
0001
0010
0001
0000
,
0001
0010
0001
0000
0001
0000
0001
0000
,
1000
0010
1000
0000
1000
0010
1000
0000
,
1000
0010
1000
0000
1000
0000
1000
0000
,
1000
0100
1000
0000
1000
0100
1000
0000
,
1000
0100
1000
0000
1000
0000
1000
0000
,
0001
0100
0001
0000
0001
0100
0001
0000
,
0001
0100
0001
0000
0001
0000
0001
0000
,
1000
0000
0010
0000
1000
0100
1000
0000
,
0001
0010
0010
0010
,
0001
1000
0010
1000
,
1001
0100
1000
0001
,
0011
0010
0100
0001
,
1001
0001
0010
0100
,
0110
1000
0001
0100
,
0010
1000
0100
2002
,
3003
0001
1000
0000
,
0010
1000
0000
0100
,
2000
0000
0000
0000
0000
3002
0000
0000
,
0203
0000
0000
0310
1000
0000
0100
0000
,
1000
0001
1000
0010
,
0100
0001
1000
0100
,
1000
0000
0010
0000
0100
0001
0100
0000
,
0001
0000
0010
0000
0100
1000
0100
0000
,
1000
0000
0010
0000
0100
0000
0000
0001
,
0000
1000
0000
0000
0000
0000
1000
0100
,
0000
0001
1000
0000
0001
0000
0010
0000
,
0100
1000
1001
1010
,
0001
0100
0010
1000
,
0100
1000
0000
0001
,
0100
0010
1000
0100
,
0010
0001
1000
0001
,
1001
0000
1100
0000
,
0001
0100
0011
1000
,
1001
0000
1100
0000
,
0001
0100
0010
1000
,
1100
0000
1001
0000
,
0010
0100
0001
0010
,
0100
0000
1000
0000
,
0001
1000
0010
1000
,
0200
0000
0000
0000
0000
0000
0000
0020
,
0000
0000
0000
0000
,
0330
0000
0000
0000
;

//---------------dance-single - Copied from Highflye----------------
#NOTES:
     dance-single:
     Copied from Highflye:
     Easy:
     3:
     0.323,0.359,0.268,0.204,0.000,167.000,25.000,19.000,0.000,0.000,0.000,0.323,0.359,0.268,0.204,0.000,167.000,25.000,19.000,0.000,0.000,0.000:
0000
0000
0000
0000
,
0000
0000
0000
0000
,
0000
0000
0000
0000
,
0000
0000
0000
0000
,
0000
0000
0000
0000
,
2000
0000
3020
0000
,
0230
0000
0302
0000
,
0023
0000
0230
0000
,
2300
0000
0000
0000
0000
0000
0000
3000
,
1001
0010
1000
0000
,
0100
1000
0001
0000
,
0010
1000
1100
0000
,
0001
0100
0101
0000
,
0010
1000
1100
0000
,
0001
0100
0110
0000
,
0010
1000
0100
0000
,
0001
1000
0010
0100
,
1001
0010
1000
0000
,
0100
1000
0101
0000
,
0010
1000
1100
0000
,
0010
0100
0110
0000
,
0010
1000
1001
0000
,
0010
0100
0101
0000
,
0010
1000
1100
0000
,
0001
0100
0110
0000
,
0001
0000
1000
0000
,
0010
1000
0100
0000
,
0010
0001
0100
0000
,
0001
0100
1000
0000
,
1000
0100
0010
0000
,
0010
1000
0100
0000
,
0100
0001
0010
0000
,
0010
0001
0100
0000
,
1000
0010
1000
0000
,
0100
1000
0001
0000
,
0100
0010
1000
0000
,
0001
0010
0100
0000
,
1000
0010
0100
0100
,
0001
1000
0100
0100
,
0010
0001
0100
0100
,
0010
1000
0001
2002
,
3003
0001
2000
0000
,
3010
2000
3000
0002
,
2000
0000
3000
0000
0000
0203
0000
0000
,
0000
0000
0000
0320
0000
0000
0000
0000
,
2030
0000
3100
0100
,
0010
0000
0002
0000
,
0103
0000
0010
0000
,
1000
0000
0100
0000
,
0010
0001
0010
0001
,
0010
0001
0000
0000
,
1000
0000
0010
0000
,
1000
0010
1000
0010
,
0000
0010
0000
1000
,
0100
0000
0001
0000
,
1000
0010
1000
0000
,
0100
1000
0001
0000
,
1001
0000
0110
0000
,
0001
1000
0100
0000
,
1001
0000
0110
0000
,
0001
1000
0100
0000
,
1001
0000
0110
0000
,
0010
1000
0100
0000
,
0011
0000
1100
0000
,
1010
0000
0101
0000
,
2001
0000
0000
0000
0000
0000
0000
0002
,
0000
0000
0000
0000
,
0000
3003
0000
0000
0000
0000
0000
0000
0000
0000
0000
0000
0000
0000
0000
0000
0000
0000
0000
0000
0000
0000
0000
0000
0000
0000
0000
0000
0000
0000
0000
0000
0000
0000
0000
0000
0000
0000
0000
0000
0000
0000
0000
0000
0000
0000
0000
0000
0000
0000
0000
0000
0000
0000
0000
0000
0000
0000
0000
0000
0000
0000
0000
0000
0000
0000
0000
0000
0000
0000
0000
0000
0000
0000
0000
0000
0000
0000
0000
0000
0000
0000
0000
0000
0000
0000
0000
0000
0000
0000
0000
0000
0000
0000
0000
0000
0000
0000
0000
0000
0000
0000
0000
0000
0000
0000
0000
0000
0000
0000
0000
0000
0000
0000
0000
0000
0000
0000
0000
0000
0000
0000
0000
0000
0000
0000
0000
0000
0000
0000
0000
0000
0000
0000
0000
0000
0000
0000
0000
0000
0000
0000
0000
0000
0000
0000
0000
0000
0000
0000
0000
0000
0000
0000
0000
0000
0000
0000
0000
0000
0000
0000
0000
0000
0000
0000
0000
0000
0000
0000
0000
0000
0000
0000
0000
0000
0000
0000
0000
0000
0000
0000
0000
0000
0000
0000
0000
0000
0000
0000
0000
0000
;
