#TITLE:LET'S GROOVE;
#SUBTITLE:(The Euro-Speedo Revenge);
#ARTIST:BEAT BOX feat. DJ SPEEDO;
#TITLETRANSLIT:;
#SUBTITLETRANSLIT:;
#ARTISTTRANSLIT:;
#GENRE:;
#CREDIT:;
#BANNER:;
#BACKGROUND:;
#LYRICSPATH:;
#CDTITLE:;
#MUSIC:LET'S GROOVE (The Euro-Speedo Revenge).ogg;
#OFFSET:1.247;
#SAMPLESTART:40.510;
#SAMPLELENGTH:15.000;
#SELECTABLE:YES;
#BPMS:0.000=174.000;
#STOPS:;
#BGCHANGES:;
#KEYSOUNDS:;

//---------------dance-single - Highflyer----------------
#NOTES:
     dance-single:
     Highflyer:
     Hard:
     9:
     0.658,0.659,0.342,0.282,0.342,396.000,34.000,28.000,0.000,0.000,0.000,0.658,0.659,0.342,0.282,0.342,396.000,34.000,28.000,0.000,0.000,0.000:
0000
0000
0000
0000
,
0000
0000
0000
0000
,
0000
0000
0000
0000
,
0020
0000
0000
1030
0100
0000
1000
0000
,
0020
0000
0000
0130
0000
0000
1010
0000
,
2002
0000
3003
0100
0010
0000
1000
0000
,
0200
0000
0000
0310
0000
0000
1001
0000
,
0020
0000
0000
0000
,
1000
0000
0000
1000
0000
0000
0000
0000
,
1030
0100
0010
0001
1000
1000
0000
0100
,
0000
0010
0000
0001
0000
0001
0100
0010
,
1010
0000
1001
0000
0100
0100
0000
1000
,
0000
0010
0000
0100
0000
1000
0100
0001
,
0101
0000
1001
0000
1000
1000
0000
0010
,
0000
0100
0000
0001
0000
0001
0010
0100
,
1100
0000
0110
0000
0100
0100
0000
1000
,
0100
0100
0010
0010
0000
0001
0001
1000
,
1000
0000
0000
0100
0000
0010
0100
0000
1000
0000
0000
0001
0000
0010
0001
0000
,
1000
0000
0000
1000
0000
1000
0100
0000
0010
0000
0000
0001
0000
0001
0100
0000
,
0010
0000
0000
0100
0000
0100
0010
0000
1000
0000
0000
1000
0000
1000
0010
0000
,
0100
0000
0100
0010
0000
0100
0010
0000
1000
0000
0000
0001
0000
1000
0100
0000
,
0100
0000
0000
0010
0000
0010
0001
0000
0001
0000
0000
1000
0000
1000
0100
0000
,
0010
0000
0000
1000
0000
0010
0001
0000
0100
0000
0000
1000
0000
0100
0001
0000
,
0100
0000
0000
0010
0000
1000
0100
0000
0010
0000
0000
0001
0000
0100
0010
0000
,
1000
0000
0100
0010
0000
0001
0100
0000
0010
0000
0000
1000
0000
1000
0100
0000
,
1001
0000
1000
0100
0010
0010
0010
0000
,
2000
0000
0000
3001
0000
0000
1000
0001
,
1000
0001
0020
0230
0020
0000
0000
0330
,
0200
0000
0000
0310
0000
0000
1000
1000
,
0100
0010
0001
0000
0001
0000
0001
0000
,
0002
0000
0000
1003
0000
0000
1000
0100
,
0020
0000
0031
2000
0000
0000
0000
3000
,
1000
0000
0100
0000
0000
0010
0001
0010
0001
0000
1000
0000
0100
1000
0100
1000
,
0100
0000
1000
0010
0100
0000
0110
0000
,
0010
1000
0010
2000
0000
3010
0100
0000
,
1010
0110
0101
0000
,
1000
0100
0001
0200
0000
1000
1000
1300
,
0100
0000
0010
0001
0100
0000
1010
0000
,
1000
0010
0001
0010
0000
1000
0100
0000
,
0010
0110
0011
0000
,
1000
0000
0010
0000
0001
0000
0010
0000
0010
0100
0010
0100
0010
0000
0100
0000
,
0110
0000
1000
0010
1000
0010
0000
0000
,
1000
0100
1000
0100
0000
1000
0001
0000
,
0011
0000
1100
0000
0110
0010
0010
0000
,
0001
0010
0100
1000
0000
2000
0001
0001
,
3001
0000
1000
0100
1000
0000
0100
0020
,
0002
0000
0000
0033
0011
0001
1000
0000
,
1010
0000
0000
0000
0000
0001
0001
0000
,
2000
3200
0320
0032
0003
0000
0110
0000
,
2000
0000
0000
0000
0000
0000
0000
0010
,
0000
3010
0000
0000
0000
0000
1000
0000
,
0200
0000
0000
0000
0000
0000
0310
0001
,
0100
1000
0100
0001
0010
1000
0000
0010
,
0002
2000
3000
1000
1000
0000
0000
0100
,
0000
1003
0000
0010
0100
0000
0010
0000
,
2000
0000
0000
0000
0000
0100
3100
0000
,
0010
0001
0100
0010
0100
0001
0010
0000
,
1001
0000
0010
1000
0100
0000
1001
0000
,
0010
0001
0100
1000
0000
0100
0001
0000
,
1001
0010
0110
0000
,
1000
0100
0010
0100
0000
1000
0010
0100
,
0110
0000
0010
0100
0010
0000
1001
0000
,
1000
0100
0001
0100
0000
0000
1001
0000
,
0110
0011
1100
0000
,
1000
0000
0010
0000
0100
0000
0001
1000
0001
0000
0001
0000
1000
0001
1000
0000
,
1000
0000
0000
0100
0000
0010
0100
0000
1000
0000
0000
0001
0000
0010
0001
0000
,
1000
0000
0000
1000
0000
1000
0100
0000
0010
0000
0000
0001
0000
0001
0100
0000
,
0010
0000
0000
0100
0000
0100
0010
0000
1000
0000
0000
1000
0000
1000
0010
0000
,
0100
0000
0100
0010
0000
0100
0010
0000
1000
0000
0000
0001
0000
1000
0100
0000
,
0100
0000
0000
0010
0000
0010
0001
0000
0001
0000
0000
1000
0000
1000
0100
0000
,
0010
0000
0000
1000
0000
0010
0001
0000
0100
0000
0000
1000
0000
0100
0001
0000
,
0100
0000
0000
0010
0000
1000
0100
0000
0010
0000
0000
0001
0000
0100
0010
0000
,
1000
1000
0001
0001
0000
0010
0010
0010
;

//---------------dance-single - Highflyer----------------
#NOTES:
     dance-single:
     Highflyer:
     Medium:
     6:
     0.401,0.402,0.111,0.040,0.000,264.000,11.000,4.000,0.000,0.000,0.000,0.401,0.402,0.111,0.040,0.000,264.000,11.000,4.000,0.000,0.000,0.000:
0000
0000
0000
0000
,
0000
0000
0000
0000
,
0000
0000
0000
0000
,
0110
0000
0000
0010
1000
0000
0100
0000
,
1100
0000
0000
0001
0000
0000
0001
0000
,
0100
0000
0000
0010
0100
0000
0110
0000
,
0010
0000
0000
1000
0000
0000
0100
0000
,
2000
0000
0000
0000
,
0001
0000
0000
0001
3000
0000
0001
0000
,
0001
0000
0100
0000
0010
0100
0000
0001
,
0000
1000
0000
0100
0000
0000
0001
0000
,
1000
0000
0100
0000
1000
0000
0000
0001
,
0000
0100
0000
0010
0000
0000
1000
0000
,
0100
0000
1000
0000
0001
0000
0000
0100
,
0000
0010
0000
1000
0000
0001
0001
0000
,
0001
0100
0010
0000
,
0001
1000
0100
1000
0000
0001
0000
1000
,
0001
1000
0010
1000
,
0100
0000
1000
0000
0001
0010
0001
0000
,
1000
0010
0100
0001
,
0010
0000
0100
0000
1000
0100
1000
0000
,
0001
1000
0010
0100
,
0001
0000
0010
0000
0100
1000
0100
0000
,
1000
0001
0100
0010
,
0100
0001
0100
0001
0100
0000
0010
0000
,
1000
0000
0100
1000
0100
0000
1000
0000
,
0001
0000
0000
1000
0000
0000
0010
0000
,
0100
0001
1000
0100
,
0100
0000
0000
0100
0000
0000
0001
0000
,
1000
0010
0001
0100
,
0110
0000
0000
1001
0000
0000
0100
0000
,
1000
0001
1000
0010
,
1000
0000
0000
0000
0100
0000
1000
0100
,
1000
0001
1000
0000
,
0010
1000
0100
1100
,
0011
1100
1010
0000
,
0001
0000
0000
0100
0000
0000
0010
0000
,
1000
0000
0100
1000
0100
0000
1000
0000
,
0001
0000
0000
0010
0000
0000
0100
0000
,
1000
0010
1000
0000
,
0001
0000
0000
0100
0000
0000
0010
0000
,
1000
0100
1000
0000
,
0001
0000
0000
1000
0000
0000
0010
0000
,
1000
0100
0100
0100
,
0100
1000
0010
1000
0100
0000
1000
0000
,
0001
1000
0001
0100
,
0020
0000
0000
0000
0000
0000
0000
0030
,
1000
0100
1000
0000
,
0001
1000
0010
0001
,
0002
0000
0000
0000
0000
0000
0000
1000
,
0000
1000
0003
0000
0000
0000
0010
0000
,
0100
0000
0000
0001
,
1000
0000
0100
1000
0100
0000
1000
0000
,
0002
0000
0000
0000
0000
0000
0000
1000
,
0000
1000
0003
0000
0000
0000
0010
0000
,
1000
0000
0100
0000
,
0001
1000
0010
0001
,
0100
0000
0010
1000
0100
0000
1000
0000
,
0001
0010
0001
1000
,
1100
0001
1010
0000
,
0001
0000
0100
0000
0010
0000
1000
0100
,
1000
0001
0010
0100
,
1000
0000
0010
1000
0000
0100
0000
1000
,
0001
1000
0010
0000
,
0001
0000
0100
0000
0010
0000
1000
0100
,
1000
0001
1000
0010
,
1000
0000
0100
0000
0010
0001
0010
0000
,
0001
0100
0010
1000
,
0100
0000
0010
0000
0001
0000
0100
0010
,
1000
0100
0010
0001
,
0100
0000
0010
0000
1000
0000
0001
0010
,
0100
1000
0001
0100
,
0010
1000
0001
1000
0000
0001
0001
0000
;

//---------------dance-single - Highflyer----------------
#NOTES:
     dance-single:
     Highflyer:
     Easy:
     4:
     0.320,0.328,0.080,0.040,0.000,211.000,8.000,4.000,0.000,0.000,0.000,0.320,0.328,0.080,0.040,0.000,211.000,8.000,4.000,0.000,0.000,0.000:
0000
0000
0000
0000
,
0000
0000
0000
0000
,
0000
0000
0000
0000
,
0010
0000
1000
0100
,
1000
0000
0000
1000
0000
0000
0001
0000
,
1000
0000
0010
0100
,
0001
0000
0000
0001
0000
0000
0001
0000
,
1000
0000
0000
0000
,
0100
0000
0000
0100
0000
0000
0000
0000
,
1000
0001
1000
0000
,
0100
1000
0001
0000
,
0010
0100
0001
0000
,
1000
0100
1000
0000
,
0010
0100
0001
0000
,
0001
0010
0100
0000
,
1000
0001
1000
0000
,
0010
0000
0100
0000
,
0001
0001
1000
1000
,
0100
0100
0010
0010
,
0001
0001
0100
0100
,
0010
0010
1000
1000
,
0100
0100
0010
0010
,
0001
0001
0100
0010
,
1000
0100
0001
0100
,
1000
0010
0001
0010
,
1000
0000
0001
0000
,
0001
0000
0001
0000
,
0010
1000
0100
0000
,
0100
0000
0100
0000
,
0010
0001
0100
0000
,
0100
0000
0100
0000
,
0010
1000
0100
0000
,
1000
0000
0000
0000
0001
1000
0001
0000
,
0001
0000
1000
0000
,
0001
0000
0100
0010
,
1000
0000
0100
0000
,
1000
0001
0100
0010
,
1001
0010
1000
0000
,
0001
0000
0100
0010
,
1000
0100
1100
0000
,
0001
0000
0100
0010
,
1000
0100
1000
0000
,
0001
1000
0010
0001
,
0010
0000
0001
0000
,
0001
0100
0010
0000
,
0010
1000
0100
1000
,
2200
0000
0000
0000
0000
0000
0000
3300
,
0001
0000
1000
0000
,
0010
0000
1000
0000
,
0200
0000
0000
0000
0000
0000
0000
1000
,
0000
1000
0300
0000
0000
0000
0001
0000
,
1000
0000
0000
0010
,
1000
0100
0010
0001
,
1000
0000
0002
0000
1000
0000
0000
1000
,
0000
1000
0003
0000
0000
0000
0010
0000
,
1000
0000
0010
0000
,
0001
0100
0010
0010
,
1000
0100
1000
0000
,
0001
0000
0100
0010
,
0110
0010
0110
0000
,
0010
1000
0100
0000
,
0001
1000
0010
0000
,
0001
0100
0010
1000
,
0100
1000
0001
0000
,
1001
0000
0110
0000
,
0010
1000
0100
1000
,
0001
0100
0010
1000
,
0100
0010
0001
0100
,
1000
0100
0001
0010
,
1000
0001
0100
1000
,
0001
0100
0010
1000
,
0100
0010
0001
1000
,
0010
0000
1001
0000
;
