#TITLE:Kung Fu Fighting;
#SUBTITLE:;
#ARTIST:Xtrance feat. Karl;
#TITLETRANSLIT:;
#SUBTITLETRANSLIT:;
#ARTISTTRANSLIT:;
#GENRE:;
#CREDIT:;
#BANNER:;
#BACKGROUND:;
#LYRICSPATH:;
#CDTITLE:;
#MUSIC:Kung Fu Fighting.ogg;
#OFFSET:-0.083;
#SAMPLESTART:61.050;
#SAMPLELENGTH:13.180;
#SELECTABLE:YES;
#BPMS:0.000=124.000;
#STOPS:;
#BGCHANGES:;
#KEYSOUNDS:;

//---------------dance-single - Highflyer----------------
#NOTES:
     dance-single:
     Highflyer:
     Hard:
     7:
     0.428,0.488,0.028,0.046,0.231,316.000,3.000,5.000,0.000,0.000,0.000,0.428,0.488,0.028,0.046,0.231,316.000,3.000,5.000,0.000,0.000,0.000:
0000
0000
0000
0000
,
0000
0000
0000
0000
,
0000
0000
0001
0000
,
1000
0000
0000
0000
0001
0000
0000
1000
,
1000
0000
0010
0000
,
0100
0000
0000
0000
0010
0000
0000
0100
,
0100
0000
0010
0000
,
1000
0000
0000
0000
0001
0000
0000
1000
,
0001
0000
0000
0000
0100
0010
0000
0100
0010
0000
0000
0000
1000
0100
0000
1000
,
0100
0000
0000
0000
0010
0001
0010
0001
0010
0000
0010
0100
0010
0000
1000
0010
,
0001
0000
0000
0000
0001
0100
0000
0010
1000
0000
0000
0000
1000
0100
0000
0010
,
0001
0000
0001
0100
0001
0000
1000
0100
1000
0000
0001
0010
0001
0000
1000
0000
,
0100
0000
0000
0000
0010
0001
0000
0001
0100
0000
0000
0000
0010
1000
0000
1000
,
0100
0000
0000
0000
0100
0010
0001
0100
0010
0000
0010
1000
0100
0000
0100
0010
,
0001
0000
0000
0000
1000
0100
0000
1000
0100
0000
0000
0000
0010
0001
0000
0010
,
0001
0000
0001
1000
0001
0000
0100
0010
0100
0000
0010
1000
0010
0000
0000
0000
,
0000
0000
1001
0001
0001
0000
0010
1000
,
0010
0000
0000
0000
1000
0100
1000
0100
1000
0000
0100
0010
0001
0000
0001
0100
,
0010
0000
0010
1000
0100
0000
0100
0010
,
0001
0000
0001
0010
0100
0000
1000
0100
0010
0000
0001
0100
0010
0000
1000
0100
,
0000
0000
0010
0010
0010
0000
0001
0100
,
0001
0000
0000
0000
0001
1000
0001
1000
0001
0000
0001
0010
0100
0000
0100
1000
,
0010
0000
0100
0100
0100
0000
0100
0001
,
0100
0000
0001
0100
0001
0000
0100
0001
0100
0000
0010
0100
0010
0000
1000
0000
,
1000
2000
0010
0000
,
0100
0000
0000
0000
0001
0000
0000
3010
,
0020
0000
0100
0000
,
1000
0000
0000
0000
0001
0000
0000
0130
,
0200
0000
0001
0000
,
1000
0000
0000
0000
0010
0000
0000
0301
,
0002
0000
1000
0000
,
0100
0000
0000
0000
0010
0000
0000
1003
,
1000
0000
0100
0010
0001
0000
0001
0100
,
0010
0000
0010
1000
0100
0000
0100
0010
,
0001
0000
0001
0010
1000
0000
0010
0001
,
0100
0000
0010
1000
0100
0000
0010
0010
,
0010
0000
0001
0100
0001
0000
0001
1000
,
0001
0000
0001
0010
0001
0000
0010
0100
,
0010
0000
1000
0010
1000
0000
0010
0001
,
0100
0000
0020
0000
0100
0130
0000
0010
,
0010
0000
1000
0100
1000
0010
0100
0000
,
0010
0000
1000
1000
0100
0010
0001
0100
,
1000
0000
0000
0000
0100
0000
0010
0000
1000
0000
0100
0000
0010
0001
0010
0000
,
0001
0000
0000
0000
0001
0100
0001
0000
0010
0000
0010
0000
0001
1000
0001
0000
,
0100
0000
0010
1000
0010
0001
0011
0000
,
0010
0000
0000
1000
0100
0000
0100
0000
0010
0000
0001
0000
0101
0000
0000
0000
,
0010
1000
0100
1000
0010
0001
0010
0000
,
0010
0000
1000
0100
1000
0100
1000
0000
,
1000
0001
1000
0000
0010
0000
1000
0000
,
0001
0000
0100
0000
0010
0000
0010
1000
,
0100
0010
0001
0100
,
1000
0000
0100
0000
0010
0000
1000
0010
,
1000
0010
0100
0001
,
0010
0001
0100
1000
,
1000
0100
0001
0000
0010
0000
0100
0000
,
1000
0000
0000
0000
0010
0000
0000
0000
0100
0010
0000
0000
0000
0000
0000
0000
;

//---------------dance-single - Highflyer----------------
#NOTES:
     dance-single:
     Highflyer:
     Challenge:
     10:
     0.721,0.745,0.259,0.037,0.735,514.000,28.000,4.000,0.000,0.000,0.000,0.721,0.745,0.259,0.037,0.735,514.000,28.000,4.000,0.000,0.000,0.000:
0000
0000
0000
0000
,
0000
0000
0000
0000
,
0000
0000
0001
0000
,
1000
0000
0000
0000
0001
0000
0000
1000
,
1000
0000
0010
0000
,
0100
0000
0000
0000
0010
0000
0000
0100
,
0100
0000
0010
0000
,
1000
0000
0000
0000
0001
0000
0000
1000
,
0001
0000
0000
0000
0100
0010
0000
0100
0010
0000
0000
0000
1000
0100
0000
1000
,
0100
0000
0000
0000
0010
0001
0010
0001
0010
0000
0010
0100
0010
0000
1000
0010
,
0001
0000
0000
0000
0001
0100
0000
0010
1000
0000
0000
0000
1000
0100
0000
0010
,
0001
0000
0001
0100
0001
0000
1000
0100
1000
0000
0001
0010
0001
0000
1000
0000
,
0100
0000
0000
0000
0010
0001
0000
0001
0100
0000
0000
0000
0010
1000
0000
1000
,
0100
0000
0000
0000
0100
0010
0001
0100
0010
0000
0010
1000
0100
0000
0100
0010
,
0001
0000
0000
0000
1000
0100
0000
1000
0100
0000
0000
0000
0010
0001
0000
0010
,
0001
0000
0000
0000
0001
0000
1000
0000
0001
0000
0000
0000
0100
0000
0010
0000
0100
0000
0000
0000
0010
0000
1000
0000
0010
0000
0000
1000
0000
0000
0100
0000
,
0000
0000
0000
0000
1000
0000
0010
1000
0010
0000
1000
0001
0100
0000
0010
0100
,
0010
0000
1000
0100
1000
0000
0001
0010
0001
0000
0100
0010
0100
0000
0010
1000
,
0100
0000
0010
0001
0100
0000
0001
0100
1000
0000
0100
1000
0100
0000
0010
1000
,
0010
0000
1000
0100
0010
0000
0001
0010
0001
0000
0100
0010
0100
0000
1000
0100
,
0010
0000
0100
0010
1000
0000
0100
0010
0001
0000
0010
0001
0100
0000
0010
0100
,
1000
0000
0100
1000
0100
0000
0010
1000
0010
0000
1000
0100
0010
0000
0001
0010
,
0001
0000
0100
0001
0010
0000
0001
0100
0001
0000
0100
0010
0100
0000
0010
1000
,
0100
0000
0010
0001
0010
0000
0001
0100
1000
0000
0100
0010
0100
0000
0010
1000
,
0100
0000
0000
0000
0010
0000
0000
0000
0011
0000
0001
0100
0001
0100
0001
0000
,
0101
0000
0001
1000
0001
1000
0001
0000
1001
0000
1000
0100
1000
0100
1100
0000
,
1100
0000
0000
0000
1010
0000
0000
0000
1001
0000
1000
0100
0010
0001
0010
0000
,
0011
0000
0001
0010
0100
1000
0100
0000
0110
0000
0010
0001
0100
0010
1010
0000
,
1010
0000
1000
0100
0010
0001
1000
0000
1001
0000
0001
0100
1000
0100
0001
0000
,
0101
0000
0001
0010
1000
0010
0001
0000
0011
0000
0001
0100
0010
1000
1010
0000
,
1010
0000
0000
0000
0011
0000
0000
0000
1001
0000
0001
0100
0001
0100
0010
0000
,
0110
0000
0010
1000
0010
1000
0100
0000
0110
0000
0010
0001
0100
0010
1010
0000
,
1010
0000
0000
0000
0001
0000
1000
0010
1000
0000
0010
1000
0100
0000
0010
0001
,
0010
0000
0001
0100
0010
0000
0100
0001
1000
0000
0001
0010
0001
0000
1000
0001
,
1000
0000
0001
1000
0001
0000
1000
0001
1000
0000
0001
0100
0001
0000
0100
0010
,
0100
0000
0010
1000
0010
0000
1000
0100
1000
0000
0100
0010
0001
0000
0010
0001
,
0100
0000
0001
0100
1000
0000
1000
0100
0010
0000
0100
0010
1000
0000
0010
1000
,
0100
0000
0010
0100
0010
0000
0001
0010
0001
0000
0001
0010
0001
0000
0001
0010
,
0001
0000
0010
0100
0010
0000
1000
0010
0001
0000
0010
0001
1000
0000
0010
0100
,
0010
0000
1000
0100
1000
0000
0100
0010
0100
0010
0000
0000
0000
0000
1001
0000
,
1001
0000
1000
1000
0001
1000
0001
0000
,
0001
0000
0000
0000
0001
0000
0001
0100
1000
0000
0100
0010
0100
0000
0010
0000
,
1000
0000
0000
0000
0100
0000
1000
0100
1000
0000
0100
0000
1000
0001
0010
0000
,
0010
0000
0000
0000
0001
0010
0001
0000
0010
0000
0100
0000
1000
0001
0010
0000
,
0100
0000
0000
0000
1010
0000
0010
0000
1000
0000
0001
0000
2200
0000
0000
3300
,
0000
0000
0001
0000
0100
0010
0100
1000
0100
0000
0010
0000
0100
0000
0000
0000
,
0010
0000
1000
0000
0100
0000
0010
0000
0001
0000
0100
0000
0001
0000
0001
1000
,
0001
0000
0100
0000
0010
0100
0010
0000
1000
0000
0010
0000
1000
0000
0010
0100
,
0010
0100
0010
0000
0101
0000
0001
1000
0001
0000
1000
0001
1000
0000
0100
1000
,
0100
0000
1000
0001
0100
0000
0001
0100
0010
0000
0010
1000
0010
0000
1000
0001
,
0010
0000
0001
0010
0100
0000
0100
1000
0001
0000
0001
1000
0001
0000
0100
0010
,
0100
0000
0010
1000
0010
0000
1000
0100
1000
0000
0100
0010
0001
0000
0010
0001
,
0100
0000
0010
0100
1000
0000
1000
0100
0010
0000
0010
0100
0010
0000
1000
0010
,
1000
0000
0100
1000
0100
0000
0010
0001
0010
0000
0001
0100
0001
0000
0010
0100
,
0010
0000
0010
1000
0100
0000
0100
0010
0001
0000
0001
0010
0001
0000
0100
0010
,
0100
0000
0010
0000
0220
0000
0000
0300
0130
0010
0000
0000
0000
0000
0000
0000
;

//---------------dance-single - Highflyer----------------
#NOTES:
     dance-single:
     Highflyer:
     Medium:
     4:
     0.262,0.257,0.083,0.037,0.000,185.000,9.000,4.000,0.000,0.000,0.000,0.262,0.257,0.083,0.037,0.000,185.000,9.000,4.000,0.000,0.000,0.000:
0000
0000
0000
0000
,
0000
0000
0000
0000
,
0000
0000
0001
0000
,
1000
0000
0000
0000
0001
0000
0000
1000
,
1000
0000
0010
0000
,
0100
0000
0000
0000
0010
0000
0000
0100
,
0100
0000
0010
0000
,
1000
0000
0000
0000
0001
0000
0000
1000
,
0001
1000
1000
0010
,
0010
0000
0010
0000
0100
0000
0010
0100
,
0010
0010
0010
1000
,
1000
0001
0100
0010
,
1000
0100
0100
0010
,
0010
0000
0001
0000
0100
0000
0010
0100
,
0010
0010
1000
0100
,
0010
0001
0100
0010
,
0010
1010
0001
0100
,
0010
0010
1000
0100
,
0010
0001
0100
0010
,
0010
1000
0100
0010
,
0001
0101
0010
1000
,
0100
0010
0001
0100
,
0010
1001
0010
0100
,
0010
1000
0001
0000
,
0001
2000
0001
0000
,
0001
0000
0000
0000
0001
0000
0000
3001
,
0002
0000
0100
0000
,
0100
0000
0000
0000
0100
0000
0000
1003
,
2000
0000
0100
0000
,
0010
0000
0000
0000
0010
0000
0000
0001
,
3002
0000
0100
0000
,
0100
0000
0000
0000
0100
0000
0000
0100
,
0103
0010
1000
0100
,
0100
1000
0001
0100
,
0010
0010
1000
0100
,
0010
0001
0100
1000
,
0100
0010
1000
0100
,
0010
0001
0100
0010
,
1000
0100
0010
0001
,
0100
0000
0010
0000
0010
0100
0000
0000
,
0010
1000
0001
0101
,
0000
0000
0010
1000
,
1100
0000
1000
0001
,
0101
0010
1000
0100
,
1100
0001
0100
0110
,
0000
1000
0001
0101
,
0000
1000
0001
0100
,
0010
0000
1000
0000
0100
1000
0100
0000
,
1000
1000
1000
0001
,
0100
0010
0000
0010
,
0000
0010
1000
0100
,
0010
0001
0000
0001
,
0000
0001
0100
0010
,
1000
0000
1000
0000
,
0010
1000
0100
0010
,
0001
0000
0000
0000
0001
1000
0000
0000
;

//---------------dance-single - Highflyer----------------
#NOTES:
     dance-single:
     Highflyer:
     Easy:
     2:
     0.188,0.205,0.065,0.018,0.000,133.000,7.000,2.000,0.000,0.000,0.000,0.188,0.205,0.065,0.018,0.000,133.000,7.000,2.000,0.000,0.000,0.000:
0000
0000
0000
0000
,
0000
0000
0000
0000
,
0000
0000
0001
0000
,
1000
0000
0001
0000
,
1001
0000
0010
0000
,
0100
0000
0010
0000
,
0110
0000
0010
0000
,
1000
0000
0001
0000
,
1001
1000
1000
0000
,
1000
0000
0010
0000
,
0100
0100
0100
0000
,
0010
0000
1000
0000
,
0001
1000
0001
0000
,
0001
0000
1000
0000
,
0010
0000
0100
0000
,
0010
1000
0100
0000
,
1100
0001
0000
0001
,
0000
0100
0000
0010
,
1000
0100
0000
1000
,
0000
0001
0000
0100
,
0020
0130
0000
0010
,
0000
1000
0100
0010
,
0002
1003
0000
0010
,
0000
0100
0000
0001
,
0000
1000
0000
0000
,
1000
0000
1000
0000
,
0001
0000
0100
0000
,
0010
0000
1000
0000
,
0100
0000
0010
0000
,
0001
0000
0100
0000
,
0010
0000
1000
0000
,
0100
0000
0010
0000
,
0011
0001
0001
0100
,
0010
0010
0000
1000
,
1000
0010
0000
0100
,
0000
0010
1000
0100
,
0000
0001
0000
0100
,
0000
0010
1000
0100
,
0000
0010
0000
0001
,
0000
0001
0100
0000
,
0010
1000
1000
0010
,
0000
0000
0001
0100
,
0010
0000
1000
0001
,
0100
0010
0010
1000
,
0100
0001
0100
0010
,
0000
1000
0001
0100
,
0000
1000
0100
0010
,
0000
0001
0100
0110
,
0000
1000
0000
1000
,
0000
0001
0000
0001
,
0000
0100
0000
0010
,
0000
1000
0000
0100
,
0000
0010
0001
0100
,
0000
0100
0000
0100
,
0010
1000
0000
1000
,
0000
0001
1001
0000
;
