#TITLE:Kickin' Stuff;
#SUBTITLE:;
#ARTIST:Darwin;
#TITLETRANSLIT:;
#SUBTITLETRANSLIT:;
#ARTISTTRANSLIT:;
#GENRE:;
#CREDIT:;
#BANNER:;
#BACKGROUND:;
#LYRICSPATH:;
#CDTITLE:;
#MUSIC:Kickin' Stuff.ogg;
#OFFSET:0.196;
#SAMPLESTART:37.990;
#SAMPLELENGTH:13.200;
#SELECTABLE:YES;
#BPMS:0.000=174.900;
#STOPS:64.000=1.029
,126.500=0.651
,251.000=1.029
,376.000=1.029
;
#BGCHANGES:;
#KEYSOUNDS:;

//---------------dance-single - Highflyer----------------
#NOTES:
     dance-single:
     Highflyer:
     Hard:
     10:
     0.814,0.853,0.834,0.056,0.661,692.000,120.000,8.000,0.000,0.000,0.000,0.814,0.853,0.834,0.056,0.661,692.000,120.000,8.000,0.000,0.000,0.000:
0000
0000
0000
0000
,
1001
0000
1001
0000
0000
1100
0000
0101
,
0000
1010
0000
0101
0000
1001
1001
0000
,
1010
0000
1001
0000
0000
1010
0000
1001
,
0000
0101
0000
1010
0000
1100
1100
0000
,
1001
0000
0011
0000
0000
1010
0000
1100
,
0000
0101
0000
0011
0000
1001
1001
0000
,
1100
0000
1010
0000
0000
0011
0000
0101
,
0000
1100
0000
1010
0000
0101
0101
0000
,
1010
0000
1010
0000
0000
1100
0000
0011
,
0000
0110
0000
1100
0000
0110
0110
0000
,
1001
0000
0110
0000
0000
1010
0000
0110
,
0000
0101
0000
1010
0000
0101
0101
0000
,
1001
0000
1001
0000
0000
1001
0000
1100
,
0000
1010
0000
0101
0000
0011
0011
0000
,
1100
0000
1100
0000
0000
1010
0000
1001
,
1001
0000
0000
0000
1000
0000
0000
0010
0100
0000
0000
0001
0100
0000
0010
0000
,
0000
0010
1000
0000
0000
1000
0100
0000
0000
0100
0010
0000
0000
0010
0001
0000
,
1001
0000
0000
0001
1000
0000
0000
1000
0001
0000
0000
0001
1000
0000
0010
0000
,
0000
0100
0010
0000
0000
0010
1000
0000
0000
1000
0100
0000
0000
0010
0001
0000
,
1001
0000
0000
0001
0010
0000
0000
0010
0100
0000
0000
0100
1000
0000
1000
0000
,
0000
0010
0100
0000
0000
0010
1000
0000
0000
1000
0100
0000
0000
0010
0001
0000
,
1001
0000
0000
1000
0001
0000
0000
0010
0100
0000
0000
1000
0001
0000
0001
0000
,
0000
0010
0100
0000
0000
0001
1000
0000
0000
0010
0100
0000
0000
0010
1000
0000
,
1001
0000
1000
0010
1000
0001
1000
1000
,
1000
0000
0010
0100
0010
1000
0100
0100
,
0100
0000
0010
0100
1000
0010
0001
0001
,
0001
0000
0010
0000
1000
0000
0010
0001
,
0010
0000
1000
0100
0010
0001
0010
0010
,
0010
0000
0001
1000
0010
0100
0010
0010
,
0010
0000
1000
0100
0010
0100
1000
1000
,
1000
0001
1000
0000
0000
0001
1000
0000
0000
0001
1000
0000
1000
0100
0000
0010
,
0001
0000
0000
0001
0010
0001
0000
0001
1000
0000
0000
1000
0100
0000
0000
0100
,
0010
0000
0000
0010
0001
0000
0000
0001
1000
0000
0000
1000
0001
1000
0000
1000
,
0100
0000
0000
0001
0010
0001
0000
0010
0100
0000
0000
0100
1000
0000
0000
1000
,
0010
0000
0000
0010
0100
0000
0000
0010
1000
0000
0000
1000
0100
1000
0000
0100
,
0010
0000
0000
0001
1000
0001
0000
0100
0010
0000
0000
0010
1000
0000
0000
0100
,
1000
0000
0000
0010
0001
0000
0000
0100
0010
0000
0000
1000
0100
0010
0000
0001
,
0100
0000
0000
0010
1000
0001
0000
1000
0100
0000
0000
0010
0001
0000
0000
0001
,
1000
0000
0000
1000
0100
0000
0000
0001
0100
0000
0000
0000
1000
0000
0100
0000
,
1000
0000
0100
0000
1000
0100
0000
0100
1000
0000
0000
1000
0001
1000
0000
1000
,
0001
0000
0000
0100
0010
0000
0000
0001
0010
0000
0000
0100
0010
1000
0000
0001
,
1000
0000
0000
1000
0001
1000
0000
0100
0010
0000
0000
0001
0010
0000
0000
0100
,
0010
0000
0000
0001
1000
0000
0000
0010
0100
0000
0000
0000
0010
0000
1000
0000
,
0010
1000
0010
0000
1000
0000
0100
0000
0010
0001
0010
0000
0001
0000
0100
0000
,
0010
1000
0010
0000
0100
0000
0010
0000
1000
0001
1000
0000
0100
0000
0010
0000
,
0100
0010
0100
0010
0100
0010
0220
0000
,
0000
0000
0330
1001
,
0110
0000
0010
1000
0100
0001
0000
0100
,
0000
1000
0010
1000
0100
0000
0011
0000
,
1100
0000
0010
1000
0001
0100
0000
1000
,
0000
0001
0010
1000
0100
0000
0011
0000
,
1100
0000
0010
0100
0010
1000
0000
0100
,
0000
0001
0100
1000
0010
0000
1100
0000
,
1010
0000
0001
0010
0100
1000
0000
0010
,
0000
0010
1000
0001
0100
0010
1010
0000
,
1010
0000
0001
0010
0100
1000
0000
0010
,
0000
0010
1000
0100
0010
0001
0011
0000
,
1100
0000
0010
0100
1000
0001
0000
0100
,
0000
0010
1000
0100
0010
0001
1001
0000
,
0110
0000
1000
0010
0100
0010
0000
1000
,
0000
0100
0010
0001
1000
0001
0011
0001
,
0011
0000
0010
0000
0001
0010
0001
0010
0001
0010
0001
0010
0001
0000
0000
0000
,
1001
0000
0010
0100
0000
0110
0000
0000
,
0000
1000
0100
0000
0011
0000
1001
0000
,
1100
0000
0010
1000
0000
1100
0000
0000
,
0000
1000
0001
0000
0011
0000
0110
0000
,
1001
0000
1000
0001
0000
0110
0000
0000
,
0000
1000
0100
0000
0110
0000
0101
0000
,
0110
0000
1000
0010
0000
0110
0000
0000
,
0000
1000
0100
0000
0110
0000
0101
0000
,
1001
0000
1000
0100
0000
1001
0000
0000
,
0000
1000
0010
0000
0110
0000
1010
0000
,
1100
0000
0100
0010
0000
0101
0000
0000
,
0000
1000
0100
1000
0010
0000
0110
0000
,
2200
3300
0200
0320
0030
2002
0000
3003
,
0000
1000
0100
0000
0110
0000
0101
0000
,
1010
0000
1000
0010
0000
0110
0000
0000
,
0000
0000
1000
0000
0100
0010
0100
0000
0010
0001
0100
0010
0000
0010
0100
0010
,
1000
0100
0000
0010
0001
0000
0000
0001
1000
0001
0000
1000
0001
0000
0000
0100
,
0010
0000
0000
0010
1000
0000
0000
0010
0001
0000
0000
0010
1000
0000
0000
1000
,
0100
1000
0000
1000
0001
0000
0000
1000
0010
1000
0000
1000
0100
0000
0000
0100
,
0010
0000
0000
0001
0100
0000
0000
0010
1000
0000
0000
1000
0001
0000
0000
1000
,
0010
1000
0000
0010
0100
0000
0000
0100
0010
1000
0000
1000
0100
0000
0000
1000
,
0001
0000
0000
0010
1000
0000
0000
0010
0001
0000
0000
0001
1000
0000
0000
0010
,
0100
0010
0000
0010
1000
0000
0000
1000
0100
0010
0000
0001
0010
0000
0000
0100
,
1000
0000
0000
1000
0010
0000
0000
0010
0100
0000
0000
0010
1000
0000
0000
0000
,
0110
0000
0000
0000
0110
0000
0000
0000
1000
0100
0000
0010
0001
0000
0000
0001
,
1000
0000
0000
0010
1000
0000
0000
1000
0100
0000
0000
0010
0001
0000
0000
0001
,
1000
0010
0000
0010
1000
0000
0000
1000
0100
0010
0000
0001
1000
0000
0000
1000
,
0001
0000
0000
0010
0100
0000
0000
1000
0010
0000
0000
0100
0010
0000
0000
0000
,
0001
0000
0010
0000
0001
0010
0100
0000
0010
0000
0100
0000
0010
0100
0001
0000
,
0100
0000
0001
0000
0100
0010
1000
0000
1000
0000
0010
0000
1000
0010
1000
0000
,
1000
0010
1000
0010
1000
0010
1000
0001
,
1001
0000
0000
0000
1000
0100
1000
0000
0001
0010
0001
0000
0001
1000
0001
0000
,
0001
0100
0001
0000
0000
0000
0000
0000
0000
0000
0000
0000
1001
0000
0000
1100
,
0000
0000
1001
0000
1000
0100
1000
0000
1000
0001
1000
0000
1000
0010
1000
0000
,
0100
0010
0001
0000
0010
0000
0100
1000
0000
1000
0010
0100
0010
1000
0100
0010
,
0000
0001
0100
0010
1000
0100
1000
0000
0010
0100
0010
0000
0100
0001
0100
0000
,
0001
1000
0001
0000
0000
0000
0001
0000
0000
0000
0001
0000
1001
0000
0000
1100
,
0000
0000
1001
0000
1000
0100
1000
0000
1000
0010
1000
0000
0010
0100
0010
0000
,
0100
0001
0100
0000
0010
0000
1000
0100
0000
0010
0001
0010
0100
1000
0001
1000
,
0000
1000
0001
1000
0000
0000
0000
0000
0000
0000
0000
0000
0000
0000
0000
0000
;

//---------------dance-single - Highflyer----------------
#NOTES:
     dance-single:
     Highflyer:
     Medium:
     7:
     0.533,0.567,0.563,0.007,0.000,455.000,81.000,1.000,0.000,0.000,0.000,0.533,0.567,0.563,0.007,0.000,455.000,81.000,1.000,0.000,0.000,0.000:
0000
0000
0000
0000
,
1000
0000
0001
0000
0000
0010
0000
0100
,
0000
1000
0000
0001
0000
1000
0001
0000
,
1000
0000
0001
0000
0000
0100
0000
0010
,
0000
1000
0000
0100
0000
1000
0001
0000
,
0100
0000
0010
0000
0000
0010
0000
1000
,
0000
0100
0000
1000
0000
0001
0100
0000
,
0010
0000
0100
0000
0000
0010
0000
1000
,
0000
0100
0000
1000
0000
0001
0100
0000
,
0010
0000
0100
0000
0000
1000
0000
0100
,
0000
0010
0000
1000
0000
0100
1000
0000
,
0001
0000
0100
0000
0000
0010
0000
1000
,
0000
0100
0000
0010
0000
0001
0100
0000
,
0001
0000
0100
0000
0000
1000
0000
0100
,
0000
0001
0000
0010
0000
1000
0010
0000
,
0001
0000
0100
0000
0000
0010
0000
0100
,
1001
0000
1001
0000
0100
0000
1000
0001
,
0000
0100
0000
0010
0000
1000
0000
0100
,
1000
0000
0001
0000
0100
0000
0010
1000
,
0000
0100
0000
1000
0000
0001
0000
0100
,
0010
0000
1000
0000
0100
0000
0010
0001
,
0000
0001
0000
0100
0000
1000
0000
0100
,
0010
0000
1000
0000
0100
0000
0010
0001
,
0000
0001
0000
0100
0000
1000
0000
0100
,
0010
0000
0010
0000
0100
0000
0001
1000
,
0001
0000
0001
0000
0100
0000
1000
0100
,
0010
0000
0010
0000
1000
0000
0100
1000
,
0001
0000
0001
0000
0100
0000
0010
0100
,
0010
0000
0010
0000
1000
0000
0100
1000
,
0100
0000
1000
0000
0001
0000
0100
0010
,
0100
0000
0010
0000
1000
0000
0001
1000
,
0000
1001
0000
1001
0000
1001
0001
0000
,
1000
0100
1000
0010
,
1000
0010
0100
0010
,
0100
0010
1000
0100
,
1000
0000
0001
0000
0100
0000
0001
0100
,
0100
0000
0001
0000
0100
0000
0010
1000
,
1000
0000
0010
0000
0100
0000
0001
0100
,
0100
0001
1000
0010
,
1000
0000
0001
0000
0100
0000
1000
0100
,
0001
0100
1000
0000
0100
0000
0001
0000
,
0001
0000
0010
0000
0001
0000
0001
0010
,
0001
0000
1000
0100
1000
0000
0010
0000
,
0100
0000
0001
0000
0100
0000
0001
0100
,
0001
0000
1000
0010
1000
0000
0010
1000
,
0100
0000
1000
0001
1000
0000
0001
0100
,
0010
0100
0010
1000
0100
1000
0002
0000
,
1000
0100
0013
1001
,
1100
0001
0100
1000
,
0100
0110
1010
1100
,
0101
0010
0100
1000
,
0100
1010
1001
1100
,
0101
0010
1000
0001
,
0100
0011
1100
1010
,
0101
0010
1000
0001
,
0100
1000
0100
0110
,
1001
1100
0101
0010
,
1000
0100
0010
0011
,
0110
1100
0110
0001
,
1000
0100
1000
1001
,
0110
0010
1000
0100
,
1000
0001
0100
1000
,
0100
0000
0010
0000
1000
0010
1000
0000
,
1001
0000
0100
1000
0000
1000
0001
0000
,
0000
1000
0001
0000
0100
0000
0010
0000
,
0110
0000
0010
1000
0000
0001
1000
0000
,
0100
1000
0001
1001
,
0100
0000
1000
0010
0000
0010
0100
0000
,
0001
0100
0110
0110
,
0010
0000
1000
0100
0000
1000
0001
0000
,
0100
0010
0110
1010
,
0001
0000
1000
0001
0000
0001
0100
0000
,
0010
1000
1100
0101
,
0010
0000
0100
0010
0000
0010
1000
0000
,
0001
1000
1100
0101
,
0010
0000
1000
0010
0000
0010
0100
0000
,
0001
0100
0010
0000
1100
0000
1001
0000
,
0010
0000
0100
0001
0000
0001
0100
0000
,
0010
0000
0100
0000
0010
1000
0010
0000
,
1000
0001
0100
1000
,
0100
0010
1000
0100
,
1000
0001
0100
0010
,
0110
1001
1100
0101
,
0010
1000
0001
0010
,
1001
1100
0101
0110
,
1010
0010
1000
0001
,
0101
1100
1001
1010
,
0010
1000
0001
0100
,
0110
1010
1100
0101
,
0010
0100
0001
1000
,
1100
0101
1010
1001
,
0001
1000
0001
1000
0001
0100
0010
0100
,
0010
1000
0010
1000
0010
1000
0100
1000
,
0100
1000
0001
1000
0010
0100
0001
1000
,
1001
1001
1100
1001
,
1010
0000
0000
0001
,
0100
1010
1001
1100
,
1001
0000
0001
0000
0100
0000
0001
0100
,
0001
1000
0100
0000
1001
0000
1100
0000
,
1001
0010
0100
0110
,
1001
1100
0101
0110
,
1010
0000
0010
0000
1000
0000
0001
1000
,
0001
0000
0000
0000
;

//---------------dance-single - Highflyer----------------
#NOTES:
     dance-single:
     Highflyer:
     Easy:
     5:
     0.343,0.498,0.362,0.028,0.000,289.000,52.000,4.000,0.000,0.000,0.000,0.343,0.498,0.362,0.028,0.000,289.000,52.000,4.000,0.000,0.000,0.000:
0000
0000
0000
0000
,
1000
0000
0001
0000
0000
0000
0000
0001
,
0000
0000
0000
1000
0000
0000
0000
0000
,
1001
1100
0000
0000
,
0001
0000
1000
0000
,
1010
0101
0000
0000
,
0001
0000
1000
0000
,
0110
1001
0000
0000
,
0001
0000
0100
0000
,
0110
1001
0000
0000
,
0100
0000
1000
0000
,
1010
0101
0000
0000
,
0010
0000
1000
0000
,
1100
0011
0000
0000
,
0100
0000
0010
0000
,
1001
0110
0000
0000
,
1001
0010
1000
0001
,
0000
0001
0000
0100
,
0010
0010
1000
0100
,
0000
1000
0000
0001
,
1000
0101
1010
0001
,
0000
1000
0000
0010
,
0000
0110
1001
1100
,
0000
0001
0000
1000
,
0000
0010
0010
0010
,
0010
1000
1000
1000
,
1000
0001
0001
0001
,
0001
0100
0000
0100
,
0100
0100
0100
0100
,
0100
0010
0010
0010
,
0010
0100
0100
0100
,
0100
0000
0000
1001
,
0000
0100
0000
1000
,
0001
1000
0001
0101
,
0000
1010
0000
0010
,
1000
0100
1000
1001
,
0000
1001
0000
0010
,
0100
0001
1000
1100
,
0000
1100
0000
0010
,
1000
0001
0100
0101
,
0101
0010
0000
1000
,
0000
0100
0000
1000
,
0000
0001
0000
0100
,
0000
0010
0000
1000
,
1000
0001
0001
0100
,
0100
0010
0010
1000
,
0100
0010
0001
2002
,
0000
0000
0000
0000
0000
3003
0001
0000
,
1000
0001
0000
0001
,
0100
1000
0100
0010
,
1000
0100
0000
1000
,
0001
0100
0010
0010
,
1000
0100
0000
1000
,
0001
0100
0010
0010
,
1000
0100
0000
1000
,
0001
0100
0010
0001
,
0010
1000
0000
0100
,
0000
1000
0001
0100
,
0010
1000
0000
0001
,
0000
0001
1000
0100
,
1000
0010
0000
0010
,
0000
0010
0100
0001
,
1000
0100
1000
1100
,
0000
0000
0000
0000
,
0000
0001
1000
0010
,
0010
0000
0100
0000
,
0001
1000
0100
0100
,
1000
0000
0001
0000
,
0001
0100
1000
0100
,
0010
0000
0010
0000
,
0010
1000
0100
1000
,
0001
0000
0001
0000
,
0000
0001
0100
1000
,
0100
0000
0100
0000
,
0000
0010
1000
0100
,
1000
0000
1000
0000
,
0000
0001
0100
0010
,
1000
0000
0001
0000
,
0001
1000
0010
1000
,
1001
0000
1001
0000
,
0010
1000
0100
0000
,
1001
0000
1001
0000
,
0001
0100
0010
0000
,
1010
0000
0101
0000
,
0001
1000
0100
0000
,
0011
0000
1100
0000
,
0010
0100
0001
0000
,
1001
0000
1001
0000
,
0001
1000
0100
1000
,
1001
0000
1001
0000
,
0010
0100
0001
0001
,
1001
0100
1001
0001
,
0110
0010
1010
0001
,
0101
1010
1001
0011
,
1100
0001
1000
0100
,
1000
0000
0000
0001
,
0000
1000
0010
1000
,
0001
0001
0001
0001
,
0001
1000
0010
0010
,
0100
0000
0000
0001
,
1000
0100
0100
0100
,
0100
2000
0000
0020
,
0000
0000
0000
3030
0000
0000
0000
0000
;
