#TITLE:It Wasn't Me;
#SUBTITLE:(Dance Remix);
#ARTIST:MC Boy;
#TITLETRANSLIT:;
#SUBTITLETRANSLIT:;
#ARTISTTRANSLIT:;
#GENRE:;
#CREDIT:;
#BANNER:;
#BACKGROUND:;
#LYRICSPATH:;
#CDTITLE:;
#MUSIC:It Wasn't Me (Dance Remix).ogg;
#OFFSET:-0.695;
#SAMPLESTART:58.530;
#SAMPLELENGTH:13.200;
#SELECTABLE:YES;
#BPMS:0.000=122.000,189.000=126.000,190.000=122.000;
#STOPS:0.000=0.246
;
#BGCHANGES:;
#KEYSOUNDS:;

//---------------dance-single - Highflyer----------------
#NOTES:
     dance-single:
     Highflyer:
     Hard:
     9:
     0.558,0.627,0.197,0.139,0.388,488.000,27.000,19.000,0.000,0.000,0.000,0.558,0.627,0.197,0.139,0.388,488.000,27.000,19.000,0.000,0.000,0.000:
0000
0000
0000
0000
,
0000
0000
0000
0000
,
0000
0000
0000
0000
,
0000
0000
0000
0000
,
0000
0000
0000
0000
,
0000
0000
0000
0000
,
0000
0000
0000
0000
,
0000
0000
0000
0000
0000
0000
0000
0000
0000
0000
0000
0000
0000
0000
1000
0001
,
0010
0100
1000
0001
1000
0100
0010
0000
0001
0000
0100
0000
0010
1000
0100
0010
,
0001
0000
0100
0000
0110
0000
0000
0000
0000
0000
0000
0000
0000
0000
1000
0001
,
1000
0000
0001
0100
0010
0000
0100
0000
0010
0000
1000
0000
0100
0000
0010
0001
,
0100
0010
0100
0000
0110
0010
1000
0000
,
0100
0000
0000
0000
0010
0000
0001
0000
0100
0000
1000
0000
0100
0010
1000
0010
,
1000
0100
1001
0000
0001
0100
0010
0000
,
0010
0000
1000
0000
0100
0000
0010
0000
0001
0000
0100
0000
1000
0100
0010
0100
,
0010
1000
0100
0020
0031
0000
0001
0000
,
0100
0000
0000
0000
0010
0000
0000
0000
0010
0000
1000
0100
1000
0000
0000
0000
,
0100
0000
0010
0000
0001
0200
0310
0000
,
0010
0000
0000
0000
1000
0000
0000
0000
0100
0000
0010
0100
0010
0000
0000
0000
,
0001
0000
1000
0000
0010
0020
0130
0000
,
0001
0000
0000
0000
1000
0000
0000
0000
0100
0000
0010
0100
0010
0000
0000
0000
,
0001
0000
1000
0000
0010
0020
0130
0000
,
0001
0000
0000
0000
0010
0000
0000
0000
0100
0000
1000
0100
1000
0000
0000
0000
,
0001
0000
0000
0000
1000
0000
0000
0000
0002
0000
1003
0001
1000
0000
0100
0010
,
0001
0100
0010
1000
0100
0010
0000
0000
0001
1000
0100
0010
0001
0010
0001
0100
,
0001
0100
0010
1000
0010
1000
0000
0000
0010
0000
0100
0010
1000
0000
0010
0000
,
0100
0001
0010
0100
1000
0010
0000
0000
0010
0000
1000
0000
0100
0000
0010
0001
,
0010
0001
1000
0010
1000
0010
0000
1000
0010
1000
0010
0000
1000
0000
1000
0001
,
1000
0001
0000
0100
0010
0000
0000
0000
0010
1000
0100
0010
0001
0000
0010
0000
,
0100
1000
0001
1000
0010
0000
0000
0000
0010
0000
0100
0000
0001
0000
0100
0010
,
0100
0000
0000
0010
0000
0000
1000
0000
0100
0000
0000
0000
0000
0000
0000
0000
1000
0000
0001
0000
1000
0000
0010
0000
0100
0000
0010
0000
0100
0000
0001
0000
,
0000
1000
0001
0000
0002
2000
0000
0000
3003
0000
0000
0000
0000
0000
0001
1000
,
0100
1000
0001
1000
0010
0000
1000
0000
0000
0000
0001
0100
0001
0000
0100
0010
,
0100
0010
1000
0100
1000
0000
1000
0000
0000
0000
0001
1000
0001
0000
0100
0010
,
0100
1000
0100
0010
0100
0000
0010
0000
0000
0000
0010
1000
0100
0000
0100
1000
,
0100
1000
0001
0000
1001
0000
1001
0000
0000
0000
0010
0100
0010
0000
0100
0001
,
1000
0000
0100
0010
0001
0000
1001
0000
0000
0000
0001
0100
0010
0000
0010
0100
,
0010
0000
1000
0001
0010
0000
1001
0000
0000
0000
0001
1000
0100
0000
1000
0001
,
0100
0000
0010
0100
1000
0000
0110
0000
0000
0000
0010
0000
1000
0000
0010
1000
,
0100
0010
0001
0000
1001
0000
0110
0000
0000
0000
0000
0000
0001
0000
0001
0100
,
0010
0100
0010
1000
0100
0010
0001
0000
1001
0000
1100
0000
0001
1000
0001
0100
,
0010
0000
1001
0000
0101
0000
0000
0000
0000
0000
0000
0000
0000
0000
0001
1000
,
0010
0000
0010
1000
0010
0000
0100
0000
0001
0000
1000
0000
0100
0000
0010
0001
,
1000
0010
0101
0000
0010
1000
0100
0000
,
0010
0000
0000
0000
0001
0000
0100
0000
1000
0000
0100
0000
0010
1000
0100
0010
,
0001
0001
1001
0000
0010
0100
0001
0000
,
0001
0000
0000
0000
0010
0000
0100
0000
1000
0000
0001
0000
0100
1000
0100
0010
,
1000
0010
1001
0000
0001
1000
1000
0010
,
0100
0010
0100
0010
1000
0100
0010
0001
,
0100
0202
0000
0303
0010
1000
0100
0010
,
0001
0100
0010
1000
0100
0010
0001
0100
,
0010
0220
0000
0330
0010
1000
0100
0010
,
0001
0100
0010
1000
0100
1000
0001
0100
,
0010
0220
0000
0330
0010
1000
0100
0010
,
0001
0100
1000
0100
0010
1000
0100
0010
,
0001
0000
0202
0000
0000
0303
0000
0000
0101
0000
0001
0000
0000
0000
0001
0100
,
0010
1000
0010
1000
0100
0010
0001
0000
1001
0000
1010
0000
0010
0100
0001
0100
,
0010
0000
0101
0000
1001
0000
0000
0000
0001
0000
0000
0000
0001
0000
0001
0100
,
0010
0000
0010
0100
0010
0000
1000
0000
0100
0000
0010
0000
0001
0000
0100
0010
,
1000
0100
0011
0000
0001
0100
0010
0000
,
0010
0000
0000
0000
1000
0000
0100
0000
0010
0000
0001
0000
0001
0100
1000
0100
,
0001
0010
0001
0000
0001
0010
1000
0000
,
1000
0000
0010
0000
0001
0000
0100
0000
0010
0000
1000
0000
0001
0100
0010
1000
,
0001
0010
0100
0000
0000
2000
3001
0000
,
0001
0000
0100
0000
0010
0100
0010
0000
,
1000
0000
0100
0000
0010
0002
0013
0000
,
0001
0000
0100
0000
0010
0100
0010
0000
,
1000
0000
0100
0000
0010
0002
2003
0000
,
0000
0000
0000
0000
0000
3000
0000
0000
;

//---------------dance-single - Highflyer----------------
#NOTES:
     dance-single:
     Highflyer:
     Medium:
     5:
     0.301,0.301,0.000,0.007,0.000,287.000,0.000,1.000,0.000,0.000,0.000,0.301,0.301,0.000,0.007,0.000,287.000,0.000,1.000,0.000,0.000,0.000:
0000
0000
0000
0000
,
0000
0000
0000
0000
,
0000
0000
0000
0000
,
0000
0000
0000
0000
,
0000
0000
0000
0000
,
0000
0000
0000
0000
,
0000
0000
0000
0000
,
0000
0000
0000
0000
,
0001
1000
0010
0100
,
0010
1000
0100
0000
0000
0000
0000
0000
,
1000
0001
0100
0010
,
0010
1000
0100
0000
0010
0000
0001
0000
,
0100
0000
0010
0000
1000
0000
0010
1000
,
0001
0100
0010
0000
1000
0000
0100
0000
,
0010
0000
0001
0000
0100
0000
0010
1000
,
0100
0010
0001
0000
0001
0000
0100
0000
,
0100
0010
1000
0100
,
1000
0000
0001
0000
0100
0010
0100
0000
,
0010
1000
0100
0010
,
0001
0000
0100
0000
0010
1000
0010
0000
,
0100
0001
0010
0100
,
1000
0001
0100
1000
,
0100
0000
0001
0000
0010
0100
1000
0000
,
0001
0000
0100
0000
0010
0100
0010
0000
,
0010
1000
0010
0000
0100
0001
0100
0000
,
0010
1000
0010
0000
1000
0100
1000
0000
,
0100
0010
0001
0000
0001
0100
0010
0000
,
0010
1000
0100
0000
0100
0010
0001
0000
,
0001
0000
0100
0000
0010
1000
0010
0000
,
0100
0001
0100
0000
0010
0000
1000
0000
,
0100
0010
0001
0000
0001
0000
0100
0000
,
0010
1000
0001
0100
,
0010
0100
0010
1000
0000
0010
0100
0000
,
0100
0001
0100
0001
0000
0100
0010
0000
,
0010
1000
0100
1000
0000
0100
1000
0000
,
0001
0100
0001
0100
0000
0100
0010
0000
,
0010
1000
0010
1000
0000
0010
0100
0000
,
0100
0001
0100
0001
0000
0100
0010
0000
,
0010
1000
0100
0010
0000
0010
0001
0000
,
0001
0100
0010
0100
0000
0000
0010
0000
,
1000
0000
0100
1000
0100
0000
1000
0000
,
0001
0100
0001
0000
0000
0000
0010
0000
,
1000
0000
0100
0010
0001
0000
0001
0000
,
0100
0010
1000
0000
0100
0000
0010
0000
,
0001
0000
0100
0000
1000
0000
1000
0100
,
0001
0010
0100
1000
,
0001
0000
0100
0000
0010
0000
0010
1000
,
0100
0000
1000
0001
,
0100
0000
0010
0000
0010
0000
0010
1000
,
0100
1000
0001
0100
,
0010
0000
1000
0000
0001
0000
0100
0001
,
0100
0001
0000
0000
1000
0000
0001
0000
,
0100
0000
0010
0000
1000
0000
0100
1000
,
0100
1000
0000
0000
1000
0000
0001
0000
,
0100
0010
0010
1000
,
0001
0100
0010
0010
,
1000
0100
0010
0001
,
0100
0001
0100
0000
0000
0000
0000
0000
,
0010
1000
0100
0010
,
0001
0100
1000
0000
0100
0000
0010
0000
,
1000
0000
0100
0000
0010
0000
0001
0010
,
1000
0010
0001
0000
0100
0000
0010
0000
,
1000
0000
0100
0000
0010
0000
0001
0100
,
1000
0100
0001
0000
1000
0000
0100
0000
,
1000
0000
0001
0000
0100
0010
0100
0000
,
0010
1000
0100
0010
,
0001
0000
0100
0000
0010
0100
0010
0000
,
1000
0100
1000
2000
,
0000
0000
0000
0000
0000
3000
0000
0000
;

//---------------dance-single - Highflyer----------------
#NOTES:
     dance-single:
     Highflyer:
     Easy:
     3:
     0.166,0.201,0.037,0.007,0.000,153.000,5.000,1.000,0.000,0.000,0.000,0.166,0.201,0.037,0.007,0.000,153.000,5.000,1.000,0.000,0.000,0.000:
0000
0000
0000
0000
,
0000
0000
0000
0000
,
0000
0000
0000
0000
,
0000
0000
0000
0000
,
0000
0000
0000
0000
,
0000
0000
0000
0000
,
0000
0000
0000
0000
,
0000
0000
0000
0000
,
1000
0000
0010
0000
,
0100
0000
0000
0000
,
1000
0000
0001
0000
,
0100
0010
0000
1000
,
0000
0001
0000
0100
,
0010
0010
0000
1000
,
0000
0001
0000
0100
,
0100
0100
0000
0001
,
0000
1000
0000
0001
,
0000
0100
0000
0010
,
0000
1000
0000
0001
,
0000
0100
0000
0010
,
0000
1000
0000
0100
,
0000
0010
0000
1000
,
0000
0001
0000
0100
,
0000
0010
0000
1000
,
1000
1000
0000
0001
,
0001
0001
0000
0100
,
0100
0100
0000
0010
,
0010
0010
0000
1000
,
0001
1001
0000
0010
,
0100
0110
0000
1000
,
0001
1001
0000
0100
,
0001
0101
0000
0000
,
1000
0001
0000
0100
,
0010
0100
0000
0100
,
0001
1000
0000
0100
,
1000
0001
0000
0100
,
0001
1000
0000
0100
,
1000
0001
0000
0010
,
0001
0100
0000
1000
,
0100
0001
0001
1001
,
0010
1000
0001
0100
,
0001
0001
0000
0000
,
0010
0000
1000
0001
,
0100
0010
0000
1000
,
0000
0001
0000
0100
,
0100
0100
0000
0010
,
0000
1000
0000
0001
,
0001
0001
0000
1000
,
0000
0100
0000
0001
,
0001
0001
0000
1000
,
0000
0100
0000
0010
,
0010
0010
0000
0001
,
0000
0100
0000
0010
,
0000
1000
0000
0100
,
0000
0010
0000
0001
,
0001
0001
0000
0000
,
0001
0100
0010
0010
,
1000
0100
0000
0000
,
1000
0001
0100
0010
,
1000
0100
0000
0010
,
0001
0100
1000
0100
,
0010
1000
0000
1000
,
0001
0100
0010
0010
,
1000
0100
0000
1000
,
0000
0000
0000
0001
,
0000
0000
0000
1000
,
0000
0000
0000
0010
,
0000
0000
0000
0200
,
0000
0000
0000
0000
0000
0000
0000
0000
0000
0000
0000
0000
0000
0000
0000
0000
0000
0000
0000
0000
0000
0000
0000
0000
0000
0000
0000
0000
0000
0000
0000
0000
0000
0000
0000
0000
0000
0000
0000
0000
0000
0000
0000
0000
0000
0000
0000
0000
0000
0000
0000
0000
0000
0000
0000
0000
0000
0000
0000
0000
0000
0000
0000
0000
0000
0000
0000
0000
0000
0000
0000
0000
0000
0000
0000
0000
0000
0000
0000
0000
0000
0000
0000
0000
0000
0000
0000
0000
0000
0000
0000
0000
0000
0000
0000
0000
0000
0000
0000
0000
0000
0000
0000
0000
0000
0000
0000
0000
0000
0000
0000
0000
0000
0000
0000
0000
0000
0000
0000
0000
0000
0300
0000
0000
0000
0000
0000
0000
0000
0000
0000
0000
0000
0000
0000
0000
0000
0000
0000
0000
0000
0000
0000
0000
0000
0000
0000
0000
0000
0000
0000
0000
0000
0000
0000
0000
0000
0000
0000
0000
0000
0000
0000
0000
0000
0000
0000
0000
0000
0000
0000
0000
0000
0000
0000
0000
0000
0000
0000
0000
0000
0000
0000
0000
0000
0000
0000
0000
0000
0000
0000
0000
;
