#TITLE:Fuck With My DJ;
#SUBTITLE:;
#ARTIST:Brisk & Ham;
#TITLETRANSLIT:;
#SUBTITLETRANSLIT:;
#ARTISTTRANSLIT:;
#GENRE:;
#CREDIT:;
#BANNER:Fuck With My DJ.png;
#BACKGROUND:;
#LYRICSPATH:;
#CDTITLE:;
#MUSIC:Fuck With My DJ.ogg;
#OFFSET:-0.054;
#SAMPLESTART:40.510;
#SAMPLELENGTH:14.940;
#SELECTABLE:YES;
#BPMS:0.000=182.020;
#STOPS:;
#BGCHANGES:;
#KEYSOUNDS:;

//---------------dance-single - ----------------
#NOTES:
     dance-single:
     :
     Hard:
     11:
     0.825,1.000,0.275,0.275,0.866,552.000,29.000,29.000,67.000,1.000,0.000,0.825,1.000,0.275,0.275,0.866,552.000,29.000,29.000,67.000,1.000,0.000:
0000
0000
0000
0000
,
2000
0000
0000
0000
0000
0200
0000
3000
,
0002
0000
0300
0000
0000
0200
0003
0000
,
0020
0000
0000
0300
0000
0200
0000
0000
,
0032
0000
0000
0000
0303
0200
2300
3020
,
0230
0000
0000
0000
0000
0320
0000
0000
,
2000
0000
0000
0030
0000
0200
3000
0000
,
0020
0000
0000
0000
0300
0000
0000
0000
0000
0000
0031
0000
0010
0001
1000
0000
,
0020
0000
M000
0M00
000M
0M00
M000
0M0M
,
2030
0000
000M
0000
00M0
0M00
000M
0000
00M0
0000
0M00
0000
000M
0000
00M0
0000
,
3M02
00M0
0M00
M000
00M0
0M00
00M0
M000
,
02M3
M000
000M
00M0
M000
00M0
000M
M000
,
032M
M000
0M00
000M
0M00
M000
000M
0M00
,
203M
0M00
00M0
000M
00M0
0M00
00M0
000M
,
32M0
0000
0000
0000
0000
0000
000M
0000
0000
0000
0000
0000
M000
0000
0000
0000
0000
0000
00M0
0000
0000
M000
0000
0000
000M
0000
0000
0000
0000
0000
00M0
0000
M000
0000
0000
0000
00M0
0000
0000
0000
0000
0000
M00M
0000
0000
0000
0000
0000
,
032M
0000
M000
0000
0M00
0000
000M
0000
0M00
0000
0031
0000
0010
0100
1000
0000
,
1000
0000
0100
0000
0010
0000
0000
0001
0000
0010
0000
0000
0100
0000
1000
0000
,
0100
0000
0010
0000
0001
0000
0000
0010
0000
1000
0000
0000
0110
0000
0000
0000
,
0001
0000
0010
0000
0100
0000
0000
1000
0000
0010
0000
0000
1000
0000
1000
0000
,
0100
0000
0010
0000
0001
0000
0000
1000
0000
0100
0000
0000
0011
0000
0000
0000
,
1000
0000
0010
0000
0100
0000
0000
0001
0000
0100
0000
0000
1000
0000
0100
0000
,
0001
0000
0010
0000
0100
0000
0000
1000
0000
0010
0000
0000
0101
0000
0000
0000
,
1000
0000
0010
0000
0100
0000
0000
0001
0000
0001
0000
0000
1000
0000
0010
0000
,
0100
0000
0100
0000
0100
0000
0000
0010
0000
0010
0100
0000
0010
0100
0001
0000
,
1001
0000
0001
0000
0010
0000
0000
1000
0000
1000
0000
0000
0010
0000
0001
0000
,
1000
0000
0010
0000
0100
0000
0000
0001
0000
0010
0000
0000
1100
0000
0000
0000
,
1000
0000
0010
0000
0100
0000
0000
0001
0000
0010
0000
0000
1000
0000
0001
0000
,
0100
0000
1000
0000
0001
0000
0000
1000
0000
0010
0000
0000
1001
0000
0000
0000
,
1000
0000
0100
0000
0010
0000
0000
0010
0000
0010
0000
0000
0010
0000
0001
0000
,
1000
0000
1000
0000
1000
0000
0000
0010
0000
0100
0000
0000
0110
0000
0000
0000
,
1000
0000
0100
0000
0001
0000
0000
0100
0000
0010
0000
0000
0010
0000
0100
0000
,
0100
0000
0010
0000
1000
0000
0000
1000
0000
0100
0010
0000
0001
0010
0100
0000
,
1000
0000
1000
0000
1000
0000
0000
0100
0000
0010
0000
0000
0011
0000
0000
0000
,
1000
0000
0010
0000
0100
0000
0000
0010
0000
0100
0000
0000
0101
0000
0000
0000
,
1000
0000
0010
0000
0100
0000
0000
0001
0000
0010
0000
0000
1100
0000
0000
0000
,
1000
0000
0001
0000
1000
0000
0000
0010
0000
0100
0010
0000
1000
0100
0010
0000
,
0001
0000
0010
0000
0100
0000
0000
1000
0000
0100
0000
0000
0011
0000
0000
0000
,
1000
0000
0100
0000
0010
0000
0000
0001
0000
1000
0000
0000
0110
0000
0000
0000
,
0001
0000
0100
0000
0001
0000
0000
0001
0000
1000
0000
0000
1000
0000
0000
0000
,
1000
0000
0010
0000
0001
0000
0000
0001
0000
0010
1000
0000
1000
0100
0010
0000
,
0001
0001
0010
0100
,
1000
0001
0010
0100
,
1001
0011
0110
1100
,
1001
0011
0110
1100
,
1000
0100
0010
0001
0010
0100
1000
0100
0010
0001
0010
0100
1000
0100
0010
0001
,
0010
0100
0010
0100
0010
0100
0010
0100
1000
0001
1000
0001
1000
0001
1000
0002
,
2000
0000
0000
0000
,
3003
0000
1000
0001
1000
0001
1000
0000
0100
0000
0010
0000
0001
1000
0001
0000
,
1000
0000
0100
0000
0010
0000
0001
0010
0000
0100
0000
1000
0001
0000
0001
0000
,
0010
0000
0100
1000
0010
0000
0100
0001
0010
0000
0100
1000
0010
0000
0000
0000
,
1000
0000
0001
0010
0001
0010
0000
0010
0000
0010
0001
1000
0001
0000
0100
0000
,
0010
0000
1000
0001
1000
0000
1000
0100
0010
0000
0010
0100
1000
0000
0000
0000
,
1000
0000
0001
0000
0010
0001
0010
0001
0100
0000
0010
1000
0100
0010
0001
0000
,
1000
0000
0100
0010
0001
0000
0001
0010
0100
0000
1000
0100
0010
0000
0001
0000
,
1000
0000
0100
0000
0010
0001
1000
0001
0000
1000
0000
0001
1000
0000
1000
0000
,
0010
0000
0100
0010
1000
0000
0100
0010
0001
0000
0100
0010
1000
0000
0000
0000
,
1000
0100
0010
0001
1000
0000
0001
0010
0100
1000
0001
1000
0001
0000
1000
0000
,
0100
0000
0010
0100
0010
0000
0001
1000
0001
0000
0100
0010
0100
0000
1000
0000
,
0100
0000
0001
0000
0010
0100
1000
0001
0000
0010
0000
0100
1000
0000
0001
0000
,
0010
0000
0100
1000
0001
0000
0010
0100
1000
0000
0100
0010
1000
0000
0010
0000
,
0001
0000
0100
0000
0010
1000
0000
1000
0000
0100
0000
0010
0100
0000
0001
0000
,
0100
0000
1000
0010
0100
0000
0100
0010
1000
0000
1000
0001
1000
0000
0001
0000
,
1000
0000
0010
0000
0100
0010
1000
0100
0000
0010
0000
0001
1000
0000
0100
0000
,
0010
0000
0001
1000
0100
0000
0010
0100
1000
0000
1000
0010
0100
0000
MMMM
0000
,
1001
0000
0001
0000
1000
0000
0100
0010
0000
0001
0000
1000
0100
0000
0110
0000
,
0001
0000
0010
0100
0010
0000
0001
1000
0000
0100
0000
0010
0001
0000
0000
0000
,
1000
0000
0010
0000
1000
0100
0000
0010
0000
0001
0000
0010
0001
0000
0100
0000
,
0010
0000
1000
0000
0100
0000
0000
0010
0000
0001
0000
0000
1001
0000
0000
0000
,
1000
0100
0010
0001
1000
0000
1000
0100
0000
0010
0000
0001
1000
0000
0100
0000
,
0010
0000
0001
0000
1001
0000
0000
0001
0000
0100
0000
1000
0100
0000
0000
0000
,
1001
0000
1000
0000
0001
0000
0000
1000
0000
0100
0000
0010
0001
0000
0010
0000
,
0100
0000
1000
0000
1000
0000
0000
1000
0000
0010
0000
0000
0220
0000
0330
0000
,
1000
0100
1000
0100
1000
0000
0100
0010
0000
0001
0000
1000
0100
0000
0010
0000
,
0001
0000
1000
0000
0010
0000
0000
0101
0000
0001
0000
0001
1000
0000
0000
0000
,
1000
0000
0010
0000
0100
0001
0000
1000
0100
0010
0000
0001
1000
0000
0010
0000
,
0100
0000
0010
0000
0010
0000
0000
1000
0000
0100
0000
0000
0110
0000
0000
0000
,
0001
0000
0001
0000
0001
0000
1000
0100
0000
0100
0000
0100
0010
0000
0001
0000
,
1000
0000
0100
0000
0001
0000
0000
0100
0000
1000
0000
0010
0100
0000
0000
0000
,
0010
0000
1000
0000
0100
0000
0010
0001
0000
1000
0100
0000
0010
0000
0010
0000
,
0001
0000
1000
0000
0001
0000
0000
1000
0000
0001
0000
0000
2002
0000
3003
0000
;

//---------------dance-single - Copied from----------------
#NOTES:
     dance-single:
     Copied from:
     Medium:
     8:
     0.522,0.642,0.019,0.227,0.009,360.000,2.000,24.000,0.000,1.000,0.000,0.522,0.642,0.019,0.227,0.009,360.000,2.000,24.000,0.000,1.000,0.000:
0000
0000
0000
0000
,
2000
0000
0000
0000
0000
0200
0000
3000
,
0002
0000
0300
0000
0000
0200
0003
0000
,
0020
0000
0000
0300
0000
0200
0000
0000
,
0032
0000
0000
0000
0303
0200
2300
3020
,
0230
0000
0000
0000
0000
0320
0000
0000
,
2000
0000
0000
0030
0000
0200
3000
0000
,
0020
0000
0300
0000
0000
0031
0010
0001
,
0010
0000
0000
0000
,
2000
0000
0000
3000
,
0002
0000
0000
0003
,
0020
0000
0000
0030
,
0200
0000
0000
0300
,
0020
0000
0000
0030
,
2000
0000
0000
3000
,
0200
0000
0000
0300
,
0001
0010
1000
0000
0010
0000
0001
0000
,
0010
1000
0100
0000
0001
0000
0001
0000
,
0001
1000
0010
0000
0010
0000
1000
0000
,
0100
1000
0100
0000
1000
0000
0001
0000
,
0010
0001
0010
0000
0001
0000
1000
0000
,
0010
0100
0010
0000
0100
0000
0001
0000
,
1000
0100
1000
0000
0001
0000
0010
0000
,
0001
0100
0001
0000
0100
0000
0010
0000
,
0010
1000
0010
0000
1000
0000
0100
0000
,
1000
0100
1000
0000
0001
0000
0010
0000
,
0001
0010
0001
0000
0100
0000
0010
0000
,
1000
0100
0001
0000
1000
0000
0100
0000
,
0010
0001
1000
0000
0001
0000
0100
0000
,
0010
0100
0001
0000
1000
0000
0100
0000
,
0010
0001
0010
0000
0001
0000
0100
0000
,
0010
1000
0010
0000
1000
0000
0100
0000
,
1000
0100
1000
0000
0001
0000
1000
0000
,
0001
0100
0001
0000
0100
0000
0010
0000
,
1000
0010
1000
0000
0010
0000
1000
0000
,
0100
0010
0100
0000
0010
0000
0001
0000
,
0010
0001
0010
0000
0001
0000
0100
0000
,
0010
0100
0010
0000
0010
0000
1000
0000
,
0010
1000
0010
0000
1000
0000
0100
0000
,
1000
0100
1000
0000
0100
0000
1000
0000
,
0001
0010
0100
1000
,
0001
0100
1000
0100
,
0001
0010
1000
0010
,
0001
1000
0010
1000
,
0001
1000
0001
1000
0001
1000
0001
1000
,
0010
0100
0010
0100
0010
0100
0010
0200
,
0020
0000
0000
0000
0000
0000
0000
0330
,
0010
0100
0010
0000
0100
0000
0100
0010
,
0100
0001
1000
0010
,
0010
0100
0001
0100
0010
1000
0100
0000
,
1000
0100
1000
0001
,
1000
0010
1000
0001
0100
0010
0100
0000
,
0001
1000
0100
0010
,
0001
1000
0010
0100
0001
0100
0010
0000
,
1000
0001
1000
0001
,
0001
0100
0010
0100
1000
0100
0010
0000
,
0010
1000
0100
0010
,
0001
0010
0100
0010
1000
0010
0001
0000
,
0001
0100
1000
0100
,
0010
1000
0100
0010
0001
0100
1000
0000
,
0100
0010
1000
0100
,
0010
0001
0100
1000
0100
0010
1000
0000
,
0100
0010
0001
0100
,
0010
0100
0001
1000
0100
0010
0001
0000
,
0001
0100
1000
0100
,
0010
1000
0100
0010
0001
0100
1000
0000
,
0010
0100
0010
1000
,
0100
0010
0001
0100
0010
0100
1000
0000
,
0010
0100
0010
1000
,
0100
0010
0001
0100
1000
0100
0010
0000
,
1000
0100
0010
0001
,
0001
0010
1000
0010
0001
0100
1000
0000
,
0110
0010
1000
0100
,
1000
0100
0010
0001
1000
0010
0100
0000
,
0001
0100
1000
0100
,
0010
1000
0100
0010
0001
1000
0100
0000
,
1000
0001
0100
0010
,
0010
1000
0100
0010
0001
1000
0010
0000
,
0100
0001
0100
0010
,
0010
0000
0010
0000
0010
0000
0000
0100
0000
0100
0000
0000
0110
0000
0000
0000
;

//---------------dance-single - Copied from Copied f----------------
#NOTES:
     dance-single:
     Copied from Copied f:
     Easy:
     6:
     0.377,0.453,0.284,0.218,0.000,226.000,30.000,23.000,0.000,1.000,0.000,0.377,0.453,0.284,0.218,0.000,226.000,30.000,23.000,0.000,1.000,0.000:
0000
0000
0000
0000
,
2000
0000
0000
0000
0000
0200
0000
3000
,
0002
0000
0300
0000
0000
0200
0003
0000
,
0020
0000
0000
0300
0000
0200
0000
0000
,
0032
0000
0000
0000
0303
0200
2300
3020
,
0230
0000
0000
0000
0000
0320
0000
0000
,
2000
0000
0000
0030
0000
0200
3000
0000
,
0020
0000
0300
0000
0000
0031
0010
0001
,
0020
0000
0000
0030
,
2000
0000
0000
3000
,
0002
0000
0000
0003
,
0020
0000
0000
0030
,
0200
0000
0000
0300
,
0020
0000
0000
0030
,
2000
0000
0000
3000
,
0200
0000
0000
0300
,
0001
0000
1000
0000
,
0010
0100
0001
0100
,
0010
1000
0100
1000
,
0001
0100
0010
0110
,
0010
1000
0100
0010
,
0001
1000
0001
1001
,
0001
0100
0010
1000
,
0100
1000
0001
1001
,
0001
0000
0000
0000
,
0100
0000
0000
0000
,
0010
0000
0000
0000
,
1000
0000
0000
0000
,
0001
0000
0000
0000
,
0100
0000
0000
0000
,
0010
0000
0000
0000
,
0100
0000
0000
0000
,
0001
0000
0000
0000
,
1001
0000
0000
0000
,
1010
0000
0000
0000
,
0101
0000
0000
0000
,
0110
0000
0000
0000
,
1010
0000
0000
0000
,
1100
0000
0000
0000
,
0011
0000
0000
0000
,
1001
0000
1001
0000
,
1001
0000
0110
0000
,
0110
0000
1010
0000
,
0101
0000
1001
0000
,
0001
0100
0010
0100
,
0010
1000
0100
0000
0010
0001
0100
0000
,
0010
0100
0010
0100
,
0110
0000
0000
0000
,
1000
0001
0100
0010
,
0010
0010
0010
0010
,
0010
0100
0001
1000
,
0100
0100
0100
0100
,
1000
0001
0100
0010
,
0010
0010
0010
0010
,
0010
0100
0001
1000
,
0100
0100
0100
0100
,
1000
0010
0100
0001
,
1000
1000
1000
1000
,
0010
0100
0001
0010
,
0100
0100
0100
0100
,
1000
0010
0100
0001
,
1000
1000
1000
1000
,
0010
0100
0001
1000
,
0100
0100
0100
0100
,
0010
0001
0100
1000
,
0100
0010
1000
0100
,
0100
1000
0010
0100
,
0101
0010
1100
0001
,
0100
0010
0100
0010
,
1000
0010
1000
0000
0010
0000
0100
0000
,
0001
0100
0010
1000
,
0100
1000
0100
0000
1000
0000
0001
0000
,
0100
0010
1000
0100
,
0010
0001
0010
0000
0001
0000
0100
0000
,
0010
1000
0100
1000
,
1001
0110
1001
1100
,
0001
0100
0010
1000
,
1010
0101
0011
1100
,
0001
0100
0010
1000
,
0010
1000
0001
1001
;
