#TITLE:Flea Market Montgomery;
#SUBTITLE:-Extended Version-;
#ARTIST:Sammy Stephens;
#TITLETRANSLIT:;
#SUBTITLETRANSLIT:;
#ARTISTTRANSLIT:;
#GENRE:;
#CREDIT:;
#BANNER:Flea Market Montgomery.png;
#BACKGROUND:Flea Market Montgomery-bg.png;
#LYRICSPATH:;
#CDTITLE:;
#MUSIC:Flea Market Montgomery.ogg;
#OFFSET:0.429;
#SAMPLESTART:1.589;
#SAMPLELENGTH:17.860;
#SELECTABLE:YES;
#BPMS:0.000=119.990;
#STOPS:;
#BGCHANGES:;
#KEYSOUNDS:;

//---------------dance-single - Copied from----------------
#NOTES:
     dance-single:
     Copied from:
     Hard:
     8:
     0.519,0.524,0.480,0.122,0.199,373.000,59.000,15.000,0.000,0.000,0.000,0.519,0.524,0.480,0.122,0.199,373.000,59.000,15.000,0.000,0.000,0.000:
0000
0000
0000
0000
,
0000
0000
0000
0000
0000
0000
0000
0000
1000
0100
1000
0000
0000
0000
0001
0000
,
1000
0000
0000
0010
0100
0000
0000
0002
,
1003
0000
0000
0000
0000
0000
1000
0001
1000
0000
1000
0000
0000
0000
0010
0100
,
0010
0100
0000
0100
0100
0101
0101
1100
,
1100
0101
0000
0001
0100
0100
0000
0010
,
0100
0100
0000
0100
0100
0100
0000
0010
,
0100
0200
0000
0000
0020
0330
0000
0001
,
1000
0000
0000
1000
1010
0000
0000
0010
,
0200
0010
0310
0010
0100
0100
0000
0101
,
1010
1001
0000
0001
0100
0100
0000
0100
,
0100
0000
0100
0000
0000
0000
0010
0000
0100
0000
0100
0001
0000
0000
1010
0000
,
1100
0000
0000
0001
1000
1000
0000
0010
,
0100
0000
0000
0000
0000
0000
0000
0000
1000
0001
1000
0000
0000
0000
0010
0000
,
0100
0000
0000
0100
0001
0000
0000
0001
,
1000
1000
0000
0010
0100
0100
0000
0001
,
1000
1000
0000
0100
1000
1000
0000
0001
,
0100
0000
0100
0000
0000
0000
0010
0000
0100
0000
0100
0001
0000
0000
1010
0000
,
0101
0000
0000
1000
1000
1000
0000
0100
,
0100
0110
0100
0110
1100
0101
0000
0010
,
1000
0001
0000
1001
1100
0101
0000
0101
,
0110
0000
0101
0000
0000
0000
0010
0000
0100
0000
0100
0001
0000
0000
0100
0000
,
1010
0000
0000
0000
0000
0000
0000
0000
1000
0100
1000
0000
0000
0000
1000
0000
,
1000
0000
0000
0010
0100
0000
0000
0100
,
0100
0000
0000
0000
0000
0000
0001
0100
1000
0000
1000
0000
0000
0000
0010
0100
,
0010
0100
0000
0100
0101
1010
0110
1001
,
1100
0011
0000
0001
1000
1000
0000
0010
,
0010
0100
0000
0100
0100
0100
0000
0001
,
0100
0000
0200
0000
0000
0000
0000
0000
0020
0000
0000
0330
0000
0000
0001
0000
,
1000
0000
0000
1000
1000
0000
0000
1000
,
1000
0000
1100
0000
0000
0000
0110
0000
2200
0000
0000
3300
0000
0000
0001
0000
,
1000
0000
1010
0000
0000
0000
1000
0100
1000
0000
1000
0100
1000
0000
0001
0010
,
0001
0000
0001
0010
0001
0000
1000
0000
0100
0000
0020
0000
0000
0000
0031
0000
,
0000
0000
0101
0000
0000
0000
1000
0100
1000
0000
1000
0100
1000
0000
0001
0010
,
0001
0000
0001
0010
0001
0000
0001
0000
0001
0000
1000
0000
0000
0000
0100
0000
,
0202
0000
0000
0303
0000
0000
0001
0000
1000
0000
1000
0000
0000
0000
0010
0000
,
0100
0100
0000
0001
1000
0110
0000
1001
,
1001
1001
0000
0100
0100
0010
0000
0100
,
0001
1000
0000
0100
1000
0002
0000
0000
,
2000
0000
0000
0000
3003
0000
0010
0100
0010
0000
0100
0000
0000
0000
0100
0010
,
0100
0100
0000
0001
1000
1001
0000
0100
,
1000
0000
0000
0001
0100
0110
0000
0010
,
0010
0110
0000
1100
0011
1100
0000
1010
,
0101
1010
0000
0100
1000
2000
0000
0000
,
0200
3300
0000
0010
0010
0000
0000
1000
,
1000
0000
0000
0001
0100
0010
0000
0010
,
0100
0101
0000
0010
1000
0001
0000
1000
,
1100
0000
0101
0000
0000
0000
0010
0000
0100
0000
0100
0001
0000
0000
0001
0000
,
0100
0100
0100
0000
0100
0000
0100
0000
0000
0000
0000
0000
0000
0000
0100
0000
,
1000
0000
0100
1000
0000
1000
0100
0000
1000
0000
0000
0000
0000
0000
0001
0000
,
1000
0000
1000
0010
0000
0010
0100
0000
0100
0000
0000
0000
0000
0000
0001
0000
,
0100
0000
0100
0010
0000
0010
1000
0000
1000
0000
0000
0000
0000
0000
0001
0000
,
0100
0000
0100
0010
0000
0010
0100
0000
0100
0000
0000
0000
0000
0000
0001
0000
,
1000
0000
1000
0010
0000
0010
0100
0000
0100
0000
0000
0000
0000
0000
0001
0000
,
0100
0000
0100
0010
0000
0010
1000
0000
1100
0000
0000
0000
0000
0000
0001
0000
,
0100
0000
0100
0010
0000
0010
0100
0000
0100
0000
0001
0010
0000
0000
0001
0000
,
0100
0000
0100
0010
0000
0010
0100
0000
0101
0000
0000
0000
0000
0000
0001
0000
,
1000
0000
1000
0010
0000
0010
0100
0000
0101
0000
0000
0000
0000
0000
0001
0000
,
1000
0000
1000
0010
0000
0010
0100
0000
0101
0000
0000
0000
0000
0000
0001
0000
,
1000
0000
1000
0010
0000
0010
0100
0000
0101
0000
0000
0000
0000
0000
0001
0000
,
0010
0000
0100
1000
0000
1000
0001
0000
0101
0000
0000
0000
0000
0000
0010
0000
,
0100
0000
0100
0010
0000
0100
0110
0000
0000
0000
0000
0000
0000
0000
0000
0000
;

//---------------dance-single - Copied from Copied f----------------
#NOTES:
     dance-single:
     Copied from Copied f:
     Medium:
     5:
     0.314,0.374,0.146,0.000,0.000,252.000,18.000,0.000,0.000,0.000,0.000,0.314,0.374,0.146,0.000,0.000,252.000,18.000,0.000,0.000,0.000,0.000:
0000
0000
0000
0000
,
0000
0000
0000
0000
1000
0001
0000
0001
,
0100
0000
0000
0100
0010
0000
0000
0010
,
1000
0000
0000
0001
0100
0010
0000
0000
,
0010
0100
0000
0000
0001
1000
1000
1000
,
0010
0100
0000
0000
0001
0100
0000
0000
,
0010
0100
0000
0000
0001
1000
0000
0000
,
0010
0100
0000
0000
0101
0000
0000
0001
,
0100
0000
0000
0010
1000
0000
0000
0001
,
0100
0000
0110
0000
1001
0001
0000
0001
,
0100
0010
0000
1000
0100
0010
0000
0010
,
1000
0001
0000
0001
1000
0000
1001
0000
,
0001
0000
0000
0100
0010
0000
0000
1000
,
0100
0000
0000
0000
0010
1000
0000
0001
,
0001
0000
0000
0100
0100
0000
0000
0010
,
0100
0000
0000
0001
1000
0000
0000
0001
,
0100
0000
0000
0010
0100
0001
0000
0000
,
0001
1000
0000
0000
0010
0010
0000
0001
,
0001
0000
0000
0010
0100
0001
0000
0001
,
1000
0000
0000
0000
0001
1000
0000
0000
,
0001
0100
0000
0000
0010
0100
0000
0000
,
0001
1000
0000
0000
0001
0000
0000
1000
,
0001
0000
0000
0000
0010
0100
0000
0001
,
0100
0000
0000
1000
0100
0000
0000
0010
,
1000
0000
0000
0001
0100
1000
0000
0000
,
1000
0100
0000
0000
0010
1000
0001
0010
,
0001
1000
0000
0000
0001
0100
0000
0000
,
0001
0100
0000
0000
0010
1000
0000
0000
,
0001
0100
0000
0000
0110
0000
0000
0001
,
0001
0000
0000
1000
1000
0000
0000
0010
,
0010
0000
0000
0100
0100
0000
0000
0001
,
0001
0000
0000
1000
1000
0000
0000
0001
,
0001
0000
0000
0000
0001
0000
0000
0100
,
0000
1000
0000
1000
1000
0000
0000
0001
,
0001
0000
0000
0000
0001
0000
0000
1000
,
0001
0000
0000
0010
0100
0010
0000
1000
,
0001
1000
0000
0001
0100
1000
0000
1001
,
1001
1001
0000
0010
1000
0001
0000
0001
,
0100
0010
0000
0010
0100
1000
0000
0000
,
0110
0000
0000
0001
0100
0000
0000
0010
,
0100
1000
0000
0010
0100
0001
0000
0001
,
1000
0000
0000
0001
1000
0000
0000
0001
,
0100
0000
0000
0100
0010
0000
0000
0010
,
1000
0000
0000
0001
0001
0001
0000
0000
,
1000
0000
0000
0010
0100
0000
0000
0001
,
1000
0000
0000
0001
0100
0010
0000
0010
,
0010
0010
0000
0001
1000
0100
0000
0100
,
0100
0100
0000
0001
1000
0000
1010
0000
,
0001
0000
0100
0100
0000
0000
0000
0000
,
0001
0100
0100
0000
,
0010
1000
1001
0000
,
0001
0100
0110
0000
,
1000
0100
1100
0000
,
0010
0100
0001
0001
,
1000
0010
0100
0001
,
0100
0000
1000
0000
1000
0100
0001
0000
,
1000
0001
1010
0000
,
0001
0100
1001
0000
,
0010
1000
1100
0000
,
0010
1000
1001
0000
,
0001
0100
0110
0000
,
0001
0000
1000
0001
0000
0000
0000
0000
;

//---------------dance-single - Copied from Copied f----------------
#NOTES:
     dance-single:
     Copied from Copied f:
     Easy:
     2:
     0.200,0.225,0.163,0.016,0.000,150.000,20.000,2.000,0.000,0.000,0.000,0.200,0.225,0.163,0.016,0.000,150.000,20.000,2.000,0.000,0.000,0.000:
0000
0000
0000
0000
,
0000
0000
0000
0000
1000
0000
0000
0001
,
0001
0000
0000
0000
0100
0000
0000
0010
,
0010
0000
1000
0000
,
0001
0000
0100
0000
,
0001
0000
0000
0000
1000
1000
0000
0000
,
0010
0000
0100
0000
,
0010
0000
1001
0000
,
0001
0000
0100
0000
,
0010
1000
0001
0000
,
0001
0000
0100
0000
,
0010
0000
0001
1001
,
0001
0000
0100
0000
,
0010
0000
0000
0000
1000
1000
0000
0000
,
0001
0000
0000
0000
0100
0000
0000
0010
,
0010
0000
1000
0000
,
0001
0000
0100
0000
,
0010
0000
1001
0001
,
1000
0000
0001
0000
,
0100
0000
0010
0000
,
1001
0000
0100
0000
,
1000
0000
0010
0100
,
0001
0000
0001
0000
,
1000
0000
0010
0000
,
1001
0000
0001
0000
,
0100
0000
0110
0000
,
1001
0000
0010
0000
,
0001
0000
0100
0000
,
0010
0000
1001
0000
,
1000
0000
0001
0000
,
0100
0000
0010
0000
,
0001
0000
1000
1000
,
0001
0000
0001
0000
1000
0000
0000
1001
,
0000
0000
0001
1000
,
0001
0001
1000
0000
,
1001
0000
0001
0000
,
0100
0000
0010
0000
,
0100
0000
0001
0000
,
1000
0000
0100
0000
,
0011
0000
1000
0000
,
0010
0000
0100
0000
,
0001
0000
1000
0000
,
0001
0000
0100
0000
,
0010
0000
1000
0000
,
1001
0000
0001
0000
,
0100
0000
0010
0000
,
0100
0000
0001
0000
,
1000
0000
0010
1000
,
0001
0001
0001
0000
,
0100
0100
0100
0000
,
0010
1000
0001
0000
,
0001
0010
0100
0000
,
1000
0010
0101
0000
,
0010
1000
1001
0000
,
0010
0001
1100
0000
,
0001
0000
1000
0000
0001
1000
0001
0000
,
0010
0100
0101
0000
,
0010
1000
1100
0000
,
0001
0100
0110
0000
,
1000
0001
1100
0000
,
0001
0100
0110
0000
,
0002
2000
3003
0000
;

//---------------dance-single - Copied from Copied f----------------
#NOTES:
     dance-single:
     Copied from Copied f:
     Beginner:
     2:
     0.168,0.199,0.138,0.041,0.000,123.000,17.000,5.000,0.000,0.000,0.000,0.168,0.199,0.138,0.041,0.000,123.000,17.000,5.000,0.000,0.000,0.000:
0000
0000
0000
0000
,
0000
0000
0000
1000
,
0000
0001
0000
0100
,
0000
0010
0000
2000
,
3000
2000
3000
1000
,
0000
1000
0000
0001
,
0000
0010
0000
0100
,
0000
0002
0003
0001
,
0000
1000
0000
0010
,
0000
0100
0000
2000
,
3000
2000
3000
1000
,
0000
0001
0000
1000
,
0000
0010
0000
0100
,
0000
0001
0000
1000
,
0000
0010
0000
0100
,
0000
1000
0000
0001
,
0000
0100
0000
0010
,
0000
1000
0000
0001
,
0000
0100
0000
0010
,
0000
1000
0000
0001
,
0000
0100
0000
0010
,
0000
1000
0000
0001
,
0001
0001
0000
0010
,
0000
0100
0000
1000
,
0000
0001
0000
0010
,
0000
0100
0000
1000
,
0000
0001
0000
0010
,
0000
0100
0000
1000
,
0000
1000
0000
0001
,
0000
0010
0000
0100
,
0000
0010
0000
0001
,
0000
0001
0000
1000
,
0000
0001
0000
0010
,
0000
1001
0000
1000
,
0000
0001
0000
0010
,
0000
1001
0000
0100
,
0000
1000
0000
0001
,
0000
0010
0000
0100
,
0000
1000
0000
0001
,
0000
1001
0000
0010
,
0000
0100
0000
1000
,
0000
0001
0000
0010
,
0000
0001
0000
0100
,
0000
1000
0000
0001
,
0000
0100
0000
0010
,
0000
1000
0000
0001
,
0000
0100
0000
0010
,
0000
1000
0000
0001
,
0000
0100
0100
0100
,
0000
1000
0000
1001
,
0000
0010
0000
1001
,
0000
0100
0000
1001
,
0000
0010
0000
1001
,
0000
1000
0000
1001
,
0000
0001
0000
1001
,
0000
0010
0000
1001
,
1001
1001
0000
0001
,
0000
0010
0000
1001
,
0000
0100
0000
1001
,
0000
0010
0000
1001
,
0000
0010
0000
1001
,
0000
0110
0000
0000
;
