#TITLE:Eye Of the Tiger;
#SUBTITLE:(Club Mix);
#ARTIST:Scooter;
#TITLETRANSLIT:;
#SUBTITLETRANSLIT:;
#ARTISTTRANSLIT:;
#CREDIT:;
#BANNER:Eye Of The Tiger.png;
#BACKGROUND:;
#LYRICSPATH:;
#CDTITLE:;
#MUSIC:Scooter - Eye Of The Tiger (club mix).ogg;
#OFFSET:0.176;
#SAMPLESTART:37.990;
#SAMPLELENGTH:13.200;
#SELECTABLE:YES;
#BPMS:0.000=120.010;
#STOPS:;
#BGCHANGES:;

//---------------dance-single - ----------------
#NOTES:
     dance-single:
     :
     Hard:
     8:
     0.466,0.498,0.081,0.020,0.329:
0000
0000
0000
0000
,
0000
0000
0000
0000
,
0000
0000
0000
0000
,
0000
0000
0000
0000
,
1001
0000
0000
0000
0110
0000
0000
0000
0010
0000
0001
0000
0010
0000
0000
0100
,
0000
0000
0010
0000
0000
0000
0100
0010
0100
0010
0100
0010
0100
0000
0000
1000
,
0000
0000
0010
0000
0000
0000
0010
1000
0010
1000
0010
1000
0010
0000
0000
0100
,
0000
0010
0000
0000
0100
0100
0100
0100
,
0100
0000
0000
0000
0010
0000
0000
0000
0100
0000
0010
0100
0010
0000
1000
0100
,
0000
1000
0100
0000
1000
0000
0001
0000
0100
0000
0001
0000
0100
0000
0010
1000
,
0000
0010
1000
0000
0100
0000
0010
0000
0001
0000
0100
0000
0010
0000
1000
0010
,
0000
1000
0010
0000
0100
0000
0001
0000
1000
0000
0100
0000
0100
0000
0100
0000
,
0100
0000
0100
0000
1000
0000
0001
0000
0100
0000
0010
1000
0010
0000
0100
0010
,
0000
0100
0010
0000
1000
0000
0100
0000
0010
0000
0001
0010
0001
0000
0010
0001
,
0000
1000
0100
0000
1000
0000
1000
0000
0010
0000
0100
0010
1000
0000
0001
0100
,
0000
0010
1000
0000
0001
0000
0010
0000
0100
0000
0100
0000
0100
0000
0100
0000
,
0100
0000
0000
0000
1000
0000
0001
0000
0100
0000
0010
1000
0010
0000
0100
0001
,
0000
0010
0100
0000
1000
0000
0001
0000
0100
0000
0010
1000
0010
0000
0100
0001
,
0000
0010
0100
0000
1000
0000
0001
0000
0100
0000
0010
1000
0010
0000
0100
0010
,
0000
1000
0001
0000
0010
0000
0100
0000
0100
0000
0100
0000
0100
0000
0100
0000
,
0100
0000
0000
0000
1000
0000
0000
0000
0001
0000
0000
0000
0100
0000
0000
0010
,
0000
0000
1000
0000
0100
0000
0010
0001
0100
0000
0010
0100
0010
0000
0000
1000
,
0000
0000
0100
0000
0010
0000
0001
0000
1000
0000
0010
0000
0100
0000
0000
0010
,
0000
0100
0000
0010
0100
0100
0100
0100
,
0100
0000
0000
0000
1000
0000
0000
0000
0001
0000
0100
0010
0000
0000
0100
0000
,
0010
0000
1000
0100
1000
0100
0000
1000
,
0001
0000
0000
0000
0001
0000
0000
0000
0100
0010
0000
1000
0000
0000
0000
0000
,
0010
0100
0010
0000
0110
0000
0010
0000
,
1000
0000
0000
0000
0100
0000
0000
0000
0010
0000
0001
0010
0000
0000
0001
0000
,
0010
0000
0000
0000
0100
0000
0000
0000
1000
0000
0000
0000
0000
0000
0001
0000
0000
0000
0000
1000
0000
0000
0000
0000
0001
0000
0000
0000
0000
0000
0000
0000
,
0100
0000
0010
1000
0000
0000
0000
0000
0010
0000
0100
0000
0010
0000
0000
0000
,
0100
0000
0010
1000
0000
0010
1000
0000
0010
0000
1000
0000
0100
0000
1000
0000
,
0001
0000
1000
0000
0001
0000
0000
0000
0001
0000
0100
0010
0000
0000
0000
0000
,
1000
0000
0010
0100
0001
0010
0000
0100
,
1000
0000
0001
0000
0100
0010
1000
0010
,
0100
0002
0000
0020
0000
0033
0000
0000
,
0100
0000
0000
0000
1000
0000
0000
0000
0001
0000
0100
0010
0000
0000
0000
0000
,
0100
0000
0010
0000
1000
0000
0000
0100
0000
0000
1000
0000
0001
0000
0000
0000
,
1000
0010
0000
0000
0100
0000
0000
0000
0010
0000
1000
0000
0010
0000
0000
0000
,
0100
0000
0010
0100
0000
0000
0001
0000
1000
0000
0100
0000
1000
0000
0001
0000
,
0000
1000
0000
0000
0000
0000
0001
0000
0100
0000
0010
0100
0000
0000
0010
0000
,
1000
0100
0010
0001
1000
0100
0000
1000
,
0000
0001
0000
0000
0100
0000
0000
0000
0010
0000
1000
0010
0000
0000
1000
0000
,
0010
0100
0000
0000
0101
0000
0000
0000
1010
0000
0000
0000
0000
0000
0010
0000
,
0000
0100
0000
0000
0001
0000
0000
0000
1000
0000
0100
1000
0000
0000
0001
0000
,
0100
0010
1000
0001
0100
0010
0000
0010
,
0000
1000
0000
0000
0100
0000
0000
0010
0000
0000
0001
0000
0100
0000
0000
0010
,
0000
1000
0100
0000
0000
0000
0000
0000
,
1000
0000
0001
0100
0000
0000
0000
0000
0100
0000
0000
0000
0110
0000
0000
1001
,
0000
0110
0000
0000
0000
0000
0000
0000
;

//---------------dance-single - ----------------
#NOTES:
     dance-single:
     :
     Medium:
     5:
     0.281,0.299,0.020,0.041,0.091:
0000
0000
0000
0000
,
0000
0000
0000
0000
,
0000
0000
0000
0000
,
0000
0000
0000
0000
,
1000
0000
0000
0000
0010
0000
0000
0000
0100
0000
0000
0000
0010
0000
0000
0100
,
0000
0000
0010
0000
0000
0000
0000
0000
0010
0000
0000
0000
1000
0000
0000
0100
,
0000
0000
1000
0000
0000
0000
0000
0000
1000
0000
0000
0000
0001
0000
0000
0100
,
0000
0001
0000
0000
0200
0000
0000
0000
,
0300
0000
0000
0000
0010
0000
0000
0000
1000
0000
0000
0000
0100
0000
0000
1000
,
0000
0000
0100
0000
0000
0000
0000
0000
1000
0000
0000
0000
0001
0000
0000
0100
,
0000
0000
0001
0000
0000
0000
0000
0000
0100
0000
0000
0000
0010
0000
0000
1000
,
0000
0010
0000
0000
0200
0000
0000
0000
,
0300
0000
0000
0000
0010
0000
0000
0000
1000
0000
0000
0000
0100
0000
0000
1000
,
0000
0000
0100
0000
0000
0000
1000
0000
0001
0000
0000
0000
0100
0000
0000
0010
,
0000
0000
0100
0000
0000
0000
0010
0000
0100
0000
0000
0000
0010
0000
0000
1000
,
0000
0010
0000
0000
0200
0000
0000
0000
,
0300
0000
0000
0000
0010
0000
0000
0000
0000
0000
0000
0000
1000
0000
0000
0100
,
0000
0000
1000
0000
0000
0000
0000
0000
0001
0000
0000
0000
0100
0000
0000
0001
,
0000
0000
0100
0000
0000
0000
0000
0000
0010
0000
0000
0000
1000
0000
0000
0100
,
0000
1000
0000
0000
2000
0000
0000
0000
,
3000
0000
0000
0000
0001
0000
0000
0000
0000
0000
0000
0000
0100
0000
0000
0010
,
0000
0000
1000
0000
0000
0000
0000
0000
1000
0000
0000
0000
0100
0000
0000
0010
,
0000
0000
0001
0000
0000
0000
0000
0000
0100
0000
0000
0000
0010
0000
0000
1000
,
0000
0100
0000
0000
1000
0000
0001
0000
,
0100
0010
0010
1000
,
0100
0000
0010
0001
0100
0000
0010
0000
,
1000
0010
0100
0010
,
0100
0010
1000
0000
0100
0000
1000
0000
,
0001
0000
0100
0000
0010
0100
0010
0000
,
1000
0100
0010
0001
,
0100
0010
1000
0100
,
0010
0001
0100
0000
0010
0000
1000
0000
,
0100
0000
0010
0000
0001
0100
1000
0000
,
0100
0010
1000
0100
,
0010
0000
0001
0000
0001
0100
0010
0000
,
1000
0010
0100
0001
,
0010
0000
0100
0000
1000
0001
0100
0000
,
0010
1000
0100
0010
,
0001
0100
0010
0000
1000
0000
0010
0000
,
0100
0010
1000
0100
,
0010
0000
0001
0100
0001
0000
0100
0010
,
0100
0010
1000
0100
,
0010
0000
0001
0000
0100
0000
0010
1000
,
0010
0110
1010
0001
,
0100
0000
0010
0000
1000
0100
1000
0000
,
0001
0100
0010
1000
,
0001
0000
0000
0000
0100
0000
0000
0010
0000
0000
1000
0000
0100
0000
0000
0010
,
0000
0001
0100
0000
0010
0000
1000
0000
,
0100
0000
0000
0000
1000
0000
0000
0000
0001
0000
0000
0000
0100
0000
0000
0010
,
0000
0100
0000
0000
0000
0000
0000
0000
;

//---------------dance-single - ----------------
#NOTES:
     dance-single:
     :
     Easy:
     3:
     0.208,0.224,0.051,0.051,0.081: // measure 1
0000
0000
0000
0000
,  // measure 2
0000
0000
0000
0000
,  // measure 3
0000
0000
0000
0000
,  // measure 4
0000
0000
0000
0000
,  // measure 5
1000
0000
0000
0000
0010
0000
0000
0000
0000
0000
0000
0000
0010
0000
0000
1000
,  // measure 6
0000
0000
0001
0000
0000
0000
0000
0000
0001
0000
0000
0000
0100
0000
0000
0100
,  // measure 7
0000
0000
0100
0000
0000
0000
0000
0000
0010
0000
0000
0000
1000
0000
0000
1000
,  // measure 8
0000
1000
0000
0000
2000
0000
0000
0000
,  // measure 9
0000
3000
0000
0000
0010
0000
0000
0000
0000
0000
0000
0000
0100
0000
0000
0010
,  // measure 10
0000
0000
1000
0000
0000
0000
0000
0000
1000
0000
0000
0000
0001
0000
0000
0100
,  // measure 11
0000
0000
0010
0000
0000
0000
0000
0000
0010
0000
0000
0000
0001
0000
0000
0100
,  // measure 12
0000
1000
0000
0000
0100
0000
0100
0000
,  // measure 13
0100
0000
0000
0000
0010
0000
0000
0000
1000
0000
0000
0000
0100
0000
0000
0100
,  // measure 14
0000
0000
0100
0000
0000
0000
0000
0000
1000
0000
0000
0000
0001
0000
0000
0001
,  // measure 15
0000
0000
0001
0000
0000
0000
0000
0000
0100
0000
0000
0000
0010
0000
0000
0010
,  // measure 16
0000
0010
0000
0000
2000
0000
0000
0000
,  // measure 17
0000
3000
0000
0000
0010
0000
0000
0000
0000
0000
0000
0000
0100
0000
0000
0100
,  // measure 18
0000
0000
0100
0000
0000
0000
0000
0000
0010
0000
0000
0000
1000
0000
0000
1000
,  // measure 19
0000
0000
1000
0000
0000
0000
0000
0000
0001
0000
0000
0000
0100
0000
0000
0100
,  // measure 20
0000
0100
0000
0000
0020
0000
0000
0000
,  // measure 21
0030
0000
0000
0000
1000
0000
0000
0000
0000
0000
0000
0000
0001
0000
0000
0100
,  // measure 22
0000
0000
0100
0000
0000
0000
0000
0000
0000
0000
0000
0000
0001
0000
0000
0100
,  // measure 23
0000
0000
1000
0000
0000
0000
0000
0000
0000
0000
0000
0000
1000
0000
0000
0100
,  // measure 24
0000
0001
0000
0000
2000
0000
0000
0000
,  // measure 25
3000
0001
0100
0100
,  // measure 26
0000
0001
1000
0100
,  // measure 27
0000
1000
0010
0001
,  // measure 28
0100
0110
0001
0000
,  // measure 29
0000
0010
1000
0100
,  // measure 30
0000
1000
0001
0101
,  // measure 31
0010
1000
0000
0001
,  // measure 32
0000
0100
0010
1000
,  // measure 33
0000
0001
0000
0100
,  // measure 34
0000
0010
0010
0010
,  // measure 35
0000
1000
0000
0100
,  // measure 36
0000
1000
0001
0100
,  // measure 37
0000
0010
0000
1000
,  // measure 38
0000
0100
0100
0100
,  // measure 39
0000
1000
0000
0010
,  // measure 40
0010
0110
0000
0000
,  // measure 41
0010
0000
1000
0100
,  // measure 42
0000
1000
0001
0100
,  // measure 43
0000
0100
0010
1000
,  // measure 44
0100
1100
1100
0000
,  // measure 45
0000
1000
0000
0010
,  // measure 46
0000
0100
0001
0010
,  // measure 47
0000
0100
0000
1000
,  // measure 48
0000
0002
0000
0000
,  // measure 49
0003
0000
0000
0000
0100
0000
0000
0000
0000
0000
0000
0000
0010
0000
0000
0010
,  // measure 50
0000
0010
0000
0000
0000
0000
0000
0000
;
