#TITLE:Desert Palace;
#SUBTITLE:;
#ARTIST:SEGA Sonic Team;
#TITLETRANSLIT:;
#SUBTITLETRANSLIT:;
#ARTISTTRANSLIT:;
#GENRE:;
#CREDIT:;
#BANNER:Desert Palace.png;
#BACKGROUND:;
#LYRICSPATH:;
#CDTITLE:;
#MUSIC:Desert Palace.ogg;
#OFFSET:1.695;
#SAMPLESTART:37.990;
#SAMPLELENGTH:13.180;
#SELECTABLE:YES;
#BPMS:0.000=129.410;
#STOPS:;
#BGCHANGES:;
#KEYSOUNDS:;

//---------------dance-single - ----------------
#NOTES:
     dance-single:
     :
     Challenge:
     9:
     0.816,0.724,0.857,0.335,0.885,485.000,92.000,36.000,0.000,0.000,0.000,0.816,0.724,0.857,0.335,0.885,485.000,92.000,36.000,0.000,0.000,0.000:
0000
0000
0000
0000
,
2000
0000
0000
0000
0000
0000
0000
0000
3002
0000
0000
0103
0001
0000
0000
0000
,
1001
0000
0000
1100
0000
0000
1001
0000
0011
0000
0000
1001
0000
0000
0110
0000
,
1001
0001
0010
0100
1000
0010
0100
0001
0000
0110
0000
0000
1001
0000
0000
0000
,
1100
0000
0000
0110
0000
0000
0011
0000
0101
0000
0000
0110
0000
0000
1010
0000
,
1100
1000
0100
0010
0001
0100
0010
1000
0100
0000
0000
0010
0001
0000
0000
0000
,
1001
0000
0000
0011
0000
0000
0110
0000
1100
0000
0000
1010
0000
0000
0110
0000
,
0101
0001
0010
0001
0100
0010
1000
0100
0000
0110
0000
0000
0101
0000
0000
0000
,
1100
0000
0000
1010
0000
0000
1100
0000
0110
0000
0000
0101
0000
0000
1001
0000
,
1100
0000
1000
0100
0010
0001
1000
0100
0010
0000
0001
0100
0001
0010
0100
1000
,
0001
0000
0001
0100
1000
0100
0001
0010
0100
0000
1000
0100
0010
0001
0010
0100
,
1000
0000
1000
0100
1000
0100
0010
0001
0100
0000
0010
1000
0010
1000
0100
0010
,
0001
0000
0001
0010
0100
1000
0010
0100
0001
0010
0000
0100
1000
0000
0110
0000
,
0011
0000
0001
0010
0100
1000
0001
0010
0100
0000
1000
0010
1000
0100
0010
0001
,
1000
0000
1000
0010
0001
0010
1000
0100
0010
0000
0001
0010
0100
1000
0100
0010
,
0001
0000
0001
0010
0001
0010
0100
1000
0010
0000
0100
0001
0100
0001
0010
0100
,
1000
0000
1000
0100
0010
0001
0100
0010
1000
0100
0000
0010
0001
0000
0010
0000
,
0012
0000
0000
1000
0000
0000
0100
0000
0203
0000
0000
0010
0000
0000
0010
0000
,
0320
0000
0000
0000
1000
0000
1000
0000
2030
0000
0000
0100
0000
0000
3010
0000
,
0020
0000
0000
0000
0000
2030
0000
3010
,
0010
1000
0010
1000
0100
1000
0100
1000
0000
0001
0000
1000
0001
0000
1001
0000
,
2001
0000
0000
0000
0000
0000
0000
0000
3200
0000
0000
0010
0000
0000
0301
0000
,
0100
2000
0000
0000
3020
0000
0000
0000
,
0030
0000
1000
0100
1000
0000
0100
0010
0100
0000
0010
0001
0010
0000
0001
0100
,
0001
0000
0001
1000
0001
0000
0202
0000
0000
0300
2000
0000
0000
0000
0000
3003
,
2002
0000
0000
0000
3003
0000
0000
0000
1001
0000
0000
0100
0001
0000
0000
0000
,
1001
0000
0000
1100
0000
0000
1001
0000
0110
0000
0000
0110
0000
0000
0101
0000
,
0101
0100
0010
0100
0010
1000
0100
1000
0000
1001
0000
0000
1010
0000
0000
0000
,
0001
0000
0000
1000
0000
0000
0010
0000
0100
0000
0000
0001
0000
0000
0100
0000
,
0010
1000
0100
0010
0001
0100
1000
0100
0001
0000
0000
0001
1000
0000
0000
0000
,
0100
0000
0000
1001
0000
0000
0010
0000
0101
0000
0000
0010
0000
0000
1100
0000
,
0001
0100
0010
0100
1000
0100
0010
1000
0000
1001
0000
0000
1010
1000
0100
0000
,
1100
0000
0000
0110
0000
0000
0011
0000
0101
0000
0000
0110
0000
0000
1010
0000
,
1100
0000
1000
0100
0010
0001
1000
0100
0010
0000
0001
0100
0001
0010
0100
1000
,
0001
0000
0001
0100
1000
0100
0001
0010
0100
0000
1000
0100
0010
0001
0010
0100
,
1000
0000
1000
0100
1000
0100
0010
0001
0100
0000
0010
1000
0010
1000
0100
0010
,
0001
0000
0001
0010
0100
1000
0010
0100
0001
0010
0000
0100
1000
0000
1010
0000
,
0100
0000
0001
0010
0100
1000
0001
0010
0100
0000
1000
0010
1000
0100
0010
0001
,
1000
0000
1000
0010
0001
0010
1000
0100
0010
0000
0001
0010
0100
1000
0100
0010
,
0001
0000
0001
0010
0001
0010
0100
1000
0010
0000
0100
0001
0100
0001
0010
0100
,
1000
0000
1000
0100
0010
0001
0100
0010
1000
0100
0000
0010
0001
0000
1000
0100
,
2100
0000
0000
0010
0000
0000
3010
0000
0120
0000
0000
1000
0000
0000
0130
0000
,
2010
0000
0000
0000
0000
0000
0000
0000
3200
0000
0000
0010
0000
0000
0001
0000
,
2300
0000
0000
0100
0000
0000
0100
0000
0000
0000
3200
0000
0000
0000
0320
0000
,
0031
0100
0010
1000
0100
0010
0001
0100
0000
0010
0000
1000
0100
0000
0110
0000
,
0012
0000
0000
0100
0000
0000
1003
0000
2001
0000
0000
0100
0000
0000
3010
0000
,
0210
0020
0000
0330
2020
0000
0000
3030
,
1100
0000
1000
0100
1000
0000
0100
0010
0100
0000
0010
0001
0010
0000
0001
0100
,
0001
0000
0100
0010
0100
0000
2010
0000
0000
0000
0200
0000
0000
0000
0000
3300
,
2200
0000
0000
0000
3300
0000
0000
0000
1000
0000
0000
1000
0100
0000
0000
0000
,
1100
0000
0000
1001
0000
0000
0110
0000
0110
0000
0000
1001
0000
0000
1100
0000
,
0001
0100
0001
0100
0010
1000
0100
1000
0000
0001
0000
0000
1000
0000
0000
0000
,
1001
0000
0000
1010
0000
0000
1010
0000
1001
0000
0000
1100
0000
0000
1001
0000
,
0010
1000
0010
1000
0100
0010
0001
0000
1000
0000
0000
0001
0010
0000
0000
0000
,
0110
0000
0000
0101
0000
0000
1001
0000
1100
0000
0000
1001
0000
0000
0101
0000
,
0220
0000
0330
0000
;
