#TITLE:Dealer;
#SUBTITLE:;
#ARTIST:S3RL;
#TITLETRANSLIT:;
#SUBTITLETRANSLIT:;
#ARTISTTRANSLIT:;
#CREDIT:;
#BANNER:;
#BACKGROUND:;
#LYRICSPATH:;
#CDTITLE:;
#MUSIC:Dealer.ogg;
#OFFSET:0.080;
#SAMPLESTART:37.990;
#SAMPLELENGTH:13.180;
#SELECTABLE:YES;
#BPMS:0.000=178.010;
#STOPS:228.000=0.674
,289.000=0.337
,290.000=0.347
;
#BGCHANGES:;

//---------------dance-single - ----------------
#NOTES:
     dance-single:
     :
     Hard:
     7:
     0.517,0.659,0.272,0.091,0.027: // measure 1
0000
0000
0000
0000
,  // measure 2
0000
0000
0000
0000
,  // measure 3
1001
0000
1000
0000
0100
1000
0100
0000
,  // measure 4
0010
0000
0001
0000
0010
0001
0100
0000
,  // measure 5
0010
0000
1000
0000
0010
1000
0010
0000
,  // measure 6
1000
0000
0010
0100
0010
0100
0010
0000
,  // measure 7
1000
0000
0100
0000
0010
0001
0010
0000
,  // measure 8
0001
0000
0100
0000
1000
0100
0010
0000
,  // measure 9
0010
0000
0010
1000
0100
1000
0001
1000
,  // measure 10
0000
0000
0001
0100
0001
0100
0010
0100
,  // measure 11
0010
0000
1000
0000
0100
1000
0100
0000
,  // measure 12
1000
0000
0001
0000
0010
0001
0010
0000
,  // measure 13
0001
0000
0100
0000
0010
1000
0010
0000
,  // measure 14
1000
0000
0100
0010
0001
0100
1000
0000
,  // measure 15
0100
0000
0010
0000
1000
0100
0010
0000
,  // measure 16
0001
0000
0100
0000
0010
1000
0001
0000
,  // measure 17
1000
0000
0001
0100
0010
0100
0010
1000
,  // measure 18
0000
0001
1000
0001
0000
1000
0001
0100
,  // measure 19
0010
0000
0010
0000
0000
1000
0000
0001
,  // measure 20
0000
1000
0001
0000
0000
0100
0010
0000
,  // measure 21
0010
0000
1000
0000
0000
1000
0000
0001
,  // measure 22
0000
0000
0100
0000
0010
0100
0010
0000
0010
0000
1000
0000
1000
0000
0000
0000
,  // measure 23
0001
0000
1000
0000
0000
0100
0000
1000
,  // measure 24
0000
0001
0100
0000
0000
0010
0100
0000
,  // measure 25
1010
0000
1100
0000
0000
1001
0000
1100
,  // measure 26
0000
0000
0010
0000
1000
0100
0010
0000
0001
0000
0100
0000
0010
0000
0100
0000
,  // measure 27
1001
0000
1100
0000
0000
1001
0000
1010
,  // measure 28
0000
1000
1100
0000
0000
0010
0110
0000
,  // measure 29
0101
0000
1010
0000
0000
1100
0000
1001
,  // measure 30
0000
0000
0001
0000
0010
0100
1000
0000
0010
0000
0100
0000
0010
0000
0000
0000
,  // measure 31
0011
0000
0000
0101
0000
0001
0101
0000
,  // measure 32
0000
1001
0000
1000
1100
0000
1001
0000
,  // measure 33
1000
0010
0100
0001
0100
1000
0100
0000
,  // measure 34
0220
0000
0000
0000
0000
0000
0000
0330
,  // measure 35
0110
0000
0010
0000
1000
0100
1000
0000
,  // measure 36
0001
0000
0010
0000
0001
0100
0001
0000
,  // measure 37
0100
0000
0010
0000
1000
0100
1000
0000
,  // measure 38
0001
0000
1000
0010
0100
0010
0100
0000
,  // measure 39
0010
0000
1000
0000
0100
0010
0001
0000
,  // measure 40
0010
0000
0001
0000
0100
1000
0100
0000
,  // measure 41
0010
0000
0010
1000
0100
1000
0001
1000
,  // measure 42
0001
1000
0001
0000
1000
0000
0001
0000
1000
0000
0000
0000
0000
0000
0000
0000
,  // measure 43
2002
0000
0000
0000
,  // measure 44
0000
0000
0000
0000
,  // measure 45
0000
0000
0000
0000
,  // measure 46
0000
0000
0000
0000
,  // measure 47
0000
0000
0000
0000
,  // measure 48
3003
0000
1000
0000
0100
1000
0200
0000
,  // measure 49
1300
0001
0010
0100
,  // measure 50
1000
0000
0010
0000
0100
0010
2000
0000
,  // measure 51
3100
0010
0001
0100
,  // measure 52
1000
0000
0100
0000
0010
1000
0200
0000
,  // measure 53
0310
0001
0100
1000
,  // measure 54
0100
0000
0010
0000
1000
0100
0020
0000
,  // measure 55
0031
0100
0010
1000
,  // measure 56
0100
0000
0010
0000
0001
0010
0200
0000
,  // measure 57
1300
0010
0001
0010
,  // measure 58
1000
0000
1001
0000
1100
0000
0000
1100
,  // measure 59
0000
0000
1001
0000
1010
0000
1000
0100
,  // measure 60
0000
0010
0001
0000
0010
0000
0000
0100
,  // measure 61
0000
1000
0010
0100
,  // measure 62
0010
1000
0010
0000
1000
0000
0000
0000
0100
0000
0000
0000
0000
0000
0010
0000
,  // measure 63
0000
0000
0001
0000
1000
0000
0010
1000
,  // measure 64
0000
1000
0100
0000
0010
0000
0000
0001
,  // measure 65
0000
0100
1000
0100
,  // measure 66
0100
0010
1000
0000
0100
0000
0000
0011
,  // measure 67
0000
0000
0001
0000
0100
0000
0010
1000
,  // measure 68
0000
1000
0100
0000
1000
0000
0000
0001
,  // measure 69
0000
0100
0010
0010
,  // measure 70
1000
0100
1000
0000
0100
0000
0000
0000
1000
0000
0000
0000
0000
0000
0100
0000
,  // measure 71
0000
0000
0001
0000
0100
0000
0010
0100
,  // measure 72
0000
0010
1000
0000
0010
0000
0000
0001
,  // measure 73
0000
0001
0100
1000
,  // measure 74
0010
0000
0100
0001
0100
0000
0010
0000
,  // measure 75
1000
0000
0100
0010
0001
0000
1000
0000
,  // measure 76
0010
0000
0010
0100
0010
0000
1000
0000
,  // measure 77
0100
1000
0100
1000
0001
0000
0001
0000
,  // measure 78
0100
0000
0010
1000
0010
0000
1000
0000
,  // measure 79
0100
0000
0010
0001
0010
0000
0000
0000
,  // measure 80
0001
1000
0001
1000
0001
1000
0001
1000
,  // measure 81
0001
1000
0001
1000
0002
0000
0003
0000
;

//---------------dance-single - Highflyer----------------
#NOTES:
     dance-single:
     Highflyer:
     Medium:
     4:
     0.345,0.366,0.027,0.054,0.000:
0000
0000
0000
0000
,
0000
0000
0000
0000
,
1000
0010
0010
0100
,
0010
1000
0100
0001
,
0100
1000
0010
0100
,
0001
0010
0100
1000
,
0001
0100
0010
1000
,
0100
0010
0001
0100
,
0000
0001
0100
0010
,
0000
0010
0000
0000
,
1000
0001
0100
0010
,
0010
1000
0100
0010
,
0001
0100
0010
1000
,
0100
0000
0010
0000
0001
0010
0001
0000
,
0100
0010
1000
0100
,
0010
0001
0100
1000
,
0000
1000
0100
0010
,
0000
0010
0000
1000
,
0001
0000
0100
0000
0000
0100
0000
0100
,
0000
0010
0000
1000
,
1000
0000
1000
0000
0000
0001
0000
0100
,
0000
0100
0100
0010
,
0010
0000
1000
0000
0000
1000
0000
1000
,
0000
0001
0100
0000
0000
0100
0010
0000
,
1000
0000
1000
0000
0000
0001
0000
0100
,
0000
0010
1000
0001
,
0001
0000
0100
0000
0000
0010
0000
1000
,
0000
0001
0100
0000
0000
0010
0100
0000
,
1000
0000
0001
0000
0000
0100
0000
0010
,
0000
0010
1000
0100
,
0100
0000
0000
1000
0000
0000
0001
0000
,
0000
0100
0000
0000
0010
0000
1000
0000
,
0001
0100
1000
0100
,
0220
0000
0000
0330
,
0001
1000
0100
0000
,
0100
0000
1000
0000
0001
0100
0001
0000
,
0010
0000
1000
0000
,
0100
0000
0010
0000
0001
0010
0001
0000
,
0100
0000
0010
0000
,
0010
1000
0100
0010
,
0000
0010
1000
0001
,
0000
0001
0100
0010
,
2002
0000
0000
0000
,
0000
0000
0000
0000
,
0000
0000
0000
0000
,
0000
0000
0000
0000
,
0000
0000
0000
0000
,
0000
0000
0000
0000
,
3003
1000
1000
0010
,
0010
0100
0100
0001
,
0001
1000
1000
0100
,
0100
0010
0010
0001
,
0100
0010
0010
1000
,
1000
0100
0010
0001
,
0100
1000
0100
0010
,
1000
0100
1000
0001
,
0100
0010
1000
0001
,
1000
0000
1000
0000
1000
0000
0000
1000
,
0000
0001
0100
0100
,
0000
0000
0100
0000
0010
0000
0000
0010
,
0000
0010
1000
0100
,
0100
0000
1000
0000
0001
0000
0000
0001
,
0000
0001
0100
0010
,
0000
0000
0010
0000
1000
0000
0000
0100
,
0000
1000
0001
0100
,
0100
0000
0010
0000
1000
0000
0000
1000
,
0000
0001
0100
0010
,
0000
0000
0010
0000
1000
0000
0000
0100
,
0000
1000
0001
0001
,
0100
0000
0010
0000
1000
0000
0000
1000
,
0000
0001
0100
0010
,
0000
0010
1000
0100
,
0000
1000
1000
0001
,
0100
0100
0010
0010
,
1000
0100
0010
0001
,
0100
1000
0100
0010
,
1000
0001
0010
0100
,
1000
0001
0100
0010
,
1000
0001
0010
0000
,
1000
0001
1000
0001
,
0100
0010
2002
3003
;

//---------------dance-single - Highflyer----------------
#NOTES:
     dance-single:
     Highflyer:
     Easy:
     3:
     0.278,0.366,0.036,0.027,0.000:
0000
0000
0000
0000
,
0000
0000
0000
0000
,
1000
0001
0001
0100
,
0100
0100
0010
1000
,
0100
0100
1000
0000
,
0001
0000
0100
0000
,
0010
1000
0100
1000
,
0001
0000
0100
0000
,
0010
0000
1000
0000
,
0001
0000
1000
0000
,
0001
0100
0010
0010
,
1000
0100
0010
0001
,
1000
0000
0100
0000
,
0001
1000
0100
0010
,
0010
0000
0001
0000
,
0100
0010
1000
0100
,
0000
1000
0000
0001
,
0000
0100
0000
0100
,
1000
0000
1000
0000
0000
1000
0000
1000
,
0000
0100
0000
1000
,
0000
1000
0000
0100
,
0000
0010
0010
0010
,
1000
0000
1000
0000
,
0001
0001
0000
0100
,
0000
0100
0000
0010
,
1000
1000
0001
0100
,
0010
0000
0010
0000
0000
0000
0000
1000
,
0000
1000
0000
0001
,
0100
0000
0010
0000
0000
1000
0000
1000
,
0000
0001
0100
0010
,
0010
0000
1000
0000
,
0001
0000
0100
0010
,
0010
1000
0100
0001
,
0100
1000
0010
0100
,
0110
0000
0010
0000
,
1000
0000
0001
0000
,
0100
0000
0010
0000
,
1000
0000
0001
0000
,
0100
0000
0010
0000
,
1000
0000
0001
0000
,
0000
1000
1000
1000
,
0000
0001
0001
0001
,
2002
0000
0000
0000
,
0000
0000
0000
0000
,
0000
0000
0000
0000
,
0000
0000
0000
0000
,
0000
0000
0000
0000
,
0000
0000
0000
0000
,
3003
1000
1000
0010
,
0010
0100
0000
0100
,
0000
0010
0010
1000
,
1000
0001
0000
0001
,
0000
0100
0100
0010
,
0010
0000
1000
0000
,
0001
0001
0001
0100
,
0100
0000
0010
0000
,
1000
1000
1000
0001
,
0100
0000
0010
0000
1000
0000
0000
1000
,
0000
0001
0100
0100
,
0000
0000
0010
0000
0010
0000
0000
1000
,
0000
1000
1000
1000
,
0000
0000
0010
0000
0000
0000
0000
0100
,
0000
0010
1000
0000
,
0000
0001
0100
0000
,
0010
0000
1000
0000
,
0100
0000
1000
0000
0001
0000
0000
0001
,
0000
0100
0010
0010
,
0000
0000
1000
0000
1000
0000
0000
1000
,
0000
0010
0010
0100
,
0000
0000
0100
0000
0010
0000
0000
1000
,
0000
0001
0100
0010
,
0000
1000
1000
0000
,
0000
1001
0110
1000
,
1000
1000
0000
0010
,
0100
0010
0000
1000
,
1000
1000
0000
0001
,
0100
0010
0000
0010
,
1000
1000
0100
0010
,
0000
1000
0000
0000
,
0001
1000
1000
0000
,
0001
1000
0002
0003
;
