#TITLE:Daikenkai no Shinkenkai;
#SUBTITLE:;
#ARTIST:CALF;
#TITLETRANSLIT:;
#SUBTITLETRANSLIT:;
#ARTISTTRANSLIT:;
#GENRE:;
#CREDIT:;
#BANNER:Daikenkai No Shinkenkai.png;
#BACKGROUND:;
#LYRICSPATH:;
#CDTITLE:;
#MUSIC:Daikenkai_no_Shinkenkai.ogg;
#OFFSET:-10.542;
#SAMPLESTART:37.990;
#SAMPLELENGTH:13.200;
#SELECTABLE:YES;
#BPMS:0.000=142.000,144.000=170.000;
#STOPS:;
#BGCHANGES:;
#KEYSOUNDS:;

//---------------dance-single - ----------------
#NOTES:
     dance-single:
     :
     Hard:
     9:
     0.572,0.543,0.091,0.033,0.223,471.000,11.000,4.000,0.000,0.000,0.000,0.572,0.543,0.091,0.033,0.223,471.000,11.000,4.000,0.000,0.000,0.000:
0000
0000
0000
0000
,
0000
0000
0000
0000
,
0000
0000
0000
0000
,
0000
0000
0000
0000
,
1000
0100
0001
0010
0100
1000
1010
0000
,
1000
0000
0100
0000
0001
0000
0010
0100
1000
0000
0010
0000
0110
0000
0000
0000
,
1000
0000
0010
0000
1000
0000
0001
1000
0010
0000
0100
0000
0010
0000
0100
0000
,
1000
0100
0010
0100
0110
0000
0000
0000
,
1000
0000
0001
0000
1000
0000
0100
1000
0001
0000
1000
0000
0010
0000
0000
0000
,
0010
0000
0100
0000
0001
0000
0100
1000
0100
0000
0010
0000
1000
0000
0000
0000
,
0010
0000
1000
0000
0100
0000
0010
0001
1000
0000
0001
0000
1000
0000
0010
0000
,
0100
1000
0100
0010
0110
0000
0000
0000
,
1000
0000
0010
0000
1000
0000
0010
0000
0100
0000
0001
0000
0100
0000
0010
1000
,
0010
0000
1000
0000
0100
0000
0010
0000
0001
0000
0000
0000
0001
0100
0001
0000
,
0100
0000
0010
0000
1000
0000
0100
0000
0010
0000
0000
0000
0001
0100
1000
0000
,
0100
0010
1000
0100
0010
0000
0011
0000
,
0001
0000
0100
0000
0010
0100
0000
0010
0100
0000
0000
0000
0010
1000
0100
0000
,
1000
0000
0100
0000
0010
0000
0001
0000
0010
0000
0001
0100
0010
0000
0000
0000
,
0010
1000
0100
0010
0001
0100
1000
0000
,
0010
1000
0000
0010
0000
1000
0100
1000
0001
0000
0000
0000
0000
0000
0000
0000
,
0001
0000
0100
0000
0010
0000
0100
0000
1000
0000
0100
0000
0010
0000
1000
0010
,
1000
0000
0100
0000
0010
0000
0001
0100
0001
0100
0010
0000
1000
0000
0010
0000
,
1000
0100
0010
0001
0101
0001
1000
1000
,
0010
1000
0100
0010
0001
1000
1010
0000
,
0001
0000
0100
0000
0010
1000
0000
1000
0100
0000
0000
0000
0010
0001
0100
0000
,
0010
0000
0100
0000
0010
1000
0000
1000
0100
0000
0000
0000
0010
0001
0100
0000
,
0010
0000
0100
0000
0010
1000
0000
0010
1000
0000
0000
0000
0100
1000
0001
1000
,
0010
0100
0010
0100
0001
1000
0010
1000
0001
0000
0000
0000
0000
0000
0000
0000
,
0001
0000
1000
0001
0000
0100
0000
0010
1000
0000
0100
0010
0000
0001
0000
0100
,
0010
1000
0000
0100
0000
0010
0001
0001
,
1000
0000
0010
0000
0100
0000
0010
0001
,
0000
0010
0000
1000
0000
0100
0010
0001
,
0100
0000
0010
0000
1000
0000
0100
1000
,
0000
0010
0000
0100
0000
0001
0010
0100
,
1000
0001
1000
0010
0100
0001
0010
0200
,
2000
0000
0000
0000
0000
0000
0000
3300
,
1000
0010
1000
0100
0010
0100
0010
0000
,
0001
0000
0100
0000
0010
0000
1000
0100
0010
0000
0001
0000
0100
0000
0000
0000
,
0010
1000
0010
1000
0010
0100
0010
0100
,
0001
0010
0100
1000
0001
0000
0000
0000
,
0001
0100
0010
0100
0010
1000
0100
0000
,
0100
0000
0010
0000
0001
0000
0010
0001
0100
0000
0010
0000
0100
0000
0000
0000
,
0010
1000
0010
1000
0001
0100
1000
0100
,
0010
1000
0010
1000
0001
0000
0000
0000
,
0001
0000
0100
0000
0010
0000
0100
0010
1000
0000
0100
0000
0010
0000
0000
0000
,
0001
0000
0100
0000
1000
0000
0100
0010
1000
0000
0100
0000
0010
0000
0000
0000
,
0001
0100
0010
1000
0100
0010
0011
0000
,
0001
0100
0010
0100
1010
0000
0000
0000
,
0010
0000
1000
0000
0100
0000
0010
0001
0100
0000
0010
0000
0100
0000
0000
0000
,
1010
0000
0010
0000
0100
0000
0001
0010
0100
0000
1000
0000
0001
0000
0000
0000
,
0001
0000
0100
0000
0010
0000
1000
0000
0010
0000
1000
0000
0001
0000
0100
0010
,
0100
0000
0010
1000
0000
0100
0010
0001
0010
0000
0001
0000
1000
0000
0000
0000
,
0100
0000
1000
0000
0100
0000
1000
0001
0100
0000
0010
0000
1000
0000
0000
0000
,
0010
0000
1000
0000
0010
0000
0010
1000
0100
0000
0010
0000
0001
0000
0000
0000
,
1000
0001
1000
0000
0010
0000
0100
0000
0010
0000
0100
0000
0001
0000
0000
0000
,
0001
0010
0100
1000
0001
0000
0000
0000
,
0001
0100
0010
0100
0010
1000
0100
0000
,
0001
1000
0001
0000
0001
0000
0100
0000
0001
0000
0100
0000
0010
0000
0000
0000
,
0010
1000
0010
1000
0001
0100
0010
1000
,
0010
1000
0001
0100
0010
0100
0001
0000
,
0001
0010
0100
1000
0001
0100
1000
0100
,
0010
1000
0001
0001
0010
0100
1000
0000
,
1000
0100
1000
0001
0100
0010
1000
0010
,
1000
0000
0001
0000
0100
0010
1000
0000
0001
0000
0001
0000
1000
0000
0000
0000
,
0001
0010
0100
1000
0100
1000
0001
0100
,
0010
0100
0010
1000
0001
0010
0100
1000
,
2001
0000
0000
0100
0000
0001
0000
0100
,
0000
0010
0000
0010
0000
0100
0100
0100
,
0200
0000
0000
0000
,
0000
0000
0000
3300
0000
0000
0000
0000
;

//---------------dance-single - ----------------
#NOTES:
     dance-single:
     :
     Medium:
     6:
     0.369,0.372,0.107,0.041,0.000,295.000,13.000,5.000,0.000,0.000,0.000,0.369,0.372,0.107,0.041,0.000,295.000,13.000,5.000,0.000,0.000,0.000:
0000
0000
0000
0000
,
0000
0000
0000
0000
,
0000
0000
0000
0000
,
0000
0000
0000
0000
,
1000
0000
0010
0000
0100
0010
0100
0000
,
0010
0000
1000
0000
0100
1000
0100
0000
,
1000
0001
0100
0010
,
1000
0010
1000
0000
0100
0000
0000
0000
,
1000
0000
0001
0000
0100
0001
0100
0000
,
0010
0000
1000
0000
0100
1000
0100
0000
,
1000
0001
0100
0010
,
1000
0100
1000
0000
0001
0000
0000
0000
,
0100
0000
0010
0000
1000
0100
1000
0000
,
0001
0100
0001
0000
1000
0000
0100
0000
,
0010
0001
0010
0000
0001
0000
0100
0000
,
0010
1000
0010
0000
0100
0000
0101
0000
,
0010
0000
1000
0100
1000
0000
0001
0000
,
0100
0000
0010
0000
0010
1000
0100
0000
,
0010
0000
0001
0000
0100
0010
1000
0000
,
0010
1000
0100
0010
0001
0000
0000
0000
,
0001
0100
0010
1000
,
0100
0010
0001
0000
0001
0100
0010
1000
,
0100
0000
0010
0000
0001
0000
0100
0010
,
1000
0000
1000
0010
0100
0000
0101
0000
,
0010
1000
0100
0000
1100
0000
0001
0100
,
0010
0000
0010
0000
1010
0000
0001
0100
,
0010
0000
1000
0000
1100
0000
0001
0100
,
0010
1000
0100
0010
0001
0000
0000
0000
,
1000
0000
0001
0000
1000
0000
0001
1000
,
0000
0001
0000
0100
0000
0010
0100
0000
,
0110
0000
1000
0000
0100
0000
0010
0001
,
0000
0001
0000
0100
0000
0010
1000
0000
,
0110
0000
0010
0000
1000
0000
0100
0010
,
0000
0001
0000
0100
0000
1000
0100
0000
,
0120
0000
0000
0000
,
2000
0000
0000
0000
0000
0000
0000
3000
,
1030
0000
0010
0000
0100
0010
0100
0000
,
0010
0000
1000
0000
0100
1000
0100
0000
,
1000
0001
0100
0010
,
1000
0010
1000
0000
0110
0000
0000
0000
,
0010
0000
1000
0000
0100
1000
0100
0000
,
1000
0000
0001
0000
0100
0001
0100
0000
,
0010
0000
1000
0000
0001
0010
0100
0000
,
1000
0001
1001
0000
,
0010
0000
0100
0000
0001
0010
0001
0000
,
0100
0000
0010
0000
1000
0010
1000
0000
,
0010
0000
0100
0000
0001
0010
0100
0000
,
1000
0001
0101
0000
,
0010
0000
1000
0000
0100
1000
0100
0000
,
1000
0000
0001
0000
0100
0010
0100
0000
,
0010
1000
0100
0010
,
0001
0000
0100
0000
0010
1000
0010
0000
,
0100
0000
0001
0000
0010
0100
1000
0000
,
0001
0000
0100
0000
0010
1000
0010
0000
,
0100
0000
0001
0000
0010
0100
1000
0000
,
0001
0100
0110
0000
,
0010
0000
1000
0000
0100
0010
0001
0000
,
0100
0000
0010
0000
1000
0010
1000
0000
,
0010
0100
0001
0010
,
0100
1000
0001
0100
,
0010
1000
0010
0000
0100
0010
0100
0000
,
0001
1000
0100
1000
,
0001
1000
0001
0000
0100
0010
0100
0000
,
0010
1000
0100
0010
,
0001
0100
0001
0000
1000
0100
1000
0000
,
0010
0100
0001
0010
,
0220
0000
0300
0100
0000
0100
0000
0100
,
0000
0100
0000
0100
0000
0100
0100
0000
,
0200
0000
0000
0000
,
0000
0000
0000
0000
0000
0000
0000
0000
0000
0000
0000
0000
0000
0000
0000
0000
0000
0000
0000
0000
0000
0000
0000
0000
0000
0000
0000
0000
0000
0000
0000
0000
0000
0000
0000
0000
0000
0000
0000
0000
0000
0000
0000
0000
0000
0000
0000
0000
0000
0000
0000
0000
0000
0000
0000
0000
0000
0000
0000
0000
0000
0000
0000
0000
0000
0000
0000
0000
0000
0000
0000
0000
0000
0330
0000
0000
0000
0000
0000
0000
0000
0000
0000
0000
0000
0000
0000
0000
0000
0000
0000
0000
0000
0000
0000
0000
0000
0000
0000
0000
0000
0000
0000
0000
0000
0000
0000
0000
0000
0000
0000
0000
0000
0000
0000
0000
0000
0000
0000
0000
0000
0000
0000
0000
0000
0000
0000
0000
0000
0000
0000
0000
0000
0000
0000
0000
0000
0000
0000
0000
0000
0000
0000
0000
0000
0000
0000
0000
0000
0000
0000
0000
0000
0000
0000
0000
0000
0000
0000
0000
0000
0000
0000
0000
0000
0000
0000
0000
0000
0000
0000
0000
0000
0000
0000
0000
0000
0000
0000
0000
0000
0000
0000
0000
0000
0000
0000
0000
0000
0000
0000
0000
;

//---------------dance-single - ----------------
#NOTES:
     dance-single:
     :
     Easy:
     4:
     0.330,0.315,0.355,0.025,0.000,234.000,43.000,3.000,0.000,0.000,0.000,0.330,0.315,0.355,0.025,0.000,234.000,43.000,3.000,0.000,0.000,0.000:
0000
0000
0000
0000
,
0000
0000
0000
0000
,
0000
0000
0000
0000
,
0000
0000
0000
0000
,
1000
0010
0100
0110
,
0010
1000
0100
1100
,
1000
0001
0100
0010
,
1000
0001
0101
0000
,
1000
0010
0100
0101
,
0010
1000
0100
0110
,
0010
0001
0100
1000
,
0001
0010
1010
0000
,
0010
1000
0100
0011
,
0001
0100
0110
0010
,
1000
0100
1100
0001
,
0100
0020
0130
0101
,
0010
1000
1100
0001
,
0100
0010
1000
1100
,
0001
0100
0010
0110
,
0010
1000
1100
0000
,
1000
0001
0100
0010
,
1000
0100
0010
0001
,
0001
0100
0010
1000
,
0100
0010
0001
0101
,
0010
1000
1100
0001
,
0100
0010
1010
0010
,
0100
0001
0011
0010
,
0100
1000
1001
0000
,
1000
0000
0001
0000
,
0100
0000
0010
0000
,
1000
0000
1000
0000
,
0010
0000
0100
0000
,
0010
0000
1000
0000
,
0100
0000
0010
0000
,
1000
0000
0100
0000
,
0010
0001
0100
0010
,
0110
0010
1000
1100
,
0001
0100
0010
1010
,
0010
0100
0001
0010
,
0100
1000
1100
0000
,
1000
0001
0100
0110
,
0010
1000
0100
0110
,
0010
0001
0100
0010
,
1000
0100
1100
0000
,
1000
0001
0100
0110
,
0010
1000
0100
0110
,
0010
0001
0100
0101
,
0010
1000
0011
0000
,
0001
0100
0010
1010
,
0100
0010
0001
0101
,
0010
1000
0100
0010
,
0001
0100
0010
0110
,
0010
1000
0100
0011
,
0001
0100
0010
1010
,
0010
1000
0001
0101
,
0010
1000
1100
0000
,
1000
0001
0100
0101
,
0010
1000
0100
1100
,
1000
0001
0100
0010
,
0100
0010
1000
1010
,
0010
0100
0001
0010
,
0100
1000
0100
1100
,
1000
0001
0100
0010
,
1000
0001
0010
0110
,
0001
0100
0010
1000
,
0100
0010
0001
0100
,
0120
0000
0000
0100
0000
0100
0000
0100
,
0000
0100
0000
0100
0000
0000
0100
0000
,
0200
0000
0000
0000
,
0000
0000
0000
0000
0000
0000
0000
0000
0000
0000
0000
0000
0000
0000
0000
0000
0000
0000
0000
0000
0000
0000
0000
0000
0000
0000
0000
0000
0000
0000
0000
0000
0000
0000
0000
0000
0000
0000
0000
0000
0000
0000
0000
0000
0000
0000
0000
0000
0000
0000
0000
0000
0000
0000
0000
0000
0000
0000
0000
0000
0000
0000
0000
0000
0000
0000
0000
0000
0000
0000
0000
0000
0000
0000
0330
0000
0000
0000
0000
0000
0000
0000
0000
0000
0000
0000
0000
0000
0000
0000
0000
0000
0000
0000
0000
0000
0000
0000
0000
0000
0000
0000
0000
0000
0000
0000
0000
0000
0000
0000
0000
0000
0000
0000
0000
0000
0000
0000
0000
0000
0000
0000
0000
0000
0000
0000
0000
0000
0000
0000
0000
0000
0000
0000
0000
0000
0000
0000
0000
0000
0000
0000
0000
0000
0000
0000
0000
0000
0000
0000
0000
0000
0000
0000
0000
0000
0000
0000
0000
0000
0000
0000
0000
0000
0000
0000
0000
0000
0000
0000
0000
0000
0000
0000
0000
0000
0000
0000
0000
0000
0000
0000
0000
0000
0000
0000
0000
0000
0000
0000
0000
0000
;
