#TITLE:DADDY DJ;
#SUBTITLE:;
#ARTIST:DR. CALCUTTA;
#TITLETRANSLIT:;
#SUBTITLETRANSLIT:;
#ARTISTTRANSLIT:;
#GENRE:;
#CREDIT:;
#BANNER:DADDY DJ.png;
#BACKGROUND:;
#LYRICSPATH:;
#CDTITLE:;
#MUSIC:SAI 543 - DR.CALCUTTA - DADDY DJ.ogg;
#OFFSET:0.134;
#SAMPLESTART:37.990;
#SAMPLELENGTH:13.200;
#SELECTABLE:YES;
#BPMS:0.000=135.000;
#STOPS:;
#BGCHANGES:;
#KEYSOUNDS:;

//---------------dance-single - ----------------
#NOTES:
     dance-single:
     :
     Hard:
     8:
     0.532,0.563,0.069,0.010,0.248,367.000,7.000,1.000,0.000,0.000,0.000,0.532,0.563,0.069,0.010,0.248,367.000,7.000,1.000,0.000,0.000,0.000:
0000
0000
0000
0000
0000
0000
0100
1000
,
0100
0000
0000
0010
0000
0000
0001
0000
0100
0000
0010
0000
1000
0000
0100
0000
,
0010
0000
0000
0001
0000
0000
0100
0000
0010
0000
1000
0000
0100
0000
0010
0000
,
0001
0000
0000
0010
1000
0010
0001
0100
,
0110
0000
0000
0000
,
1000
0100
1000
0000
0100
0000
0010
0001
0000
0001
0100
0000
0010
0000
1000
0100
,
0000
0010
0001
0000
0100
0000
0010
1000
0000
0010
0001
0000
0010
0000
1000
0100
,
0000
0100
0010
0000
0001
0000
0100
0010
0000
0010
0001
0000
0010
0000
1000
0100
,
0000
1000
0010
0000
1000
0000
0100
0010
0000
0001
0100
0000
0010
0000
1000
0100
,
0000
0001
0100
0000
1000
0000
0010
0100
0000
0010
0100
0000
0010
0000
1000
0100
,
0000
0010
0001
0000
0100
0000
0010
1000
0000
0100
0010
0000
0001
0000
0010
0100
,
0000
1000
0010
0000
0001
0000
0100
0010
0000
1000
0100
0000
0010
0000
0100
1000
,
0000
1000
0010
0000
1000
0000
0100
0010
0000
0001
0100
0000
0010
0000
0100
0010
,
0000
1000
0100
0000
0010
0000
0001
0010
0000
0001
0010
0000
0100
0000
1000
0010
,
0000
0100
0010
0000
1000
0000
0100
0010
0000
0001
0010
0000
0100
0000
1000
0010
,
0000
0100
0010
0000
1000
0000
0100
0010
0000
0001
0100
0000
0010
0000
1000
0100
,
2000
0000
0000
0000
,
3010
1000
0100
0010
0001
0000
0010
1000
,
0010
1000
0010
0000
0001
0000
0100
0000
,
0010
0000
0010
1000
0100
0000
0010
0001
,
0100
1000
0100
0010
,
0000
0010
1000
0010
1000
0000
0100
1000
,
0100
0010
0001
0000
1000
0000
0001
0000
,
0100
0000
0010
1000
0010
0000
0000
0010
,
0100
0010
0100
0000
0001
0000
0001
0000
,
1000
0000
0100
1000
0001
0000
0010
0000
,
0001
0100
0010
0000
0100
0010
0100
0010
,
0010
0000
1000
0000
0010
0000
0100
0010
,
1000
0000
0100
0000
1100
1000
0100
1000
,
0000
0000
0001
0000
0100
0000
0010
1000
,
0010
0000
0100
0000
0000
0100
0001
0100
,
0010
0000
0010
1000
0010
0000
0100
0000
,
0010
0000
0100
0000
0000
0010
1000
0010
,
1000
0000
0010
0000
1000
0001
0100
0001
,
0100
0000
0010
0000
1000
0000
0100
1000
,
0001
0100
0010
1010
,
0101
0000
0010
0000
1000
0100
0010
0001
,
0100
0000
0010
0000
1000
0010
0100
0001
,
0010
0000
0100
0000
1000
0000
0010
1000
,
0010
0100
0001
0010
,
1100
0000
0000
0000
0000
0000
0001
0100
,
0010
0000
0000
1000
0000
0000
0010
0000
0100
0000
0010
0000
0100
0000
0001
0000
,
0010
0000
0000
0100
0000
0000
1000
0000
0001
0000
0100
0000
0010
0000
1000
0000
,
1010
0000
0000
0010
0100
0001
0010
0100
,
1100
0000
0000
0000
0000
0000
1000
0001
,
0100
0000
0000
0100
0000
0000
0010
0000
1000
0000
0010
0000
1000
0000
0100
0000
,
0010
0000
0000
0010
0000
0000
0001
0000
0100
0000
0010
0000
1000
0000
0100
0000
,
1000
0000
0000
0001
0100
0001
0100
0010
,
1000
0000
0000
0001
,
0010
0100
0010
0100
0010
0001
0010
0001
,
0100
0010
0100
0010
0100
0001
0010
0001
,
0010
0100
1000
0100
1000
0001
0100
0001
,
0100
0010
1000
0010
1000
0100
1000
0100
,
0010
0001
0010
0001
0100
0010
0100
0010
,
1000
0010
1000
0010
0100
0010
0100
0010
,
0100
0001
0100
0001
0100
0001
0010
0001
,
0010
0100
1000
0100
1000
0001
1000
0000
;

//---------------dance-single - ----------------
#NOTES:
     dance-single:
     :
     Medium:
     5:
     0.377,0.366,0.258,0.020,0.000,238.000,26.000,2.000,0.000,0.000,0.000,0.377,0.366,0.258,0.020,0.000,238.000,26.000,2.000,0.000,0.000,0.000:
0000
0000
0000
0000
,
0000
0000
0000
0000
,
0000
0000
0000
0000
,
0000
0000
0000
0000
,
0000
0000
0000
0000
,
1000
0000
0010
0000
0100
0010
0100
0000
,
0010
1000
0010
0000
0100
0010
0100
0000
,
0001
0100
0001
0000
0100
0010
0100
0000
,
0010
1000
0010
0000
1000
0100
1000
0000
,
0100
0000
1000
0000
0001
0100
0001
0000
,
1000
0100
1000
0000
0010
1000
0010
0000
,
0010
0000
0100
0000
0001
0100
0001
0000
,
1000
0100
1000
0000
0010
0100
0010
0000
,
0100
0000
0001
0000
1000
0100
1000
0000
,
0001
0100
0001
0000
0010
0001
0010
0000
,
0100
1000
0100
0000
1000
0001
0100
0000
,
0010
0000
1000
0000
0010
0100
0010
0000
,
0010
1000
0100
0010
,
0001
0100
0001
0000
0100
0000
0010
0000
,
1000
0000
0100
0010
0001
0000
0100
0000
,
0010
1000
1010
0101
,
0010
1000
0100
0010
,
0001
0100
0010
0000
1000
0000
0100
0000
,
0010
0000
0001
0100
1000
0000
0100
0000
,
0010
1000
0100
0000
0010
0000
0001
0000
,
0100
0000
0001
1000
0100
0000
1000
0000
,
0001
0010
0011
0100
,
1000
0000
0001
0100
0001
0000
1000
0000
,
1100
1010
0101
0011
,
0100
0000
1000
0010
0100
0000
0010
0000
,
1000
0010
0100
0001
,
0010
0000
0100
1000
0001
0000
0100
0000
,
0010
0000
1000
0000
0010
0000
0100
0010
,
0100
0000
0010
0000
1000
0000
0100
1000
,
0100
1000
0001
0100
,
0101
0110
1010
1100
,
0110
0000
0010
0000
0001
0000
0100
0001
,
0100
0000
0010
0000
1000
0000
0010
1000
,
0010
0100
0010
1000
,
1100
0011
0110
1100
,
0220
0000
0330
0010
,
1100
0000
0100
0010
,
1001
0000
0100
0010
,
1010
0000
0010
0100
,
0101
0000
0001
1000
,
1100
0000
0001
0100
,
0110
0000
0010
1000
,
1100
0000
1000
0001
,
0101
0000
0000
0000
,
1000
0100
1000
0010
,
0100
0001
0010
0100
,
1000
0100
1000
0000
1000
0001
1000
0000
,
1000
0010
1000
0000
0010
0100
0010
0000
,
0100
0001
0100
0000
0100
0001
0010
0000
,
0010
0100
1000
0000
1000
0001
0100
0000
,
0100
0010
1000
0000
1000
0010
0100
0000
,
0010
1000
0100
0011
;

//---------------dance-single - ----------------
#NOTES:
     dance-single:
     :
     Easy:
     3:
     0.227,0.282,0.218,0.169,0.000,121.000,22.000,17.000,0.000,0.000,0.000,0.227,0.282,0.218,0.169,0.000,121.000,22.000,17.000,0.000,0.000,0.000:
0000
0000
0000
0000
,
0000
0000
0000
0000
,
0000
0000
0000
0000
,
0000
0000
0000
0000
,
0000
0000
0000
0000
,
1000
0000
0010
0000
,
0100
0000
0010
0000
,
1000
0000
1000
0000
,
0010
0000
0100
0000
,
1001
0000
0100
0000
,
1001
0000
0010
0000
,
0101
0000
0010
0000
,
1100
0000
0010
0000
,
0110
0000
0010
0000
,
1001
0000
0100
0000
,
0110
0000
1000
0000
,
2002
0000
0000
3003
,
1000
0000
1000
0000
,
0100
0000
0010
0000
,
0010
0000
1000
0000
,
1001
1001
1001
1001
,
0000
1000
1000
0000
,
0100
0010
0000
0000
,
0001
0100
0010
0000
,
0010
0100
0000
0000
,
0010
1000
0100
0000
,
0010
0001
0001
0000
,
0100
0010
1000
0000
,
1001
1001
1001
1001
,
0000
0100
0010
0000
,
1000
0100
0000
0010
,
0001
0100
0100
0000
,
0010
0000
0000
1000
,
0100
0000
0000
0010
,
0001
0000
0000
0100
,
1010
0101
0011
1100
,
1001
0000
0000
0100
,
0010
0000
0000
1000
,
0100
0000
0000
0010
,
0010
1000
0100
1000
,
1001
0000
0000
0010
,
1000
0000
0100
0010
,
0100
0000
0001
1000
,
0100
0000
1000
1000
,
1000
0000
0000
0001
,
0100
0000
0010
1000
,
0100
0000
1000
0001
,
0100
0000
0001
1000
,
0100
0000
0000
0000
,
2000
0000
3200
0000
,
0320
0000
0032
0000
,
0203
0000
0320
0000
,
2030
0000
3200
0000
,
0320
0000
0032
0000
,
0203
0000
0320
0000
,
2030
0000
3200
0000
,
0020
0000
0000
0330
;
