#TITLE:CRUSHCRUSHCRUSH;
#SUBTITLE:;
#ARTIST:PARAMORE;
#TITLETRANSLIT:;
#SUBTITLETRANSLIT:;
#ARTISTTRANSLIT:;
#GENRE:;
#CREDIT:;
#BANNER:BN.JPG;
#BACKGROUND:BG.JPG;
#LYRICSPATH:;
#CDTITLE:Erick-sans serif.png;
#MUSIC:Crushcrushcrush.mp3;
#OFFSET:-5.453;
#SAMPLESTART:43.796;
#SAMPLELENGTH:11.960;
#SELECTABLE:YES;
#BPMS:0.000=137.200,36.000=137.200,50.500=137.100,61.000=136.900,68.000=136.700,73.000=137.000,116.500=137.000,128.000=137.200,176.000=137.000;
#STOPS:73.000=0.880
,122.000=0.440
,122.500=0.440
,123.000=1.320
,125.000=0.440
,125.500=0.440
,126.000=1.320
;
#BGCHANGES:;
#KEYSOUNDS:;

//---------------dance-single - ----------------
#NOTES:
     dance-single:
     :
     Hard:
     7:
     0.402,0.402,0.242,0.112,0.047,285.000,28.000,13.000,0.000,0.000,0.000,0.402,0.402,0.242,0.112,0.047,285.000,28.000,13.000,0.000,0.000,0.000:
0000
0000
0000
0000
0000
1000
0100
0010
,
0001
1000
0100
2000
0000
3200
0000
0320
,
0000
0031
1000
0000
0001
0000
0001
0100
,
0010
0100
0001
1000
0000
0100
0000
1000
,
0000
0001
0000
1000
0000
0001
0100
0000
,
0010
0100
0001
1000
0000
0100
0000
0010
,
0000
0001
0000
1000
0000
0010
1000
0000
,
0001
0100
0010
1000
0000
0001
1000
0001
,
0000
0100
0000
0100
0000
0010
0000
1000
,
0001
0000
1000
0000
0010
0100
0001
1000
,
0000
0000
0001
1000
0010
0000
0100
0001
,
0000
1000
0010
0000
1001
0000
0000
0001
,
0100
0010
0000
1001
0000
0001
1000
0000
,
0001
0000
0100
0000
0010
1000
0001
0010
,
0000
0000
0001
1000
0100
0000
1000
0001
,
0000
0010
0001
0000
1000
0000
0000
1000
,
0100
1000
0000
0001
0000
0000
0000
0000
,
1000
0100
1000
0001
0020
0000
0230
0000
,
2300
3000
1001
0000
,
0000
0011
0000
0000
,
0000
1100
0000
0000
,
0000
1010
0000
0101
,
1100
0000
0001
0000
1000
0000
0010
0000
1000
0000
0000
0001
0000
0000
0010
0000
,
0001
0000
1000
0000
0000
0100
1000
0100
,
1000
0001
0010
0001
0000
1000
0000
0010
,
1000
0000
1001
0000
0000
0001
0100
0010
,
0100
0000
0001
0000
1000
0000
0000
0000
0001
0000
0000
0010
0000
0000
0100
0000
,
1000
0000
1001
0000
0000
1000
0001
1000
,
0010
0100
0001
1000
0000
0001
0000
1000
,
0010
1001
0000
0000
,
1100
0000
0011
0000
0001
1000
0001
1000
,
0100
0010
0001
0010
0100
1000
0001
1000
,
0010
0000
0100
0000
0001
0000
1000
0010
,
0000
0001
0000
0100
0010
0000
1000
0000
,
0001
0000
1000
0000
0100
0000
0010
0000
0000
0000
0010
0000
0000
0000
0000
0001
,
1000
0000
0010
0000
1000
0000
0010
0000
0100
0000
0001
0100
0000
0000
0000
0000
,
0101
1010
1001
1100
,
0000
0001
0000
0100
0010
0000
0100
0001
,
0001
0000
1000
0000
0100
0000
1000
0000
0000
0000
0001
0000
0000
0000
0000
0010
,
0001
0000
1000
0000
0010
0000
0100
0000
0001
0000
0100
0001
0000
0000
0000
0000
,
1001
1100
0011
1001
,
0000
0010
0000
0100
0001
0000
1000
1000
,
0001
0000
0010
0000
0100
0000
1000
0000
0000
0000
0001
0000
0000
0000
0000
1000
,
0001
0000
0100
0000
0010
0000
1000
0000
0001
0000
0010
0001
0000
0000
0000
0000
,
1001
0000
0000
1010
0000
0000
0101
0000
0001
0000
0000
0000
0010
0000
0000
0000
,
0000
0001
1000
0010
0100
0001
0100
0001
,
0000
0001
0000
1000
0100
0000
1100
0000
,
0000
0001
0100
0010
0100
0001
1000
0000
,
0001
0000
0000
0010
0000
0000
0100
0000
1000
0000
0000
0000
1001
0000
0000
0000
,
0000
0010
0100
0001
1000
0001
0010
0100
,
0000
1000
0000
0001
0100
0000
1001
0000
,
0000
0000
0000
0000
0000
0000
0000
0000
0001
0000
0000
1000
0000
0000
2000
0000
,
0000
0000
0000
0000
0000
0000
0001
0002
,
0000
0000
0000
0000
3003
0001
0100
0020
,
0000
0000
1030
0002
0000
0000
1003
0200
,
0000
0000
0000
0000
0000
0300
1000
0000
,
0001
1000
0010
0100
0001
0100
0010
1000
,
0001
0100
1000
0100
0001
0010
1000
0010
,
2002
0000
0000
3003
0000
0000
0000
0000
0000
0000
0000
0000
0000
0000
0000
0000
;

//---------------dance-single - Copied from----------------
#NOTES:
     dance-single:
     Copied from:
     Medium:
     6:
     0.344,0.400,0.121,0.052,0.022,259.000,14.000,6.000,0.000,0.000,0.000,0.344,0.400,0.121,0.052,0.022,259.000,14.000,6.000,0.000,0.000,0.000:
0000
0000
0000
0000
0000
1000
0001
1000
,
0001
0000
0000
0001
0000
1000
0000
0010
,
0000
0100
0001
0000
0000
0000
0000
0000
,
1000
0000
0000
0010
0000
0100
0000
0001
,
0000
1000
0000
0010
0000
0100
0001
0000
,
0001
0000
0000
1000
0000
0010
0000
0100
,
0000
0001
0000
1000
0000
0010
0100
0000
,
0001
0000
0000
1000
0000
0010
0000
0100
,
0000
0001
0000
0110
0000
0100
0000
1000
,
0001
0000
0001
0000
0100
0010
0100
0001
,
0000
0000
0001
0000
1000
0000
0010
0100
,
0000
0001
1000
0000
,
0010
0100
0000
0101
0000
0000
0000
0000
,
0010
0000
1000
0000
0010
0100
0001
1000
,
0000
0000
0001
0010
0100
0000
1000
0100
,
0000
1000
0001
0000
1001
0000
0000
0010
,
0100
0001
0000
1001
0000
0000
0000
0000
,
0010
1000
0001
0000
0001
0000
0001
0000
,
0010
1001
1000
0000
,
0000
0010
0000
0000
,
0000
0100
0000
0000
,
0000
1000
0000
0010
,
0100
0000
0001
0000
1000
0000
0010
0000
1000
0000
0000
0001
0000
0000
0100
0000
,
0010
1001
0000
1000
,
0001
1000
0010
0000
1001
0000
0001
0000
,
0100
0010
1000
0000
0001
0000
1000
0000
,
0010
0000
0100
0000
0001
0000
0000
0000
0001
0000
0000
1000
0000
0000
0010
0000
,
0100
0000
0101
0000
0000
0001
1000
0000
,
0010
0000
1000
0000
0001
0010
0001
0000
,
1000
0010
1000
0000
0001
0000
1000
0000
,
0001
0000
1000
0000
1000
1000
1000
0001
,
0001
0001
0001
0010
0100
1000
1000
1000
,
1000
0000
0010
0000
0100
0000
0001
1000
,
0000
0010
0000
0010
0100
0000
0001
0000
,
0001
1000
0010
0010
0000
0010
0000
0000
,
0001
0000
0100
0000
0010
1000
0001
0000
,
0001
0000
1000
0000
0100
0010
0001
0000
,
1000
0000
0010
0000
0100
0001
0100
0000
,
0010
0000
1000
0000
0001
1000
0001
0000
,
0001
0100
0010
0000
0010
0000
1000
0000
,
0001
1000
0001
0000
0010
0000
1100
0000
,
0001
0000
0001
0100
0010
0000
1000
0000
,
0001
1000
0001
0000
0100
0010
0100
0000
,
0001
1000
0001
0000
1001
0000
0110
0000
,
0001
0000
0000
1000
0000
0000
0010
0000
0100
0000
0000
0000
0001
0000
0000
0000
,
0000
0001
0100
0010
1000
0001
1000
0001
,
0000
0001
0000
0000
0100
0000
0010
0000
,
0000
0001
1000
0010
1000
0001
1000
0000
,
0001
0000
0000
1000
0000
0000
0010
0000
0100
0000
0000
0000
0101
0000
0000
0000
,
0000
0000
0010
0000
1000
0001
1000
0000
,
0010
0000
0100
0000
0001
0100
1000
0000
,
0100
0000
0001
0000
0010
0000
0000
0000
0010
0000
0000
0001
0000
0000
2200
0000
,
0000
0000
0000
0000
0000
0300
0000
0002
,
0000
0000
0000
0000
3003
0001
0100
0020
,
0000
0000
0000
0030
1000
0000
0002
0000
0000
0000
0000
0000
1003
0000
0200
0000
,
0000
0000
0000
0000
0000
0000
0000
0000
0000
0300
0000
0000
0001
0000
0000
0000
,
1000
0010
0100
0001
0100
0001
1000
0010
,
1000
0001
0100
1000
0100
0001
0010
0001
,
0011
0000
0000
0000
;

//---------------dance-single - Copied from Copied f----------------
#NOTES:
     dance-single:
     Copied from Copied f:
     Easy:
     4:
     0.283,0.300,0.276,0.026,0.000,195.000,32.000,3.000,0.000,0.000,0.000,0.283,0.300,0.276,0.026,0.000,195.000,32.000,3.000,0.000,0.000,0.000:
0000
0000
0000
1000
,
1000
0010
0100
0001
,
0001
1000
0010
0100
,
0001
0100
0010
1000
,
0001
1000
0001
1001
,
0010
0100
0001
0010
,
0100
0000
1000
0000
0001
1000
0001
0000
,
0010
0100
0001
1000
,
0010
0100
0001
1000
,
0011
1100
0011
1001
,
0010
0100
0001
1000
,
1001
0110
0001
1000
,
0100
1000
0001
0010
,
1001
0110
1001
0001
,
0100
0010
1000
0001
,
0011
1100
0011
0001
,
1000
0010
0100
0001
,
0001
1000
0001
0000
0001
0000
0001
0000
,
0002
0000
0000
0000
0000
0000
0000
0000
0000
0000
0000
0000
0000
0000
0000
0000
0000
0003
0000
0000
0000
0000
0000
0000
0000
0000
0000
0000
0000
0000
0000
0000
1001
0000
0000
0000
0000
0000
0000
0000
0000
0000
0000
0000
0000
0000
0000
0000
0000
0000
0000
0000
0000
0000
0000
0000
0000
0000
0000
0000
0000
0000
0000
0000
,
0000
0110
0000
0000
,
0000
1100
0000
0000
,
0000
1010
0000
0101
,
0011
0001
1000
0010
,
0100
0001
0000
0001
,
1000
0010
0010
0100
,
0001
1000
0000
0010
,
0100
0001
0001
1000
,
0010
1001
0000
1000
,
0010
0100
0001
1000
,
0010
0100
0001
1000
,
0001
0000
1000
0000
1000
1000
1000
0000
,
0010
0000
0100
0100
0100
0000
1000
0000
,
0010
0100
0001
1000
,
0000
0010
0000
0000
0100
0000
0000
0000
,
0001
1000
0010
0000
,
0110
0000
1001
0000
,
0010
1000
0100
0001
,
0000
1000
0000
0000
0010
0000
0100
0000
,
0001
1000
0010
0100
,
1001
0000
0110
0000
,
1000
0010
0100
0101
,
0000
0010
1000
0001
,
1001
0000
0110
0000
,
1001
0000
0110
0000
,
1000
0010
0100
0001
,
0000
1000
0010
0100
,
0001
0010
0100
1000
,
0000
0001
0010
0100
,
1000
0001
0100
1000
,
0000
1000
0100
0001
,
0010
1000
0010
0001
,
1000
0010
1001
0010
,
2001
0000
0000
0000
0000
0000
0000
3002
,
0000
0000
0000
0000
,
1003
0000
0010
0000
,
0100
0000
0001
0000
,
1000
0010
0100
0001
,
0010
0100
1000
0001
,
1001
0000
0000
0000
;

//---------------dance-single - Copied from Copied f----------------
#NOTES:
     dance-single:
     Copied from Copied f:
     Beginner:
     2:
     0.154,0.200,0.017,0.000,0.000,123.000,2.000,0.000,0.000,0.000,0.000,0.154,0.200,0.017,0.000,0.000,123.000,2.000,0.000,0.000,0.000,0.000:
0000
0000
0000
0000
,
1000
0000
0000
0000
,
0001
0000
0000
0000
,
0010
0010
0010
0000
,
0100
0000
0000
0000
,
1000
0000
0010
0000
,
0100
0000
0001
0001
,
0001
0000
1000
0000
,
0010
0000
0100
0000
,
1000
1000
1000
0000
,
0001
0000
0010
0000
,
0100
0000
1000
0000
,
0010
0010
0010
0000
,
1000
0000
0001
0000
,
0100
0000
0010
0000
,
1000
1000
1000
0000
,
0001
0001
0001
0000
,
0010
0000
0100
0000
,
1001
0000
0000
0000
,
0000
1000
0000
0000
,
0000
0001
0000
0000
,
0000
0010
0000
0100
,
0100
0000
1000
0000
,
0001
0000
0010
0000
,
0100
0000
1000
0000
,
1000
1000
0000
0010
,
0000
0100
0000
0000
,
0001
0001
0000
0010
,
0000
1000
0000
1000
,
0000
0010
0000
0000
,
0001
0001
1000
0000
,
0001
0000
0000
0010
,
0000
1000
0000
0001
,
0001
0000
1000
1000
,
0010
0000
0100
0000
,
1000
1000
1000
0000
,
0001
0000
0010
0000
,
1000
0000
0100
0000
,
0010
0000
0001
0000
,
0100
0100
0100
0000
,
1000
0000
0010
0000
,
0000
0000
0001
0000
,
1000
1000
1000
0000
,
0010
0000
0100
0000
,
1001
0000
0010
0000
,
0000
0001
0001
0001
,
0000
0000
1000
0000
,
0010
0000
0100
0100
,
0100
0000
0001
0000
,
0000
0010
0010
0010
,
0000
1000
1000
0000
,
0001
0000
0100
0100
,
0100
0000
0000
0000
,
0010
0000
0000
0000
,
1000
0000
0001
0000
,
0010
0000
0000
0000
,
1000
1000
1000
1000
,
1000
1000
1000
1000
,
1000
0000
0000
0000
;
