#TITLE:CRANK THAT;
#SUBTITLE:(The Factory Dance Remix);
#ARTIST:MC BOY;
#TITLETRANSLIT:;
#SUBTITLETRANSLIT:;
#ARTISTTRANSLIT:;
#GENRE:;
#CREDIT:;
#BANNER:;
#BACKGROUND:;
#LYRICSPATH:;
#CDTITLE:;
#MUSIC:CRANK THAT (The Factory Dance Remix).ogg;
#OFFSET:-6.440;
#SAMPLESTART:25.310;
#SAMPLELENGTH:11.980;
#SELECTABLE:YES;
#BPMS:0.000=150.090,14.000=151.010,21.000=150.030,172.000=75.005,173.500=150.010;
#STOPS:173.875=2.907
;
#BGCHANGES:;
#KEYSOUNDS:;

//---------------dance-single - Highflyer----------------
#NOTES:
     dance-single:
     Highflyer:
     Hard:
     9:
     0.630,0.606,0.338,0.210,0.244,514.000,45.000,28.000,0.000,0.000,0.000,0.630,0.606,0.338,0.210,0.244,514.000,45.000,28.000,0.000,0.000,0.000:
0000
0000
0000
0000
,
1000
0001
1000
0001
,
1000
0001
1000
0001
,
1000
1000
1000
0000
,
1000
0100
0000
1000
0001
0000
0001
0000
1000
0000
0000
0100
0000
0000
0001
0000
,
0000
0001
0000
0000
0000
0000
0100
0000
0100
0000
1000
0000
0001
0000
0010
0000
,
0100
0010
0000
0100
0010
0000
0001
0000
1000
0000
0000
1000
0000
0000
1000
0000
,
0000
1000
0000
0000
0000
0000
1000
0000
0100
0000
0010
0000
0001
0000
0001
0000
,
1000
0100
0000
0010
0001
0000
0100
0000
0010
0000
0000
0010
0000
0000
1000
0000
,
0000
1000
0000
0000
0000
1000
0001
0000
1000
0000
0100
0000
0010
0000
0001
0000
,
0100
0010
0000
1000
0100
0000
0010
0000
0001
0000
0000
1100
0000
0000
0010
0000
,
0000
0011
0000
0000
0011
0000
0000
0000
1100
0000
0000
0000
0110
0000
0000
0000
,
1000
0100
0010
0001
0100
1000
1100
0000
,
1000
0100
0001
0010
0100
1000
1001
0000
,
1000
0100
0010
0010
0100
1000
0010
0100
,
0010
0000
1000
0100
0000
0100
0010
0000
0011
0000
0001
0000
0010
0000
0100
0000
,
2001
0000
0001
0001
0001
0001
3001
0000
,
1002
0000
1000
1000
1000
1000
1003
0000
,
0210
0000
0010
0010
0010
0010
0310
0000
,
0120
0000
0000
0000
0100
0000
0100
0000
0130
0000
0000
0010
0100
0000
0000
0000
,
1000
0100
0010
0000
0010
0100
1100
0000
,
0010
0100
0001
0100
1000
0100
0101
0000
,
1000
0010
0001
0010
1000
0100
0010
0001
,
0010
0000
0100
1000
0000
0000
0100
0000
0110
0000
0100
0000
1000
0000
0100
0000
,
0010
0000
0001
1000
0001
0001
0001
0000
,
1001
0000
0100
0010
0100
0100
0100
0000
,
1010
0000
0010
1000
0010
0010
0010
0000
,
0101
1010
0101
1010
,
0110
0010
0100
0010
0010
0100
0110
0000
,
1000
0001
0001
1000
0001
1000
1001
0000
,
1000
0000
0100
0010
0000
0000
0001
0000
0001
0000
0000
0000
1100
0000
0000
0000
,
1000
0010
0001
1000
0100
0001
1001
0000
,
2000
3200
0302
0103
1000
0010
0110
0000
,
0010
1000
0100
0010
0002
0023
0032
0003
,
1000
0100
0010
0001
0100
0010
1000
0100
,
0001
0100
1000
0010
0001
0010
1000
0001
,
2002
0000
0000
0000
0000
0000
3003
1000
,
0100
0000
0000
0010
0001
0000
0010
0000
0100
0000
0000
1000
0010
0000
1000
0000
,
0010
1000
0100
0010
0001
0100
0100
0010
,
1000
0000
0000
0100
0010
0000
0001
0000
0100
0000
0000
1000
0100
0000
0001
0000
,
0010
0100
1000
0100
0010
0001
0001
0001
,
0011
0010
0100
1000
0010
0010
0010
0000
,
1000
0100
0010
0000
0011
0000
1000
0000
,
0100
0010
0001
0100
1000
0100
0002
0000
0003
0000
0000
0000
1000
0000
0100
0000
,
0010
0010
0001
0100
1100
0000
1000
0100
,
0010
0010
0001
0010
0110
0000
0001
0100
,
1000
0000
0100
0000
1000
0000
0100
0000
0010
0000
1000
0000
0100
0000
0010
0001
,
0000
1000
1001
0000
0010
1000
0020
0000
,
1030
0100
0001
1000
0010
0001
2000
0000
,
3010
0001
1000
0100
0001
0010
0200
0000
,
0310
0001
0100
1000
0100
0001
0020
0000
,
0130
0000
1000
0000
0020
0000
0000
0230
0310
0000
0000
0000
1000
0000
0010
0000
,
0100
0000
0010
0100
1001
0000
1000
0100
,
0010
0001
0100
1000
0110
0000
1000
0100
,
0010
0000
0001
0000
1000
0000
0010
0000
0100
0000
0001
0000
1000
0000
0100
0001
,
0000
0001
0100
1000
0010
0100
0110
0000
,
1000
0100
1000
0100
1000
0100
0020
0000
,
0031
0010
0001
0010
0001
0100
0020
0000
,
0130
0010
0100
0010
0100
0001
2000
0000
,
3001
0000
1000
0000
0002
0000
0003
2000
3001
0000
0000
0000
0001
1000
0000
1000
,
0001
0000
0010
0000
0100
0000
0000
1001
0000
0000
0010
0000
0000
1001
0000
0000
,
0002
0000
1003
0000
1000
0000
0100
0000
0100
0000
0110
0000
0010
0001
0000
0001
,
0010
0000
0100
0000
1000
0000
0000
0100
0000
0000
0010
0000
0000
0001
0000
0000
,
0021
0000
0031
0000
1000
0000
0100
0000
1100
0000
1100
0000
1000
0010
0000
0010
,
0100
0000
0100
0000
0010
0000
0000
1000
0000
0000
0110
0000
0000
0100
0000
0000
,
0001
0000
1000
0000
0001
0000
0001
0000
0001
0000
1000
0000
0100
0010
0000
0010
,
0100
0000
1000
0000
0100
0000
0000
0100
0000
0000
0100
0000
0000
0100
0000
0000
,
0100
0000
1000
0000
0001
0000
1000
0000
1001
0000
0000
0000
1000
0100
0000
1000
,
0100
0000
0010
0000
0001
0000
0000
1000
0000
0000
0100
0000
0000
0100
0000
0000
,
1000
0000
1000
0000
0100
0000
0010
0000
0001
0000
0001
0000
0001
0010
0000
0100
,
1000
0000
0001
0000
0010
0000
0000
0010
0000
0000
0100
0000
0000
0100
0000
0000
,
1000
0000
0001
0000
1000
0000
0001
0000
0010
0000
0100
0000
0010
0100
0000
0100
,
0010
0000
1000
0000
0010
0000
0000
0100
0000
0000
0010
0000
0000
0001
0000
0000
,
0010
0000
0010
0000
0001
0000
0100
0000
0010
0000
1000
0000
1000
0010
0000
0100
,
0001
0000
0010
0000
0100
0000
0000
1000
0000
0000
0010
0000
0000
0100
0000
0000
,
0001
1000
1000
0001
0001
0001
2002
0000
,
0000
0000
0000
3003
;

//---------------dance-single - Highflyer----------------
#NOTES:
     dance-single:
     Highflyer:
     Medium:
     6:
     0.395,0.374,0.195,0.023,0.000,339.000,26.000,3.000,0.000,0.000,0.000,0.395,0.374,0.195,0.023,0.000,339.000,26.000,3.000,0.000,0.000,0.000:
0000
0000
0000
0000
,
0000
0000
1000
0001
,
1000
0001
1000
0001
,
1000
1000
1000
0000
,
1000
0001
1000
0001
,
1000
0010
1000
0001
,
1000
0100
0010
0001
,
1000
0000
0100
0000
1000
0100
1000
0000
,
0001
0010
0100
1000
,
0010
0000
0100
0000
0001
0100
0001
0000
,
1000
0100
0010
0001
,
1000
0000
0010
0000
0100
0010
0100
0000
,
0001
1000
0100
1100
,
0001
0100
0010
1010
,
0001
1000
0100
0010
,
0001
0010
0001
0000
1001
0000
0100
0000
,
1100
0001
0100
0010
,
1010
0100
0010
0001
,
0101
0010
1000
0100
,
1001
0010
1001
0100
,
0001
1000
0010
0000
0001
0000
1100
0000
,
0001
1000
0100
0000
0001
0000
0011
0000
,
0001
0100
0010
0000
0001
0000
1000
0000
,
0100
0010
0011
0001
,
1010
0000
0001
0000
1000
0000
0100
0010
,
0001
0000
0001
0000
1000
0000
0010
0100
,
0001
0000
1000
0000
0100
0000
0010
0001
,
1000
0010
0100
1001
,
0010
1000
0100
1100
,
0001
0100
0010
1000
,
1000
0001
1100
0001
,
1000
0010
0100
0101
,
0001
0010
0100
1100
,
0001
1000
0010
0100
,
0001
1000
0100
1000
,
0001
0010
0001
0010
0100
1000
0100
1000
,
0001
1000
0001
1000
,
0100
0000
0100
1000
0001
0000
0001
1000
,
0010
0001
0001
0010
,
0001
0000
0100
1000
0001
0000
0010
1000
,
0001
1000
0010
0100
,
0001
0000
0100
0010
1000
0000
0100
0000
,
0001
1000
0001
0001
,
1000
0001
1000
0020
0030
0000
1000
0000
,
0001
0000
1000
0100
1000
0000
0001
0000
,
0010
0000
0100
1000
0001
0000
0100
0000
,
0010
0000
1000
0000
0100
0000
0010
0001
,
0010
1100
0001
0110
,
0001
1000
0100
0000
0001
0000
0010
0000
,
0001
0100
0010
0000
1000
0000
0100
0000
,
0010
0001
0100
0000
0010
0000
1000
0000
,
0001
0100
1000
0000
0100
0000
0001
0000
,
1000
0000
0010
0100
0001
0000
0010
0000
,
0100
0000
1000
0001
0100
0000
0010
0000
,
1000
0000
0100
0010
0001
0000
0100
0000
,
0010
1010
0001
1100
,
0001
0100
0010
0000
1000
0000
1100
0000
,
0001
0010
0100
0000
1100
0000
0001
0000
,
1000
0010
0100
0000
0101
0000
0001
0000
,
1000
0100
0010
0000
0011
0000
0001
0000
,
1000
0100
0100
1000
,
0001
0000
0100
0001
0100
0000
0100
0000
,
0010
0001
1000
0100
,
1000
0000
0010
1000
0010
0000
1000
0000
,
0100
0010
0001
0100
,
1000
0100
0001
0010
,
0001
1000
0100
1000
,
0010
0000
0001
0100
0001
0000
1000
0000
,
0010
1000
0100
0010
,
0001
0000
0010
0001
0010
0000
0100
0000
,
1000
0010
0100
0001
,
1000
0000
0100
1000
0100
0000
1000
0000
,
0010
0100
0001
0010
,
0100
0000
1000
0100
1000
0000
0001
0000
,
0100
0010
1000
0100
,
1000
0000
0100
1000
0100
1000
2200
0000
,
0000
0000
3300
0000
;

//---------------dance-single - Highflyer----------------
#NOTES:
     dance-single:
     Highflyer:
     Easy:
     4:
     0.315,0.316,0.263,0.015,0.000,256.000,35.000,2.000,0.000,0.000,0.000,0.315,0.316,0.263,0.015,0.000,256.000,35.000,2.000,0.000,0.000,0.000:
0000
0000
0000
0000
,
0000
0000
1000
0001
,
1000
0001
1000
0001
,
1000
1000
1000
0000
,
1000
0100
1000
0000
,
0001
0000
1000
0100
,
1000
0010
0100
0000
,
0001
0000
1000
0100
,
0010
0001
0100
0000
,
0010
0000
1000
0100
,
0010
0001
0100
0000
,
0010
0000
1000
0001
,
1000
0100
0010
0011
,
0001
0100
0010
1010
,
0100
1000
0001
0100
,
0010
1000
1001
0100
,
1100
0001
0010
0001
,
0101
0010
1000
0100
,
0110
0001
0100
0010
,
1100
0001
1000
0010
,
0010
1000
0100
0011
,
0001
0100
0010
1001
,
0100
1000
0010
0100
,
0001
0010
0110
0001
,
1010
0001
1000
0100
,
1100
0001
0100
0010
,
0101
0010
1000
0100
,
1001
0010
0100
0001
,
1100
0001
1000
1010
,
0001
1000
0100
0011
,
0001
0100
1010
0001
,
1000
0100
0010
0001
,
0001
0100
0010
1000
,
0100
1000
0001
0100
,
0001
0010
0100
1000
,
0001
0000
1000
0000
0010
1000
0010
1000
,
0100
1000
0001
1000
,
0010
1000
0100
0000
,
0001
1000
0010
1000
,
1001
0000
1001
0000
,
0010
0100
0001
0010
,
0001
1000
0100
1000
,
0001
0000
1000
0000
,
0001
1000
0010
1000
0000
0000
1000
0000
,
0000
0001
0000
0010
,
0000
1000
0000
0100
,
1000
0001
0000
0010
,
0000
0101
0000
1010
,
0100
1000
0001
1001
,
0000
0000
0000
0101
,
0010
1000
0100
1100
,
0000
1001
0000
1010
,
0001
1000
1100
0001
,
0010
0001
0101
0010
,
1000
0100
0010
0001
,
1000
1001
0010
0101
,
0010
1000
0100
1001
,
0010
0100
0001
1100
,
0001
0010
0100
1000
,
0001
1000
1010
0001
,
1000
0100
0000
1000
,
0000
0001
0100
0010
,
1000
0001
0000
0010
,
0000
0100
1000
0001
,
0100
0010
0000
1000
,
0000
0100
0010
0001
,
1000
0010
0000
0100
,
0000
0001
0010
0100
,
0000
1000
0000
0001
,
0000
0010
0100
0001
,
0000
1000
0000
0001
,
0000
0100
0010
1000
,
0000
0100
0000
0010
,
0000
1000
0001
0100
,
0000
0010
0000
1000
,
0001
1000
0100
2002
,
0000
0000
3003
0000
;
