#TITLE:Captain Jack;
#SUBTITLE:-Captain Jack Is In Da House Mix-;
#ARTIST:Captain Jack;
#TITLETRANSLIT:;
#SUBTITLETRANSLIT:;
#ARTISTTRANSLIT:;
#GENRE:;
#CREDIT:;
#BANNER:CAPTAIN JACK (GRANDALE REMIX).png;
#BACKGROUND:;
#LYRICSPATH:;
#CDTITLE:;
#MUSIC:Captain Jack -Captain Jack Is In Da House Mix-.ogg;
#OFFSET:-1.680;
#SAMPLESTART:88.150;
#SAMPLELENGTH:12.000;
#SELECTABLE:YES;
#BPMS:0.000=135.810;
#STOPS:;
#BGCHANGES:;
#KEYSOUNDS:;

//---------------dance-single - ----------------
#NOTES:
     dance-single:
     :
     Hard:
     8:
     0.541,0.475,0.516,0.165,0.161,415.000,69.000,22.000,0.000,0.000,0.000,0.541,0.475,0.516,0.165,0.161,415.000,69.000,22.000,0.000,0.000,0.000:
0000
0000
0000
0000
,
0000
0000
1000
0001
0000
0010
0000
0100
,
0010
0010
0001
1000
0000
0100
0000
0010
,
0010
0001
0100
1000
0000
0100
0000
0001
,
0010
0000
0010
0000
0100
0000
1000
0000
0000
0000
0001
0000
0000
0000
0000
1000
,
0010
0010
0100
0100
0000
0001
0000
1000
,
0010
0100
0100
0001
0000
0100
0000
0010
,
1000
1100
1001
1000
0000
1000
0000
0100
,
1000
0000
0001
0000
0010
0000
0001
0000
0000
0000
1000
0001
1000
0000
1000
0000
,
0001
0001
1000
0100
1000
0100
0000
1000
,
0100
1000
0000
0100
1000
0001
0000
0001
,
1000
0100
1000
0001
1000
0001
0000
0001
,
1000
0001
0000
0010
0001
0010
0000
0001
,
1000
0100
1000
0010
1000
0001
0000
0001
,
1000
0100
0000
0100
0010
0001
0000
0001
,
0100
1000
0100
0001
0010
0100
0000
0001
,
0010
0100
0000
0001
0010
1000
0010
0002
,
2000
0000
0000
0000
,
0000
0000
0000
0000
,
3003
0000
0001
0011
0000
0110
0000
1010
,
0000
0101
0000
0110
0000
1100
0000
0011
,
0000
0110
0000
0101
0000
1100
0000
0110
,
0000
0011
0000
0110
0000
1100
0000
1001
,
0000
0110
0000
0011
0000
1100
0000
0110
,
0000
1010
0000
0101
0000
0011
0000
1100
,
0000
0110
0000
1001
0000
0101
0000
1010
,
0000
1100
0000
1100
0000
0110
0000
0011
,
0000
1000
0001
0011
0000
1100
0000
0110
,
0000
1000
0001
0011
0000
1010
0000
0110
,
0000
1000
0100
0110
0000
0011
0000
1100
,
0000
0000
1000
0000
0010
0000
0110
0000
0000
0000
1001
0000
0000
0000
0010
0100
,
0010
0100
0100
0110
0000
0011
0000
1100
,
0000
1000
0010
0110
0000
0011
0000
1100
,
0000
0010
0100
0110
0000
0011
0000
0110
,
0000
0100
2000
0001
0000
0010
0000
0100
,
0000
0000
0001
0000
3001
0000
0000
0001
0000
0000
1000
0000
0000
0100
0000
0000
,
0010
0000
0001
0000
0010
0000
0000
0100
0000
0000
0010
0000
0000
0100
0000
0000
,
1000
0000
0100
0000
0010
0000
0000
0010
0000
0000
0001
0000
0000
1000
0000
0000
,
0010
0000
0100
0000
0001
0000
0000
0001
0000
0000
0010
0000
0000
0100
0000
0100
,
1000
0000
1000
0000
0100
0000
0000
0010
0000
0000
0001
0000
0000
0100
0000
0000
,
1000
0000
0100
0000
0001
0000
0000
0001
0000
0000
0010
0000
0000
0100
0000
0000
,
1000
0000
1000
0000
0010
0000
0000
0100
0000
0000
0010
0000
0000
0100
0000
0000
,
0010
0000
1000
0000
0001
0000
0000
0010
0000
0000
1000
0000
0000
0010
0000
0010
,
0001
0000
1000
0000
0010
0000
0000
0100
0000
0000
0010
0000
0000
0000
1000
0000
,
0100
0000
0010
0000
0001
0000
0001
0000
0001
0000
1000
0000
0000
0100
0000
0000
,
0010
0000
0001
0000
0010
0000
0000
0100
1000
0000
0000
0000
0001
0000
0000
0000
,
0001
0000
0000
0000
1000
0000
0000
0100
0000
0000
0010
0000
0000
0001
0000
0001
,
1000
0000
1000
0000
1000
0000
0000
0100
0000
0000
0010
0000
0000
0000
0001
0000
,
0010
0000
1000
0000
0010
0000
0001
0000
1000
0000
0100
0000
0000
0010
0000
0000
,
0001
0001
0001
0010
0100
1000
0100
0100
,
0100
0000
0000
0000
1000
0000
0000
1000
0000
0000
0100
0000
0000
0010
0000
0010
,
0001
0001
1001
0000
0110
0000
0010
0100
,
0110
0000
0011
0000
1100
0000
0001
0010
,
0110
0000
0000
0000
1000
0000
0010
0000
0001
0000
0010
1000
0100
0000
0010
0000
,
0011
0000
0000
0000
0001
0000
0100
0000
1000
0000
0100
0001
0010
0000
0100
0000
,
1100
0000
1000
0010
1010
0000
0001
0010
,
0011
0000
1000
0100
1100
0000
0001
0100
,
0101
0000
0000
0000
1000
0000
0100
0010
0100
0000
0010
0000
0001
0000
0100
0000
,
0110
0000
0000
0000
0010
0000
1000
0100
0010
0000
0001
0000
0100
0000
0010
0000
,
1010
2000
3002
2003
,
3000
2000
3002
2003
,
3000
1000
0100
0010
0001
0001
0001
0000
,
0000
0000
0001
0000
0010
0000
0100
0000
1000
0000
1000
0000
1000
0000
0000
1000
,
0001
1000
0200
0000
0320
0000
0032
0000
,
0003
1000
0020
0000
0230
0000
0302
0000
,
0003
0000
1000
0000
0100
0010
0100
0000
0010
0000
0001
0000
0200
0000
0000
0000
,
0300
0010
1000
0100
0001
0100
1000
0000
,
0000
2002
0000
0000
,
3003
0000
0000
0000
1000
0000
1000
0000
0001
0000
0001
0000
0010
0100
0000
0010
,
0100
1000
1000
0001
0001
1000
2000
0000
,
0000
0000
3000
0000
0100
0000
0010
0000
0100
0000
0010
0000
0100
0000
0000
0100
,
0010
0010
0220
0000
0000
0000
0000
0000
,
0330
0000
0000
0000
1000
0000
1000
0000
0001
0000
0001
0000
0100
0010
0000
0100
,
0010
1000
1000
0001
0001
1000
2000
0000
,
0000
0000
3000
1000
1000
1000
0000
0000
;

//---------------dance-single - Copied from----------------
#NOTES:
     dance-single:
     Copied from:
     Medium:
     6:
     0.353,0.307,0.105,0.045,0.000,310.000,14.000,6.000,0.000,0.000,0.000,0.353,0.307,0.105,0.045,0.000,310.000,14.000,6.000,0.000,0.000,0.000:
0000
0000
0000
0000
,
0000
0000
1000
0001
0000
1000
0000
0000
,
0100
1000
0100
1000
0000
0001
0000
1000
,
0000
0001
1000
0100
0000
0100
0000
1000
,
0000
0010
1000
0001
0000
1000
0000
0000
,
0001
0000
1000
0100
0000
1000
0000
0000
,
0001
1000
0100
1000
0000
0010
0000
0000
,
0001
1000
0100
0010
0000
0001
0000
0000
,
0001
0100
0010
1000
0000
0001
0000
0000
,
1001
0100
1000
0001
,
1000
0010
0100
0001
,
1000
0100
1000
0000
0001
0000
1000
0000
,
0010
0100
0001
0010
,
0100
1000
0100
0000
1000
0000
0001
0000
,
0010
0100
1000
0001
,
0100
0010
0100
0000
0001
0000
1000
0000
,
0100
0000
0010
0000
0001
0000
1000
0002
,
2000
0000
0000
0000
,
0000
0000
0000
0000
,
3003
1100
1001
0001
,
1000
0001
0001
0001
,
1000
0100
1000
0001
,
0010
0001
1000
1000
,
0100
1000
0001
1000
,
0010
0100
0001
1000
,
0100
0011
0001
1000
,
0010
1000
0001
1000
,
0001
0000
0001
1000
0100
0000
1000
0000
,
0001
1000
0001
0000
1000
0000
0010
0000
,
0100
0001
0010
0000
0100
0000
1000
0000
,
0010
0100
0001
0000
0010
0000
0100
0000
,
1000
0001
0100
0000
0010
0000
1000
0000
,
0100
0010
0001
0000
1000
0000
0010
0000
,
0100
0001
1000
0000
0010
0000
1000
0000
,
0001
2000
0002
0000
0000
0000
0000
0000
,
3003
1000
0001
1000
,
0010
0010
1000
0100
,
0010
0000
0001
0010
0001
0000
1000
0100
,
1000
0000
0001
1000
0001
0000
1000
0001
,
1000
0010
1000
0100
,
0010
0001
0001
1000
,
0010
0000
0100
0001
0100
0000
0010
1000
,
0010
0000
1000
0100
1000
0000
0001
1000
,
0001
0010
1000
0001
,
1000
1000
1000
0000
0001
0000
1000
0000
,
0010
0010
0010
0000
1000
0000
0001
0000
,
0001
1000
0000
0001
,
0000
1000
0100
1000
,
0001
1000
0001
1000
0001
0000
1000
0000
,
0010
0000
0010
0000
1000
0000
0001
1000
,
0100
1000
0001
0010
,
0001
0000
1001
0000
0110
0000
0001
1000
,
0100
0000
0001
0000
1000
0000
0010
1000
,
0100
0000
0001
0000
1000
0000
0001
0010
,
0100
0000
1000
0000
0001
0000
0100
0010
,
1000
0000
0001
0000
0010
0000
0100
1000
,
0001
0000
1000
0000
0010
0000
0100
0001
,
0010
0000
0100
0000
1000
0000
0001
0100
,
1000
0000
1000
0000
0100
0000
0001
0010
,
0100
1000
0001
1000
,
0000
1000
0001
1000
,
0000
1000
0010
0101
,
0000
0010
1000
1100
,
0000
0010
0001
0101
,
0000
0010
1000
1100
,
0000
0000
1000
0001
1000
0000
1100
0000
,
0000
0000
0001
0010
0001
0000
0011
0000
,
0000
2002
0000
0000
,
0000
3003
1000
0000
0001
0000
0010
0000
,
0100
0000
1000
0000
0001
0000
1000
0001
,
1000
0000
0001
0000
1000
0000
0001
1000
,
0010
1001
0000
0000
,
0000
1000
0001
0001
,
0100
1000
0001
1000
,
0000
0000
0000
1000
1000
1000
0000
0000
;

//---------------dance-single - Copied from Copied f----------------
#NOTES:
     dance-single:
     Copied from Copied f:
     Easy:
     4:
     0.299,0.335,0.322,0.060,0.000,229.000,43.000,8.000,0.000,0.000,0.000,0.299,0.335,0.322,0.060,0.000,229.000,43.000,8.000,0.000,0.000,0.000:
0000
0000
0000
0000
,
0000
1000
0001
1000
,
0100
0000
0100
0000
0000
1000
0000
0000
,
0001
0000
1000
0000
0000
0100
0000
0000
,
1000
0000
0001
0000
0000
0010
0000
0000
,
0000
0000
1000
0000
0000
0100
0000
0000
,
1000
0000
0001
0000
0000
0100
0000
0000
,
0010
0000
1000
0000
0000
0100
0000
0000
,
1000
0000
0001
0000
0000
0100
0000
0000
,
0000
0010
0000
1000
,
0000
0100
0000
1000
,
0000
0001
0000
0100
,
0000
0010
0000
1000
,
0000
0001
1000
0100
,
0000
1000
0001
0100
,
0000
0010
1000
0100
,
0000
0010
0001
2000
,
0002
0000
0000
0000
,
0000
0000
0000
0000
0000
0000
0000
3003
,
0000
1000
0100
1000
,
0001
1000
0010
1000
,
1001
0100
1001
0010
,
1001
0001
0011
1000
,
1100
0001
1010
0001
,
0101
1000
1010
0001
,
0011
0100
1010
0001
,
0101
1000
1100
0001
,
0010
0001
1000
0100
,
1000
1001
0010
1000
,
0001
0101
0010
1000
,
0100
0011
0001
1000
,
0010
0110
1000
0001
,
1000
1100
0001
1000
,
0010
0101
0010
1000
,
0001
2002
0000
0000
,
3003
1000
0100
1000
,
0001
0010
1000
0001
,
1001
0000
0000
0000
,
0000
1000
0000
0000
,
0001
1000
0010
0100
,
0001
0010
0100
1000
,
1001
0010
1000
0001
,
1000
0100
0000
1000
,
0001
1001
0010
1000
,
0100
1000
1001
0000
,
0000
0000
1000
0001
,
0001
1000
0000
0000
,
1000
0100
0001
1000
,
0010
1000
0001
0100
,
0010
0000
0001
0000
1000
0000
0001
1000
,
0001
0000
0000
0000
,
0000
1001
1100
0001
,
1000
1010
1001
0100
,
1000
0101
0011
0100
,
1000
0010
1000
0101
,
0011
0100
1000
0001
,
0101
0010
1000
0100
,
0011
0001
0100
0010
,
1100
0001
0100
0010
,
1001
1000
0001
1000
,
0000
1000
0001
1000
,
0000
0010
0100
0101
,
0000
0010
0100
1100
,
0000
0001
0100
0110
,
0000
1000
0100
1100
,
0000
1000
0001
0101
,
0000
0010
0100
1100
,
0000
2002
0000
0000
,
3003
1000
0001
0001
,
0001
1000
0001
1000
,
0000
0000
0000
0000
,
0000
2002
0000
0000
,
3003
1000
0001
1000
,
1000
1000
0001
1000
,
0000
0000
0000
0001
1000
0001
0000
0000
;

//---------------dance-single - Copied from Copied from Copied f----------------
#NOTES:
     dance-single:
     Copied from Copied from Copied f:
     Beginner:
     2:
     0.161,0.166,0.097,0.030,0.000,134.000,13.000,4.000,0.000,0.000,0.000,0.161,0.166,0.097,0.030,0.000,134.000,13.000,4.000,0.000,0.000,0.000:
0000
0000
0000
0000
,
0000
1000
0000
0000
,
0000
0001
0000
0000
,
0000
0100
0000
0000
,
0000
1000
0000
0000
,
0001
0001
0001
0000
,
1000
1000
1000
0000
,
0100
0100
0100
0000
,
1000
0000
0000
0001
,
0001
0001
0000
0000
,
1000
0000
0000
0000
,
0100
0000
0010
0000
,
1000
0000
0100
0000
,
0001
0000
1000
0000
,
0010
0000
0100
0000
,
0001
0000
1000
0000
,
0001
0000
1000
1000
,
2000
0000
0000
0000
,
0000
0000
0000
0000
,
3000
1000
0000
0100
,
0000
0010
0000
0001
,
0000
0100
0000
0010
,
0000
1000
0000
0100
,
0000
0010
0000
0001
,
0000
0100
0000
0010
,
0000
1000
0000
0100
,
0000
0001
0000
1000
,
0000
1001
0000
0100
,
0000
1001
0000
0010
,
0000
0110
0000
0001
,
0000
1001
0000
0100
,
0000
1001
0000
0100
,
0000
0110
0000
1000
,
0000
0110
0000
0001
,
0000
0110
0000
0000
,
0000
1000
0000
1000
,
0000
0010
0000
0010
,
0000
0100
0000
0100
,
0000
0001
0000
0001
,
0000
0100
0000
0010
,
0000
1000
0000
0100
,
0000
1000
0000
0001
,
0000
0100
0000
0010
,
0000
1000
0000
1000
,
0000
0001
0001
0000
,
0000
0000
1000
0000
,
0001
0000
0000
0000
,
0000
1000
0000
0001
,
0000
1000
0000
0000
,
0000
0100
0000
0010
,
0000
0100
0000
0001
,
0000
1000
0000
0001
,
0000
1000
0000
1000
,
1000
0000
0000
0010
,
0010
0000
0000
0100
,
0100
0000
0000
1000
,
1000
0000
0000
0010
,
0010
0000
0000
0100
,
0100
0000
0000
0001
,
0001
0000
0000
1000
,
0000
0001
0000
1000
,
0000
0100
0000
0010
,
0000
1000
0000
0001
,
0000
0100
0000
0010
,
0000
1000
0000
0001
,
0000
1001
0000
1001
,
0000
0110
0000
0110
,
0000
2000
0000
0000
,
3000
1000
0000
0001
,
0000
1000
0000
0001
,
0000
0000
0000
0000
,
0000
2002
0000
0000
,
3003
1000
0000
0001
,
0000
1000
0000
0001
;
