#TITLE:Boom Boom Pow;
#SUBTITLE:(Insanity Kicker Remix);
#ARTIST:Black Eyed Peas;
#TITLETRANSLIT:;
#SUBTITLETRANSLIT:;
#ARTISTTRANSLIT:;
#GENRE:;
#CREDIT:;
#BANNER:Boom Boom Pow.png;
#BACKGROUND:;
#LYRICSPATH:;
#CDTITLE:;
#MUSIC:Boom Boom Pow (Insanity Kicker Remix).ogg;
#OFFSET:-0.037;
#SAMPLESTART:37.990;
#SAMPLELENGTH:13.200;
#SELECTABLE:YES;
#BPMS:0.000=140.000;
#STOPS:168.000=1.294
;
#BGCHANGES:;
#KEYSOUNDS:;

//---------------dance-single - Highflyer----------------
#NOTES:
     dance-single:
     Highflyer:
     Hard:
     8:
     0.651,0.598,0.539,0.274,0.353,382.000,55.000,28.000,17.000,0.000,0.000,0.651,0.598,0.539,0.274,0.353,382.000,55.000,28.000,17.000,0.000,0.000:
0000
0000
0000
0000
,
0000
0000
0000
0000
,
0000
0000
0000
0000
0000
0000
0000
0000
1001
0000
0000
1001
0000
0000
1100
0000
,
0000
0000
1000
0010
1000
0000
0100
0000
0110
0000
0000
0101
0000
0000
0011
0000
,
0000
0000
1000
0100
1000
0000
0010
0000
0110
0000
0000
1010
0000
0000
1100
0000
,
0000
0000
1000
0010
0100
0000
0010
0000
1010
0000
0000
1100
0000
0000
1001
0000
,
0000
0000
1000
0001
0100
0000
0010
0000
0110
0000
0000
1100
0000
0000
2002
0000
,
0000
0000
0000
3003
0000
0000
0010
0000
0110
0000
0000
1100
0000
0000
2002
0000
,
0000
0000
0000
3003
0000
0000
0010
0000
0011
0000
0000
0110
0000
0000
2200
0000
,
0000
0000
0000
0000
3300
0000
0000
0000
1010
0000
0000
1001
0000
0000
0000
0000
,
1000
0000
0100
0000
0000
0000
0010
0000
0000
0000
0001
0010
0001
0000
1000
0000
,
0010
0000
0200
0000
0000
0000
0310
0000
0000
0000
1000
0100
1000
0000
0100
0000
,
0010
0000
0002
0000
0000
0000
0103
0000
0000
0000
0010
0100
0010
0000
1000
0000
,
0100
0000
0020
0000
0000
0000
0130
0000
0000
0000
1000
0010
0001
0000
0010
0000
,
1000
0200
0000
0301
0000
0000
0110
0000
,
0010
2000
0000
3100
0000
0010
0001
0100
,
0010
0000
0010
2000
0000
0000
3020
0000
0000
0000
0000
0000
2030
0000
0100
0000
,
3100
0000
0000
0100
0010
0000
0110
0000
0010
0000
0001
0000
0100
0000
0010
0000
,
0110
0000
0010
1000
0000
1000
0100
0000
0000
0000
0010
0001
0010
0000
0100
0000
,
1000
0000
0010
1000
0000
1000
0100
0000
0000
0000
0010
0000
0001
0000
0200
0000
,
0020
0000
0300
2000
0030
0000
0002
0000
3000
0000
0000
0000
0003
0000
0001
0000
,
0020
0000
0000
0230
0000
0000
2300
0000
0000
0000
3000
0000
0000
0000
1000
0000
,
0010
0000
0100
0010
0000
0000
0110
0000
0000
0000
0010
0000
1000
0000
0100
0000
,
0020
0200
0030
0301
0000
0001
1000
0010
,
1010
0000
0000
1100
0000
0000
1001
0000
0000
0000
0010
1000
0100
0000
0010
0000
,
0011
0000
0000
0101
0000
0000
0110
0000
0000
0000
0010
0000
1000
0000
0100
0000
,
0110
0000
0000
0110
0000
0000
0110
0000
0000
0000
0010
0000
0001
0000
0100
0000
,
0010
0000
1000
0100
0000
0M00
0020
0000
0030
0000
0001
0000
1000
0000
0010
0000
,
0100
0000
0010
1000
0000
0000
0100
0000
0010
0000
0001
0000
1000
0000
0010
0000
,
0020
0000
0000
0000
0000
0000
2000
0000
0000
3030
0010
0000
1000
0000
0100
0000
,
0010
0001
0010
0011
0000
0001
1000
0010
,
0100
0001
1000
1100
0000
0010
1000
0100
,
0110
0000
0000
0110
0000
0000
0110
0000
0000
0000
0010
0000
0001
0000
0100
0000
,
0110
0000
0000
1010
0000
0000
1100
0000
0000
0000
0001
1000
0001
1000
0001
0000
,
0010
0000
0200
0000
0000
0000
0310
0000
0000
0000
0001
1000
0010
0000
0010
0000
,
1000
0000
0000
0100
0000
0000
0010
0000
0000
0000
0001
0010
0100
0000
1000
0000
,
0010
0000
0000
0100
0000
0000
0001
0000
0000
0000
0001
0010
0100
0000
1000
0000
,
0100
0000
0002
0000
0000
0000
0103
0000
0000
0000
1000
0010
0100
0000
0010
0000
,
0110
0000
0000
0011
0000
0000
0101
0000
0000
0000
MMMM
0000
0000
0000
0010
0000
,
0110
0110
0000
0101
0000
MMMM
0000
0100
,
0110
0000
0000
1010
0000
0000
1100
0000
0000
0000
MMMM
0000
MMMM
0000
0000
0000
,
1001
0000
0000
1000
0001
0000
1001
0000
0001
0000
1000
0000
0100
0010
0100
0010
,
0100
0000
0000
0000
0010
0000
0001
0000
0001
0010
0001
0010
0001
0000
1000
0000
,
1000
0000
0010
0000
0010
0000
0000
0100
0010
0000
0000
0000
1000
0000
0010
0000
,
0100
0000
0010
0000
0000
1000
0010
1000
0010
0000
1000
0000
1000
0000
0001
0010
,
0001
0010
0100
0000
0010
0100
0010
0001
,
0100
0010
0100
0000
0010
0000
1000
0000
0000
1000
0100
1000
0100
0000
0010
0000
,
0001
0000
0100
0000
0010
0000
0000
0100
0010
0000
0000
0000
0010
0000
1000
0000
,
0100
0000
0010
0000
0000
0001
0010
0001
0100
0000
0010
0000
1000
0000
0100
0000
,
0100
0010
0001
0000
1000
1000
0001
0001
,
0010
0000
0010
0000
0100
0000
0100
0000
0000
0010
0001
0010
0001
0000
0010
0000
,
0100
0000
1000
0000
0010
0000
0000
0100
0010
0000
0000
0000
1000
0000
1000
0000
,
0001
0000
0001
0000
0010
0100
0010
0100
0010
0000
0001
0000
0100
0000
0010
1000
,
0100
0001
0100
0000
1000
0010
0100
0100
,
0010
1000
0100
0000
0010
0000
0001
0000
0000
0010
0001
0100
0010
0000
1000
0000
,
0100
0000
0010
0000
0001
0000
0000
0010
0100
0000
0000
0000
1000
0000
1000
0000
,
0010
0000
0010
0000
0000
0100
0010
1000
0100
0000
0010
0000
0001
0000
1000
0000
,
0001
1000
0010
0000
1000
0100
0010
0001
,
0010
0010
0000
0000
0000
0000
0000
0000
;

//---------------dance-single - Highflyer----------------
#NOTES:
     dance-single:
     Highflyer:
     Challenge:
     10:
     0.680,0.656,0.715,0.274,0.534,385.000,73.000,28.000,538.000,0.000,0.000,0.680,0.656,0.715,0.274,0.534,385.000,73.000,28.000,538.000,0.000,0.000:
0M00
0M00
0M00
0M00
0M00
0000
0000
0000
0M00
0000
0000
0000
MMMM
0000
0000
0000
,
MMMM
MMMM
MMMM
MMMM
,
MMMM
0000
0000
0000
MMMM
0000
0000
0000
1MM1
0000
0000
1MM1
0000
0000
11MM
0000
,
MMMM
0000
1000
0010
1000
0000
0100
0000
M11M
0000
0000
M1M1
0000
0000
MM11
0000
,
MMMM
0000
1000
0100
1000
0000
0010
0000
M11M
0000
0000
1M1M
0000
0000
11MM
0000
,
MMMM
0000
1000
0010
0100
0000
0010
0000
1M1M
0000
0000
11MM
0000
0000
1MM1
0000
,
MMMM
0000
1000
0001
0100
0000
0010
0000
M11M
0000
0000
11MM
0000
0000
2M02
00M0
,
0M00
00M0
0M00
30M3
MMMM
0000
0010
0000
M11M
0000
0000
11MM
0000
0000
2M02
0000
,
00M0
0000
0M00
3003
MMMM
0000
0010
0000
MM11
0000
0000
M11M
0000
0000
22M0
0000
,
000M
0000
00M0
0000
330M
MMMM
0000
0000
1M1M
0000
0000
1MM1
0000
0000
MMMM
0000
,
100M
0000
11M0
0000
0000
0000
MM11
0000
0000
0000
0001
0010
0001
0000
1000
0000
,
M11M
0000
0210
00M0
0000
0000
M310
0000
0000
00M0
1000
0100
1100
00MM
0100
0000
,
0011
0000
MM12
0000
0000
0000
M1M3
0000
0000
0000
M11M
0100
0110
0000
1001
0000
,
01M0
0000
0120
0000
M00M
0000
0130
0000
0000
0000
1000
0010
0001
0000
0110
0000
,
11MM
1200
00MM
0301
MMMM
MMMM
0110
MMMM
,
0110
2100
0MMM
3100
MMMM
0010
0001
0110
,
0010
0000
0010
2M0M
0000
0000
3020
0000
M00M
0000
MM0M
0000
2030
0000
0100
0000
,
31MM
0000
0000
M10M
0010
0000
M11M
0000
0010
MM00
0001
0000
0100
M00M
0010
0000
,
M11M
0000
0010
1000
0000
1000
01MM
0000
0000
0000
0010
0001
0010
0000
0100
0000
,
1000
0000
0010
1000
0000
1000
01MM
0000
MMMM
0000
0010
0000
0001
0000
02MM
0000
,
0020
0000
0300
2000
0M3M
0000
00M2
0000
0MM0
0000
0000
0000
3MM3
0000
0001
0000
,
MM2M
0000
0000
M230
0000
00MM
2300
0000
0MMM
0000
3000
0000
MMMM
0000
1000
0000
,
0010
0000
M100
001M
0000
0000
M11M
0000
MMMM
0000
0010
0000
1000
00MM
0100
0000
,
MM2M
0200
003M
1300
MMMM
0001
1M0M
0010
,
1M1M
0000
0000
11MM
0000
0000
1MM1
0000
0000
0000
0010
1000
01MM
0000
0010
MM00
,
0011
0000
M0M0
0101
0000
M00M
0110
0000
MMMM
0000
0M1M
0000
1000
00MM
0100
0000
,
0110
0000
0000
0MM0
M00M
0000
0110
0000
0000
0MM0
M00M
0000
0110
0000
0000
0000
MMMM
0000
0000
0000
0010
0000
0000
0000
MM01
0000
0000
0000
0100
0000
0000
0000
,
0M1M
0000
1000
0100
0000
MM0M
0020
0000
0030
0000
0001
0000
1M00
0000
M01M
0000
,
0100
0000
0000
0000
001M
0000
1000
0000
0000
0000
M000
0000
010M
0000
0000
0000
0010
0000
0000
0000
0001
0000
0000
0000
1000
0000
0000
0000
0010
0000
0000
00M0
,
0000
0020
0000
0000
0000
0000
2000
0000
0000
3030
0010
0000
1000
0000
0100
0000
,
0010
0000
MM01
0000
0010
MM00
0011
0000
MMMM
0000
0001
0000
1MM0
0000
001M
0000
,
0100
M000
0001
0000
1MM0
0000
1100
0000
MMMM
0000
0010
0000
10MM
0000
0100
0000
,
M11M
0000
0000
0MM0
0000
0000
M11M
0000
0000
0MM0
0000
0000
M11M
0000
0000
0000
MMMM
0000
0000
0000
MM10
0000
0000
0000
M0M1
0000
0000
0000
0100
0000
0000
0000
,
M11M
0000
0000
1M1M
0000
0000
11MM
0000
MMMM
0000
00M1
1M00
00M1
1M00
00M1
0000
,
MM10
0000
M20M
0000
00M0
0000
0310
0000
0000
0000
0MM1
1000
0010
0000
0M10
0000
,
10MM
0000
M00M
0100
M00M
0000
M01M
0000
0M00
0000
M001
0010
M100
0000
10MM
0000
,
MM10
0000
M00M
0100
00M0
0000
MM01
0000
00M0
0000
0001
M010
0100
0000
100M
0000
,
01M0
0000
0M02
0000
M000
0000
M103
0000
00M0
0000
1M00
0010
010M
0000
0M10
0000
,
M11M
0000
MM00
0011
MM00
0000
M1M1
0000
0000
0000
MMMM
0000
0110
0000
0010
0000
,
0110
0110
0000
0101
0000
MM1M
1000
0100
,
M11M
0000
0M0M
1010
0000
0000
11MM
0000
0000
0000
MMMM
0000
MMMM
0000
0000
0000
,
1MM1
0000
0000
0000
0000
0000
0000
0000
0000
0000
0000
0000
1000
0000
0000
0000
0MM1
0000
0000
0000
0000
0000
0000
0000
1001
0000
0000
0000
0000
0000
0000
0000
0MM1
0000
0000
0000
0000
0000
0000
0000
1000
0000
0000
0000
0000
0000
0000
0000
010M
M000
000M
M000
001M
M00M
0000
000M
M100
000M
M000
000M
M010
000M
M000
000M
,
M100
0000
MMMM
0000
0010
0000
MMM1
0000
M001
0010
0M01
0010
M001
0000
1MM0
0000
,
10M0
0000
0010
0000
0M1M
0000
M0MM
0100
0010
0000
MMMM
0000
1000
0000
0010
0000
,
M10M
0000
0010
0000
0MMM
1000
0010
1000
0M1M
0000
1MM0
0000
1MMM
0000
0001
0010
,
MM01
001M
01M0
MMMM
0010
M10M
0010
MM01
,
0100
0010
0100
0000
0010
0000
1MM0
0000
0000
1000
0100
10MM
0100
0000
0010
0000
,
MM01
0000
0100
0000
MM10
0000
0000
0100
0010
0000
MMMM
0000
0010
0000
1000
0000
,
0100
0000
0010
0000
MMM0
0001
0010
0001
0100
0000
0010
0000
1MM0
0000
0100
0000
,
0100
MM10
0001
MMMM
1000
1000
M001
0001
,
001M
0000
0010
0000
01M0
0000
0100
0000
0M00
0010
0001
0010
0001
0000
0010
0000
,
01MM
0000
1000
0000
0010
0000
00M0
0100
0010
0000
MMMM
0000
1000
0000
1000
0000
,
M001
0000
0001
0000
001M
0100
0010
0100
0010
0000
MM01
0000
0100
0000
0010
1000
,
0100
0M01
0100
MMMM
1000
0010
0100
0100
,
0010
1000
01MM
0000
0010
0000
MM01
0000
0000
0010
0001
0100
0010
0000
1M0M
0000
,
0100
0000
MM10
0000
0001
0000
0000
0010
M10M
0000
0000
0000
1M0M
0000
1000
0000
,
M010
0000
0010
0000
00M0
0100
0010
1000
0100
0000
0010
0000
00M1
0000
1000
0000
,
0001
1000
0010
MMMM
1000
M100
0M10
00M1
,
0010
0010
MMMM
0000
0000
0000
0000
0000
;

//---------------dance-single - Highflyer----------------
#NOTES:
     dance-single:
     Highflyer:
     Medium:
     6:
     0.419,0.427,0.235,0.039,0.000,271.000,24.000,4.000,14.000,0.000,0.000,0.419,0.427,0.235,0.039,0.000,271.000,24.000,4.000,14.000,0.000,0.000:
0000
0000
0000
0000
,
0000
0000
0000
0000
,
0000
0000
0001
1000
,
0010
0000
0010
1000
0001
0000
0001
0000
,
1000
0000
0010
1000
0100
0000
1000
0000
,
0001
0000
0010
0001
0100
0000
0010
0000
,
1000
0000
0001
1000
0001
0000
0100
0000
,
0010
MMMM
0010
1000
,
0100
MMMM
1001
0110
,
0101
MMMM
0010
M11M
,
0100
1000
0001
0000
1000
0000
0010
0000
,
0100
0010
1000
0100
0000
1000
0001
0000
,
0100
0010
0100
0010
0000
0010
1000
0000
,
0100
1000
0001
0100
0000
0001
0100
0000
,
0010
1000
0100
1000
0000
0001
0100
0000
,
0001
0010
0100
1000
0000
1000
0001
0000
,
0001
0100
0010
1000
0000
0010
0100
0000
,
0010
0000
0010
0000
1000
0000
0100
1000
,
0100
0000
1000
0000
0001
0000
0001
0100
,
0010
1000
0001
0001
,
2000
0000
0000
0000
0002
0000
3000
0003
,
0002
0000
0000
0000
0203
0000
0000
0300
,
0010
1000
1100
0001
,
0100
0010
0000
0100
0000
0010
1000
0000
,
1100
0000
1001
0000
1010
0000
0010
0100
,
0101
1001
1100
0001
,
0100
0010
0110
0010
,
1000
0000
0100
0000
1100
0000
0001
0100
,
0010
0000
1010
0000
0100
0000
1000
0001
,
0100
0000
0110
0000
0010
0000
1000
0100
,
1000
0000
0001
0000
0101
0000
0010
1000
,
0100
0000
1000
0000
1001
0000
0001
0100
,
1000
0000
0100
0000
0010
0000
0010
1000
,
0100
0000
0001
0000
0100
0000
1000
0001
,
0100
0000
1000
0000
0001
0000
0010
1000
,
0100
0001
0100
1000
,
0010
0000
0001
0000
1000
0000
0100
0001
,
1000
0000
0100
0000
0010
0000
0001
0100
,
1000
0100
0010
1000
,
0001
0000
0100
0000
1000
0000
0001
0010
,
1000
0000
0100
0000
0001
0000
1000
0010
,
0001
0100
0010
0100
,
0110
0000
1001
0000
0100
0000
0100
1000
,
0100
0000
1000
0000
0100
0000
1000
0010
,
0100
0010
0000
0010
0100
0000
0010
0000
,
1000
0000
0100
0000
1000
0000
0001
0100
,
0001
0100
0010
0000
0100
0000
0010
1000
,
0010
1000
0010
0000
1000
0000
0100
1000
,
0001
1000
0000
0001
0100
0000
0010
0000
,
1000
0000
0010
0000
0010
0100
0010
0100
,
0001
1000
0001
0000
1000
0000
0100
1000
,
0001
0000
0100
0000
0110
0000
0010
1000
,
0100
1000
0000
0001
0100
0000
0110
0000
,
1010
0000
0010
0000
1000
0001
0100
0010
,
0100
1000
0100
0000
0100
0000
0010
1000
,
0100
0000
1001
0000
0110
0000
0001
0100
,
1000
0000
0010
0000
1000
0000
0100
1000
,
0001
0001
0100
0010
,
1000
0100
0000
0000
0000
0000
0000
0000
;

//---------------dance-single - Highflyer----------------
#NOTES:
     dance-single:
     Highflyer:
     Easy:
     3:
     0.307,0.341,0.412,0.059,0.000,171.000,42.000,6.000,0.000,0.000,0.000,0.307,0.341,0.412,0.059,0.000,171.000,42.000,6.000,0.000,0.000,0.000:
0000
0000
0000
0000
,
0000
0000
0000
0000
,
0000
0000
0001
1000
,
0010
0000
0010
0100
,
0001
0000
0001
1000
,
0100
0000
1000
0010
,
0100
0000
0001
1000
,
0100
0000
1000
0001
,
0100
0000
0001
0010
,
0100
0000
1000
0001
,
0000
1001
0010
0000
,
0010
0100
0101
0000
,
0010
1000
1100
0000
,
0001
0100
1000
0000
,
0010
1000
0100
0000
,
0001
0100
0010
0000
,
0010
1000
0100
0000
,
0001
0100
0010
0000
,
0110
0000
1001
0000
,
0001
1000
1001
0000
,
0200
0000
0320
0000
,
2030
0000
0000
0000
3200
0000
0000
0300
,
0010
0001
0001
0000
,
0100
0010
0110
0000
,
1010
1010
1010
0000
,
0101
0101
0101
0000
,
0110
0110
0110
0000
,
1001
1001
1001
0000
,
0010
1000
1000
0000
,
0020
0000
0230
0000
,
0301
0000
1000
0000
,
0010
0100
0010
0000
,
0001
0001
0001
0000
,
1000
1000
1000
0000
,
0010
0000
0101
0000
,
0010
0000
1100
0000
,
0001
0100
0101
0000
,
1000
0100
1100
0000
,
0010
0100
0110
0000
,
0010
1000
1010
0000
,
0010
1000
0000
1100
0000
0000
0000
0000
,
0001
0100
0010
0100
,
0110
1001
0100
1000
,
0001
0101
0110
0010
,
1000
0000
0001
0100
,
0010
1000
0100
1001
,
0110
1001
0000
0001
,
0100
0110
1010
0100
,
1000
0000
0001
0100
,
0010
1000
0100
1000
,
0001
0101
0110
0010
,
1000
1100
1001
0001
,
0100
0000
0010
1000
,
0001
0100
0010
1000
,
0100
1001
0000
0010
,
0100
0101
1010
0010
,
1000
0000
0001
0100
,
0010
1000
0001
1000
,
0001
0000
0000
0000
;
