#TITLE:Angels In My Head;
#SUBTITLE:;
#ARTIST:Phenex feat. Le Kat;
#TITLETRANSLIT:;
#SUBTITLETRANSLIT:;
#ARTISTTRANSLIT:;
#GENRE:;
#CREDIT:;
#BANNER:Angels In My Head.png;
#BACKGROUND:;
#LYRICSPATH:;
#CDTITLE:;
#MUSIC:Angels In My Head.ogg;
#OFFSET:0.649;
#SAMPLESTART:40.490;
#SAMPLELENGTH:14.980;
#SELECTABLE:YES;
#BPMS:0.000=176.040;
#STOPS:125.500=1.358
,185.750=1.365
,310.000=1.022
;
#BGCHANGES:;
#KEYSOUNDS:;

//---------------dance-single - ----------------
#NOTES:
     dance-single:
     :
     Hard:
     8:
     0.549,0.500,0.107,0.061,0.000,481.000,14.000,8.000,0.000,0.000,0.000,0.549,0.500,0.107,0.061,0.000,481.000,14.000,8.000,0.000,0.000,0.000:
0000
0000
0000
0000
,
0000
0000
0000
0000
,
0000
0000
0000
0000
,
0000
0000
0000
0000
,
0000
0000
0000
0000
,
0000
0000
0000
0000
,
0000
0000
0000
0000
,
0000
0000
0000
0000
,
0000
0000
0000
0000
0010
1000
0100
0010
,
0000
0001
0010
0100
0000
1000
0010
0001
,
0000
0001
0010
1000
0000
0000
1000
0100
,
0000
0010
0001
0100
0000
1000
0100
0001
,
0000
0001
0010
1000
0000
1000
0010
0100
,
0000
0100
0010
0001
0000
0001
1000
0001
,
0000
0010
0100
1000
0000
1000
0010
0100
,
0000
0001
1000
0001
0000
0010
0100
0010
,
0000
1000
0100
0010
0000
0001
0100
1000
,
0000
0001
0010
1000
0000
1000
0010
0001
,
0000
1000
0100
0001
0000
1000
0100
0010
,
0000
0001
0010
0100
0000
1000
0010
0100
,
0000
0100
0010
1000
0000
0010
0100
0001
,
0000
0001
0010
0100
0000
1000
0100
0010
,
0000
0001
0010
0100
0000
1000
0100
1000
,
0000
0010
1000
0001
0000
0001
0010
0100
,
0000
1000
0100
0010
0000
0001
0010
0100
,
0000
1000
0100
0001
0000
0001
0100
1000
,
0000
1000
0010
0100
0000
0100
0010
0001
,
0000
0001
0010
1000
0000
1000
0100
0010
,
0000
0000
0010
0001
0000
1000
0010
0100
,
0000
0010
0100
0010
0000
0010
1000
0010
,
0000
0010
0001
0010
0000
0010
0100
0010
,
0000
1000
0100
1000
1001
0000
1000
0100
,
0000
0010
0100
0000
1000
0010
0000
0001
,
0010
0000
1000
0100
0010
0000
0001
0100
,
0000
1000
0100
0000
0001
0010
0000
1000
,
0010
0000
0001
1000
0001
0000
0100
0010
,
0000
1000
0001
0000
0010
0100
0000
1000
,
0010
0000
0010
0001
1000
0000
0010
0100
,
0000
0001
1000
0000
1000
0001
0000
0010
,
0100
0000
1000
0001
1001
0000
0000
0000
,
0100
1000
0000
1001
0001
1000
0001
0000
,
0010
0100
0000
0110
0010
0100
0010
0000
,
0001
1000
0000
1001
0010
0100
0010
0000
,
1000
0100
0000
1001
1000
0100
0010
0000
,
0001
1000
0001
0000
0010
0100
0010
0000
,
1000
0100
0010
0000
0001
0010
0100
1000
,
0100
0001
0100
1000
0001
0000
0001
1000
,
0000
1000
0100
0000
0010
0001
0000
0001
,
1000
0000
0010
0100
0010
0000
1000
0010
,
0000
0100
0010
0000
1000
0100
0000
0001
,
0100
0000
1000
0010
0100
0000
0010
1000
,
0000
1000
0100
0000
0010
0100
0000
1000
,
0001
0000
1000
0001
0100
0000
0010
1000
,
0000
1000
0100
0000
0010
0001
0000
1000
,
0001
0000
2002
3003
0110
0000
0010
0100
,
0000
0100
0010
0000
0010
1000
0000
1000
,
0100
0000
0010
0001
0100
0000
0010
0100
,
0000
0100
0001
0000
1000
0001
0000
0001
,
1000
0000
1000
0010
0100
0000
0010
1000
,
0000
1000
0010
0000
0010
0100
0000
0100
,
0010
0000
1000
0100
0010
0000
0001
1000
,
0000
0010
0100
0000
0100
0010
0000
1000
,
0100
0000
0220
0330
1001
0000
0100
1000
,
0000
1000
0001
0000
0100
1000
0000
0100
,
0001
0000
0001
0010
1000
0000
1000
0010
,
0000
0001
1000
0000
0010
0100
0000
0010
,
1000
0000
0010
0001
1000
0000
1000
0100
,
0000
0100
0001
0000
0001
0010
0000
0100
,
1000
0000
1000
0010
0100
0000
0010
1000
,
0000
1000
0100
0000
0010
0001
0000
1000
,
0001
0000
2000
0000
3001
0000
0010
0100
,
0000
1000
0010
0000
0010
0100
0000
0100
,
0010
0000
1000
0100
0001
0000
0100
1000
,
0000
0010
1000
0000
1000
0100
0000
0001
,
0100
0000
1000
0010
0100
0000
0010
1000
,
0000
1000
0100
0000
0010
0001
0000
0001
,
0100
0000
0010
1000
0100
0000
1000
0001
,
0000
0001
1000
0000
1001
0000
2001
0000
,
0001
0000
3100
0010
0001
0100
0000
0001
,
1000
0001
0000
0100
0010
0100
0000
0010
,
1000
0100
0000
0010
0001
1000
0000
0010
,
0100
1000
0000
0100
0010
0001
0000
1000
,
0100
0001
0000
1000
0100
0001
0000
0100
,
1000
0010
0000
0010
0100
0010
0000
0010
,
1000
0100
0000
0001
0100
0001
0000
0100
,
1000
0010
0000
0010
0100
0010
0110
0000
,
1000
0000
0100
0000
0010
0001
0100
0000
,
0010
1000
0100
0000
0100
0010
0100
0000
,
0010
0000
0001
0000
0100
0000
0010
1000
,
0001
0000
0010
0100
1000
0000
1000
0100
,
0001
0000
0001
0100
1000
0000
1000
0010
,
0100
0000
0010
1000
0100
0010
0001
1000
,
0001
1000
0010
0100
0001
0000
2002
0000
,
0000
0000
3003
0000
;

//---------------dance-single - Highflyer----------------
#NOTES:
     dance-single:
     Highflyer:
     Challenge:
     10:
     0.699,1.000,0.084,0.015,0.420,627.000,11.000,2.000,59.000,0.000,0.000,0.699,1.000,0.084,0.015,0.420,627.000,11.000,2.000,59.000,0.000,0.000:
0000
0000
0000
0000
,
0000
0000
0000
0000
,
0000
0000
0000
0000
,
0000
0000
0000
0000
,
0000
0000
0000
0000
,
0000
0000
0000
0000
,
0000
0000
0000
0000
,
0000
0000
0000
0000
,
0000
0000
0000
0000
0010
1000
0100
0010
,
00M0
0001
0010
0100
0M00
1000
0010
0001
,
000M
0001
0010
1000
M000
0M00
1000
0100
,
0M00
0010
0001
0100
0M00
1000
0100
0001
,
000M
0001
0010
1000
M000
1000
0010
0100
,
0M00
0100
0010
0001
000M
0001
1000
0001
,
000M
0010
0100
1000
M000
1000
0010
0100
,
0M00
0001
1000
0001
00M0
0010
0100
0010
,
0M00
1000
0100
0010
00M0
0001
0100
1000
,
M000
0001
0010
1000
M000
1000
0010
0001
,
000M
1000
0100
0001
000M
1000
0100
0010
,
00M0
0001
0010
0100
0M00
1000
0010
0100
,
0M00
0100
0010
1000
M000
0010
0100
0001
,
000M
0001
0010
0100
0M00
1000
0100
0010
,
00M0
0001
0010
0100
0M00
1000
0100
1000
,
M000
0010
1000
0001
000M
0001
0010
0100
,
0M00
1000
0100
0010
00M0
0001
0010
0100
,
0M00
1000
0100
0001
000M
0001
0100
1000
,
M000
1000
0010
0100
0M00
0100
0010
0001
,
000M
0001
0010
1000
M000
1000
0100
0010
,
00M0
0M00
0010
0001
000M
1000
0010
0100
,
0M00
0010
0100
0010
00M0
0010
1000
0010
,
00M0
0010
0001
0010
00M0
0010
0100
0010
,
00M0
0000
0000
0000
0000
0000
0000
0000
1000
0000
0000
0000
0000
0000
0000
0000
0100
0000
0000
0000
0000
0000
0000
0000
1000
MMMM
0000
0000
0000
0000
0000
0000
1001
0000
0000
0000
0000
0000
0000
0000
0000
0000
0000
0000
0000
0000
0000
0000
1000
0000
0000
0000
0000
0000
0000
0000
0100
0000
0000
0000
0000
0000
0000
0000
,
0000
0010
0100
0000
1000
0010
0000
0001
,
0010
0000
1000
0100
0010
0000
0001
0100
,
0000
1000
0100
0000
0001
0010
0000
1000
,
0010
0000
0001
1000
0001
0000
0100
0010
,
0000
1000
0001
0000
0010
0100
0000
1000
,
0010
0000
0010
0001
1000
0000
0010
0100
,
0000
0001
1000
0000
1000
0001
0000
0010
,
0100
0000
1000
0001
1001
1000
0001
0000
,
0100
1000
0100
0000
MM00
0000
1001
0000
0001
0000
1000
0000
0001
0000
0000
0000
,
0010
0100
0010
0000
0MM0
0000
0110
0000
0010
0000
0100
0000
0010
0000
0000
0000
,
0001
1000
0001
0000
M00M
0000
1001
0000
0010
0000
0100
0000
0010
0000
0000
0000
,
1000
0100
1000
0000
MM00
0000
1001
0000
1000
0010
0100
0001
0010
0100
1000
0100
,
0010
0100
0010
0100
0010
0001
1000
0010
0100
0001
0100
0010
1000
0100
0010
0001
,
0010
0100
1000
0010
0100
0010
1000
0100
0010
0000
0010
0100
0010
0000
0100
0010
,
0100
0000
1000
0001
1000
0000
0001
1000
1001
0000
0000
0000
1000
0000
0001
0000
,
0000
0100
0010
0000
0010
1000
0000
0100
,
1000
0000
0001
0100
0010
0000
0100
1000
,
0000
1000
0100
0000
0100
0010
0000
0010
,
1000
0000
0100
1000
0001
0000
0001
0100
,
0000
0100
0010
0000
0010
1000
0000
1000
,
0100
0000
0010
0001
0100
0000
0010
1000
,
0000
1000
0100
0000
0010
0001
0000
0001
,
1000
0000
1001
0000
0001
0000
0100
0010
,
0000
0010
1000
0000
1000
0100
0000
0010
,
0001
0000
0001
0100
1000
0000
0001
0010
,
0000
1000
0100
0000
0001
0100
0000
1000
,
0001
0000
0000
0000
0100
0000
0010
0000
0001
0010
0100
1000
0010
0100
0001
0010
,
0001
0100
0001
0010
0100
1000
0010
0100
0010
1000
0100
0010
0001
0100
0010
1000
,
0100
0010
0001
1000
0001
1000
0010
0100
0010
0100
0010
1000
0100
0010
0001
0010
,
0100
1000
0010
0100
0001
0010
0001
0100
0001
0010
0100
1000
0100
0010
0100
1000
,
0100
0000
0010
0000
0001
0000
1000
0000
0001
1000
0001
1000
0001
1000
0001
1000
0002
0000
0000
0000
0000
0000
0000
0000
0103
0000
0000
0000
0010
0000
0000
0000
,
0000
0100
0001
0000
0001
1000
0000
1000
,
0100
0000
0100
1000
0001
0000
0001
0100
,
0000
0100
0010
0000
0010
1000
0000
1000
,
0100
0000
0001
0100
1000
0000
0001
0100
,
0000
0010
0001
0000
0010
1000
0000
0100
,
1000
0000
0100
0010
0001
0000
0001
0100
,
0000
1000
0100
0000
0010
1000
0000
1000
,
0100
0000
1100
0000
0001
0000
0001
0100
,
0000
0100
0010
0000
0010
1000
0000
0100
,
0010
0000
0001
0100
1000
0000
0001
0010
,
0000
1000
0100
0000
0001
0100
0000
1000
,
0001
0000
0000
0000
0001
0000
0100
0000
0010
1000
0100
0010
0001
0100
0010
1000
,
0100
0010
0001
0100
0010
1000
0100
1000
0100
0010
0100
0010
0001
0010
0001
0100
,
0001
0100
0010
0100
0010
1000
0001
1000
0001
1000
0100
0010
0001
1000
0001
1000
,
0010
1000
0100
0010
0001
0010
0100
1000
0010
0000
0000
0000
1001
0000
0000
0000
,
0110
0000
0010
1000
0100
0010
0001
0000
,
0001
0100
0010
0100
1000
0100
0010
0000
,
0010
1000
0100
0010
0001
0100
0010
0000
,
0010
1000
0100
0010
0001
0100
0000
0010
,
0000
0100
0000
0010
0000
1000
0100
0010
,
0001
0100
0010
1000
0001
0010
0001
1000
,
0000
0010
0000
0100
0000
0001
0000
0100
,
0010
0000
1000
0000
0100
0000
0010
0000
0001
0000
1000
0001
1000
0000
0000
0000
,
0001
0000
0001
0000
0100
0010
1000
0000
,
0100
0010
0001
0100
1000
0100
0010
0000
,
0010
0000
1000
0100
0010
0001
0100
0010
,
0100
0000
1000
0000
0100
0000
0010
0000
1000
0000
0010
0000
1000
0100
0010
0100
,
1000
0010
0100
0001
0010
0100
0010
0001
0100
0001
1000
0001
1000
0100
0010
0100
,
0010
0001
0100
0010
1000
0100
0010
0100
0010
0001
0100
0010
1000
0001
1000
0001
,
1000
0100
0010
0001
0010
0100
1000
0010
0100
0001
0100
0010
2000
0000
0000
0000
,
0000
3000
0000
0000
;

//---------------dance-single - ----------------
#NOTES:
     dance-single:
     :
     Medium:
     5:
     0.331,0.322,0.069,0.015,0.000,292.000,9.000,2.000,0.000,0.000,0.000,0.331,0.322,0.069,0.015,0.000,292.000,9.000,2.000,0.000,0.000,0.000:
0000
0000
0000
0000
,
0000
0000
0000
0000
,
0000
0000
0000
0000
,
0000
0000
0000
0000
,
0000
0000
0000
0000
,
0000
0000
0000
0000
,
0000
0000
0000
0000
,
0000
0000
0000
0000
,
0000
0000
0000
0000
0000
0000
1000
0001
,
0000
0000
0100
0010
0000
0000
0100
0010
,
0000
0000
1000
0100
0000
0000
1000
0001
,
0000
0000
0100
0010
0000
0000
0100
0010
,
0000
0000
1000
0100
0000
0000
1000
0001
,
0000
0000
0100
0010
0000
0000
0100
0010
,
0000
0000
1000
0100
0000
0000
1000
0001
,
0000
0000
0100
0010
0000
0000
0100
0010
,
0000
0000
0100
0010
0000
0000
1000
0100
,
0000
0000
1000
0001
0000
0000
0100
0010
,
0000
0000
0100
0010
0000
0000
1000
0100
,
0000
0000
1000
0001
0000
0000
0100
0010
,
0000
0000
0010
0001
0000
0000
1000
0100
,
0000
0000
1000
0001
0000
0000
0100
0010
,
0000
0000
0010
1000
0000
0000
1000
0100
,
0000
0000
0010
0001
0000
0000
0001
0100
,
0000
0000
0100
0010
0000
0000
0010
1000
,
0000
0000
1000
0100
0000
0000
0100
1000
,
0000
0000
1000
0001
0000
0000
0001
0100
,
0000
0000
0100
0010
0000
0000
0010
1000
,
0000
0000
1000
0100
0000
0000
1000
0001
,
0000
0000
0100
0010
0000
0000
0100
0010
,
0000
0000
1000
0100
0000
0000
1000
0001
,
0000
0000
0001
1000
0001
0000
0000
1000
,
0000
0000
0010
0000
0000
0100
0000
0000
,
0001
0000
1000
0000
0100
0000
0000
1000
,
0000
0000
0001
0000
0000
0100
0000
0000
,
0010
0000
1000
0000
0100
0000
0000
0010
,
0000
0000
0001
0000
0000
0100
0000
0000
,
0010
0000
1000
0000
0100
0000
0000
0010
,
0000
0000
0001
0000
0000
0100
0000
0000
,
0010
1000
1001
0000
,
0010
0000
0000
0101
0000
0000
0000
0000
,
0010
0000
0000
1100
0000
0000
0000
0000
,
0001
0000
0000
0101
0000
0000
0000
0000
,
0010
0000
0000
0100
0010
0000
1000
0000
,
0100
0010
0001
0001
,
0100
0000
0010
0000
1000
0000
0001
1000
,
0001
0000
0001
1000
0001
0000
0000
1000
,
0000
0000
0001
0000
0000
0100
0000
0000
,
0010
0000
1000
0000
0100
0000
0000
0010
,
0000
0000
0001
0000
0000
0100
0000
0000
,
0010
0000
1000
0000
0100
0000
0000
0010
,
0000
0000
0001
0000
0000
0100
0000
0000
,
0010
0000
1000
0000
0100
0000
0000
0010
,
0000
0000
0001
0000
0000
0100
0000
0000
,
1000
0000
0110
0000
1000
0000
0000
0100
,
0000
0000
0010
0000
0000
0001
0000
0000
,
0100
0000
0010
0000
1000
0000
0000
0100
,
0000
0000
0010
0000
0000
0001
0000
0000
,
0100
0000
0010
0000
1000
0000
0000
0100
,
0000
0000
0010
0000
0000
0001
0000
0000
,
0100
0000
0010
0000
1000
0000
0000
0100
,
0000
0000
0010
0000
0000
0001
0000
0000
,
0100
0000
0110
0000
0010
0000
0000
1000
,
0000
0000
0100
0000
0000
0010
0000
0000
,
0001
0000
0100
0000
0010
0000
0000
1000
,
0000
0000
0001
0000
0000
0100
0000
0000
,
0010
0000
1000
0000
0100
0000
0000
0010
,
0000
0000
0001
0000
0000
0100
0000
0000
,
0010
0000
1000
0000
0100
0000
0000
0010
,
0000
0000
0001
0000
0000
0100
0000
0000
,
1000
0000
0100
0000
0010
0000
0000
0001
,
0000
0000
0010
0000
0000
1000
0000
0000
,
0100
0000
0010
0000
0001
0000
0000
0100
,
0000
0000
0010
0000
0000
1000
0000
0000
,
0100
0000
0010
0000
0001
0000
0000
0100
,
0000
0000
1000
0000
0000
0100
0000
0000
,
0010
0000
1000
0000
0100
0000
0000
0010
,
0000
0001
0100
0001
,
1000
0100
1000
0001
,
0000
0100
0000
0000
0010
0000
1000
0100
,
0010
0001
0100
0010
,
0000
1000
0000
0001
0000
0100
0000
0010
,
0000
1000
0000
0001
0000
0101
0001
0000
,
1000
0001
1000
0001
,
0000
0100
0000
0010
0000
1000
0001
0000
,
1000
0001
0001
1000
,
0100
1000
0001
0100
,
0000
0010
0000
0000
1000
0000
0100
0000
,
0100
0010
0001
0001
,
0000
0100
0000
0010
0000
1000
0000
0100
,
0000
0010
0000
0001
0000
0101
0001
0000
,
1000
1000
0001
0100
,
0000
0010
0000
1000
0000
0000
2002
0000
,
0000
0000
0000
0000
0000
0000
0000
0000
0000
0000
0000
0000
0000
0000
0000
0000
0000
0000
0000
0000
0000
0000
0000
0000
0000
0000
0000
0000
0000
0000
0000
0000
0000
0000
0000
0000
0000
0000
0000
0000
0000
0000
0000
0000
0000
0000
0000
0000
0000
0000
0000
0000
0000
0000
0000
0000
0000
0000
0000
0000
0000
0000
0000
0000
0000
0000
0000
0000
0000
0000
0000
0000
0000
0000
0000
0000
0000
0000
0000
0000
0000
0000
0000
0000
0000
0000
0000
0000
0000
0000
0000
0000
0000
0000
0000
0000
0000
3003
0000
0000
0000
0000
0000
0000
0000
0000
0000
0000
0000
0000
0000
0000
0000
0000
0000
0000
0000
0000
0000
0000
0000
0000
0000
0000
0000
0000
0000
0000
0000
0000
0000
0000
0000
0000
0000
0000
0000
0000
0000
0000
0000
0000
0000
0000
0000
0000
0000
0000
0000
0000
0000
0000
0000
0000
0000
0000
0000
0000
0000
0000
0000
0000
0000
0000
0000
0000
0000
0000
0000
0000
0000
0000
0000
0000
0000
0000
0000
0000
0000
0000
0000
0000
0000
0000
0000
0000
0000
0000
0000
0000
0000
0000
;

//---------------dance-single - ----------------
#NOTES:
     dance-single:
     :
     Easy:
     1:
     0.099,0.179,0.000,0.130,0.000,74.000,0.000,17.000,0.000,0.000,0.000,0.099,0.179,0.000,0.130,0.000,74.000,0.000,17.000,0.000,0.000,0.000:
0000
0000
0000
0000
,
0000
0000
0000
0000
,
0000
0000
0000
0000
,
0000
0000
0000
0000
,
0000
0000
0000
0000
,
0000
0000
0000
0000
,
0000
0000
0000
0000
,
0000
0000
0000
0000
,
0000
0000
2000
0000
,
0000
0000
3001
0000
,
0000
0000
0002
0000
,
0000
0000
1003
0000
,
0000
0000
0200
0000
,
0000
0000
0310
0000
,
0000
0000
0020
0000
,
0000
0000
0130
0000
,
0000
0000
2000
0000
,
0000
0000
3100
0000
,
0000
0000
0002
0000
,
0000
0000
0013
0000
,
0000
0000
0200
0000
,
0000
0000
0301
0000
,
0000
0000
0020
0000
,
0000
0000
1030
0000
,
0000
0000
2000
0000
,
0000
0000
3010
0000
,
0000
0000
0200
0000
,
0000
0000
0301
0000
,
0000
0000
0020
0000
,
0000
0000
1030
0000
,
0000
0000
0002
0000
,
0000
0003
1000
0000
,
0000
0000
0000
0000
,
0000
0000
0001
0000
,
0000
0000
0000
0000
,
0000
0000
0100
0000
,
0000
0000
0000
0000
,
0000
0000
0010
0000
,
0000
0000
0000
0000
,
0000
0000
0200
0000
,
0300
0000
0002
0000
,
0003
0000
2000
0000
,
3000
0000
0020
0000
,
0030
0000
0100
0000
,
0001
0000
1000
0000
,
0001
0000
0100
0010
,
1000
0001
1000
0000
,
0000
0000
0000
0000
,
0000
0000
0001
0000
,
0000
0000
0000
0000
,
0000
0000
1000
0000
,
0000
0000
0000
0000
,
0000
0000
0100
0000
,
0000
0000
0000
0000
,
0000
0010
0010
0000
,
0000
0000
0000
0000
,
0000
0000
0001
0000
,
0000
0000
0000
0000
,
0000
0000
0100
0000
,
0000
0000
0000
0000
,
0000
0000
1000
0000
,
0000
0000
0000
0000
,
0000
0001
0001
0000
,
0000
0000
0000
0000
,
0000
0000
0100
0000
,
0000
0000
0000
0000
,
0000
0000
0010
0000
,
0000
0000
0000
0000
,
0000
0000
0001
0000
,
0000
0000
0000
0000
,
0000
1000
1000
0000
,
0000
0000
0000
0000
,
0000
0000
0010
0000
,
0000
0000
0000
0000
,
0000
0000
0001
0000
,
0000
0000
0000
0000
,
0000
0000
1000
0000
,
0000
0000
0000
1000
,
0000
0000
0000
1000
,
0000
0000
0000
0001
,
0000
0000
0000
0100
,
0000
0000
0000
0001
,
0000
0000
0000
1000
,
0000
0000
0000
0100
,
0000
0000
0000
0010
,
0000
0000
0000
1000
,
0000
0000
0000
0001
,
0000
0000
0000
0100
,
0000
0000
0000
1000
,
0000
0000
0000
0001
,
0000
0000
0000
1000
,
0000
0000
0000
0010
,
0000
0000
0000
0002
,
0000
0000
0003
0000
;
