#TITLE:5.8.8.;
#SUBTITLE:;
#ARTIST:dj nagureo;
#TITLETRANSLIT:;
#SUBTITLETRANSLIT:;
#ARTISTTRANSLIT:;
#GENRE:;
#CREDIT:;
#BANNER:5.8.8.png;
#BACKGROUND:;
#LYRICSPATH:;
#CDTITLE:;
#MUSIC:5.8.8..ogg;
#OFFSET:1.542;
#SAMPLESTART:40.510;
#SAMPLELENGTH:14.980;
#SELECTABLE:YES;
#BPMS:0.000=95.410,20.000=94.810,26.000=95.110,44.000=94.910,60.000=95.010,77.000=95.000,83.000=94.900,99.000=190.000;
#STOPS:;
#BGCHANGES:;
#KEYSOUNDS:;

//---------------dance-single - ----------------
#NOTES:
     dance-single:
     :
     Hard:
     8:
     0.491,0.528,0.318,0.024,0.159,253.000,26.000,2.000,0.000,0.000,0.000,0.491,0.528,0.318,0.024,0.159,253.000,26.000,2.000,0.000,0.000,0.000:
0000
0000
0000
0000
,
1000
0100
1000
0100
0010
0100
0010
0100
,
0001
0100
0001
0100
1000
0100
1000
0100
,
1000
0001
1000
0001
0100
0010
0100
0010
,
1000
0000
0010
0000
0100
0000
0001
0000
0010
0000
0100
0000
1000
0100
1000
0100
,
1000
0000
0001
0000
0010
0000
0100
0000
1000
0000
0010
0100
0010
0000
1000
0000
,
0100
0010
0100
1000
0001
0001
0001
0001
,
0001
1000
0010
0100
0001
0010
0100
1000
,
0010
0100
0010
1000
0100
0010
0001
1000
,
1001
0000
1000
0001
0010
0000
1001
1000
,
0100
1100
0010
0101
,
1001
1000
0010
1000
0100
1000
0010
1000
,
1100
1000
0001
1000
0010
1000
0001
1000
,
1001
0001
0010
0100
0010
0000
0100
0010
,
0110
0000
0000
0000
1001
0000
0000
1000
,
0110
1010
1100
0011
,
0110
1010
0101
1100
,
1001
0000
1000
0010
1010
0000
1000
0100
,
1100
0000
1000
0001
1001
0000
0010
0100
,
0110
0000
0000
0000
1000
0000
0100
0010
0001
0000
0000
0000
1000
0000
0100
0000
,
0010
0000
1001
0000
0110
0000
0010
0100
,
1000
0000
1000
0100
0000
0100
0001
0000
0010
0100
0000
1000
0001
0000
0001
0010
,
0000
0100
1000
0000
0100
0010
0000
0010
0100
0000
1000
0001
0000
0001
1000
0000
,
1000
0000
1000
0100
0000
1000
0100
0000
1000
0100
0000
1000
0100
0000
1000
0001
,
0000
1000
0001
0000
0100
0001
0000
0100
0001
0000
1000
0100
1000
0001
1000
0001
,
1000
1000
0100
0010
,
0001
1000
0010
0100
,
0001
1000
0010
0100
,
0001
0000
0010
0000
0100
0000
1000
0001
,
1000
0001
1000
0000
0100
0000
0010
0000
,
0001
1000
0010
0100
,
0001
1000
0100
0010
,
0100
0000
1000
0000
0010
0100
0010
0100
,
0010
1000
0100
0001
,
1000
0000
0010
0000
0100
0010
0100
0000
,
0001
1000
0100
0010
,
0001
0000
1000
0100
0010
0001
1000
0000
,
1001
0000
0000
0000
1000
0001
1000
0000
0001
0000
0000
0000
0010
0000
0000
0000
,
0100
1000
0010
0100
,
1000
0100
0010
0100
,
1000
0001
0010
0100
,
2002
3003
0000
0000
0000
0000
0000
0000
;

//---------------dance-single - Copied from----------------
#NOTES:
     dance-single:
     Copied from:
     Medium:
     5:
     0.288,0.302,0.208,0.024,0.000,146.000,17.000,2.000,0.000,0.000,0.000,0.288,0.302,0.208,0.024,0.000,146.000,17.000,2.000,0.000,0.000,0.000:
0000
0000
0000
0000
,
0000
1000
0001
0100
,
0010
0000
1000
0000
0100
1000
0100
1000
,
0100
1000
0001
0100
,
0010
0000
1000
0000
0010
1000
0010
1000
,
0010
1000
0001
0100
,
0010
0000
1000
0000
0001
1000
0001
1000
,
0001
0100
0010
1000
,
0100
1000
0001
0100
,
0101
0000
0010
1000
0100
0000
1000
0000
,
1001
0000
0101
0000
,
0001
1000
1100
0001
,
0101
0010
1010
0001
,
1001
0000
0001
0100
1000
0000
0100
0000
,
0010
0000
1001
0000
,
1100
0001
0100
0010
,
1000
0100
1000
0001
,
0101
0010
1100
0001
,
1001
0010
0101
0000
,
1001
0000
0000
1000
1001
0000
0100
0000
,
0010
1000
0001
1000
,
0001
0000
0100
0000
0010
1000
0100
0000
,
1000
0000
0001
0000
0001
0100
1000
0000
,
0100
0000
0010
0000
0010
1000
0100
0000
,
0001
1000
0001
1000
,
0000
0001
1000
0010
,
0000
0010
0100
0001
,
0000
1000
0001
1000
,
0000
0001
0001
0001
,
0000
1000
0000
0010
,
0000
0010
0100
0010
,
0000
0010
1000
0010
,
0000
0010
0100
0010
,
1000
1001
0000
0010
,
0000
0100
0001
0100
,
0000
0010
0000
1000
,
0000
0100
1000
0100
,
0000
1000
0000
0001
,
0000
0010
0100
0010
,
0000
1000
0000
0001
,
0000
0001
1000
0001
,
2002
3003
0000
0000
0000
0000
0000
0000
;

//---------------dance-single - Copied from Copied f----------------
#NOTES:
     dance-single:
     Copied from Copied f:
     Easy:
     2:
     0.159,0.176,0.086,0.024,0.000,82.000,7.000,2.000,0.000,0.000,0.000,0.159,0.176,0.086,0.024,0.000,82.000,7.000,2.000,0.000,0.000,0.000:
0000
0000
0000
0000
,
0000
1000
0001
0000
,
1000
0010
1000
0000
,
0010
0100
0010
0000
,
0001
1000
0001
0000
,
1001
0000
0010
0000
,
0100
0000
1000
0000
,
0010
0000
0100
0000
,
0001
0000
1000
0000
,
1001
0000
0010
0000
,
0100
0000
0010
0000
,
0010
1000
0000
0001
,
0100
0000
0010
1000
,
0100
0000
0001
0000
,
1001
0000
1001
0000
,
1001
0000
0010
0000
,
0100
0000
1000
0000
,
0001
0000
1000
0000
,
0010
0000
0100
0000
,
1001
0000
0010
0000
,
1000
0000
0001
0000
,
0010
0100
0010
0000
,
1000
0001
1000
0000
,
0001
0100
0001
0000
,
1000
0000
0000
0001
,
0000
1000
0000
0001
,
0000
0100
0000
0100
,
0000
0100
0000
0010
,
0000
1000
0000
1000
,
0000
1000
0000
0000
,
0000
0001
0000
0000
,
0000
0010
0000
0000
,
0000
1000
0000
0000
,
0000
0010
0000
1000
,
0000
0001
0000
0000
,
0000
0001
0000
0100
,
0000
0010
0000
0000
,
0000
1000
0000
0001
,
0000
0100
0000
0000
,
0000
0010
0000
1000
,
0000
0001
0000
1000
,
2002
0000
0000
0000
0000
0000
0000
0000
0000
0000
0000
0000
0000
0000
0000
0000
0000
0000
0000
0000
0000
0000
0000
0000
0000
3003
0000
0000
0000
0000
0000
0000
0000
0000
0000
0000
0000
0000
0000
0000
0000
0000
0000
0000
0000
0000
0000
0000
0000
0000
0000
0000
0000
0000
0000
0000
0000
0000
0000
0000
0000
0000
0000
0000
0000
0000
0000
0000
0000
0000
0000
0000
0000
0000
0000
0000
0000
0000
0000
0000
0000
0000
0000
0000
0000
0000
0000
0000
0000
0000
0000
0000
0000
0000
0000
0000
0000
0000
0000
0000
0000
0000
0000
0000
0000
0000
0000
0000
0000
0000
0000
0000
0000
0000
0000
0000
0000
0000
0000
0000
0000
0000
0000
0000
0000
0000
0000
0000
0000
0000
0000
0000
0000
0000
0000
0000
0000
0000
0000
0000
0000
0000
0000
0000
0000
0000
0000
0000
0000
0000
0000
0000
0000
0000
0000
0000
0000
0000
0000
0000
0000
0000
0000
0000
0000
0000
0000
0000
0000
0000
0000
0000
0000
0000
0000
0000
0000
0000
0000
0000
0000
0000
0000
0000
0000
0000
0000
0000
0000
0000
0000
0000
;

//---------------dance-single - Copied from----------------
#NOTES:
     dance-single:
     Copied from:
     Challenge:
     9:
     0.727,0.754,0.453,0.024,0.410,377.000,37.000,2.000,0.000,0.000,0.000,0.727,0.754,0.453,0.024,0.410,377.000,37.000,2.000,0.000,0.000,0.000:
0000
0000
0000
0000
,
1000
0000
0010
0000
1000
0000
0001
0000
1000
0100
1000
0001
1000
0000
0010
0000
,
0100
0010
0100
0010
1000
0000
0100
0000
1000
0001
0100
0001
0100
0000
0010
0000
,
0010
1000
0100
0010
0001
0000
0001
0000
0001
0100
1000
0100
0010
0000
0010
0000
,
0010
1000
0100
1000
0001
0000
0001
0000
0100
0000
0010
0000
0010
1000
0100
1000
,
0001
0000
0001
0000
0100
0000
0010
0000
0010
1000
0100
1000
0001
0000
0001
0000
,
0010
0001
1000
0010
1000
0000
0010
0000
0101
0000
1010
0000
1001
0000
1100
0000
,
0001
0100
1000
0100
0010
1000
0010
1000
0100
0010
0001
1000
0001
0100
0010
0100
,
0010
1000
0001
0010
0100
1000
0001
0100
0010
0100
1000
0100
0010
1000
0010
1000
,
1001
0010
0100
1000
1010
0010
0110
0010
,
0110
0000
0001
1000
0100
0000
1000
0000
1001
0000
0100
0000
1000
0000
0010
0000
,
1010
0001
1100
0001
0110
0010
1001
0100
,
0101
0010
1010
0100
1001
0001
0110
0010
,
1001
0000
0100
0000
1000
0000
0001
0000
0101
0000
0010
1000
0100
0000
1000
0000
,
1001
0000
0001
0000
0001
0000
0100
0010
1000
0000
0010
0000
1000
0000
0001
1000
,
0010
1000
1010
0100
1001
0001
1010
0010
,
0110
0001
0101
1000
1100
0001
0110
0010
,
1010
0001
1000
0100
1100
0001
0100
0010
,
1010
0001
0100
0010
0101
0001
1000
0100
,
1100
0000
0001
0000
1000
0000
0010
1000
0100
0000
1000
0000
0001
0000
1000
0000
,
1001
0010
1010
0001
0101
0010
1001
0001
,
1000
0000
0010
1000
0000
1000
0001
0000
0001
0100
0000
0010
1000
0000
0100
0001
,
0000
0100
1000
0000
0010
0001
0000
1000
0001
0000
0010
1000
0000
0001
1000
0000
,
0100
0000
0010
0001
0000
1000
0010
0000
0100
1000
0000
0100
0010
0000
1000
0001
,
0000
1000
0001
0000
0010
0100
0000
1000
0001
0000
1000
0000
0001
1000
0001
1000
,
0001
0000
1000
0010
1000
0010
0100
0001
,
0100
0010
1000
0010
1000
0001
1000
0100
,
0010
0001
1000
0010
0100
0001
0100
1000
,
0100
0000
0010
0000
1000
0000
0010
0000
1000
0000
0100
0000
1000
0100
1000
0100
,
1000
0001
1000
0010
0100
0010
0100
0001
,
1000
0100
0010
0001
1000
0001
0100
1000
,
0100
0010
1000
0010
1000
0001
0010
0001
,
1000
0000
0100
0000
1000
0000
0001
0000
0100
0000
0001
0000
0100
0001
0100
0001
,
0100
0010
0100
0010
1000
0100
1000
0001
,
1000
0001
1000
0010
0100
0010
0100
1000
,
0100
0010
1000
0010
1000
0100
0010
0001
,
1000
0000
0010
0000
0100
0001
0100
0001
0100
0000
0010
0100
0000
0010
1000
0000
,
1000
0100
1000
0001
0100
0010
0100
0010
,
1000
0100
0010
0001
1000
0010
0100
1000
,
0100
0010
1000
0001
0010
0100
1000
0001
,
0100
1000
0100
0010
1000
0001
1000
0001
,
2002
3003
0000
0000
0000
0000
0000
0000
;
