#TITLE:Winner of the Game;
#SUBTITLE:;
#ARTIST:David Guetta feat. JD Davis;
#TITLETRANSLIT:;
#SUBTITLETRANSLIT:;
#ARTISTTRANSLIT:;
#GENRE:;
#CREDIT:;
#BANNER:Winner of the Game.png;
#BACKGROUND:;
#LYRICSPATH:;
#CDTITLE:;
#MUSIC:06-david_guetta-winner_of_the_game_(ft_jd_davis).ogg;
#OFFSET:-0.109;
#SAMPLESTART:81.690;
#SAMPLELENGTH:13.200;
#SELECTABLE:YES;
#BPMS:0.000=127.940;
#STOPS:;
#BGCHANGES:;
#KEYSOUNDS:;

//---------------dance-single - ----------------
#NOTES:
     dance-single:
     :
     Hard:
     7:
     0.499,0.479,0.309,0.412,0.000,323.000,36.000,48.000,0.000,0.000,0.000,0.499,0.479,0.309,0.412,0.000,323.000,36.000,48.000,0.000,0.000,0.000:
0000
0000
0000
0000
,
0000
0000
0000
0000
,
0000
0000
0000
0000
,
0000
0000
0000
0000
,
1000
0100
0010
0001
,
1000
0001
0100
0010
,
1000
0010
0100
0010
,
1000
0000
0100
0000
0010
0010
0001
0001
,
1001
0100
0010
0200
0000
0310
1000
0200
,
0000
0310
0001
0001
1000
0010
0100
0110
,
0000
1000
0100
0020
0000
0031
1000
0020
,
0000
0130
0110
0000
0010
1000
0100
0100
,
0000
0011
0000
0202
0000
0303
0010
2000
,
0000
3100
0100
0000
1000
0010
0001
0010
,
0000
0020
0000
1030
0100
0010
0000
0012
,
0000
1003
0100
0000
0010
0001
1000
0010
,
1010
2000
0000
3200
0000
0310
0001
2000
,
0000
3010
0100
0000
0010
1000
1001
1000
,
0000
0110
0000
0021
0000
0031
1000
0010
,
0000
0010
1000
0000
1000
0001
0100
0010
,
0000
1000
0000
0020
0000
0000
1030
0200
,
0000
0000
0310
0001
1000
0010
0100
0100
,
0000
0010
1000
1100
0000
0010
0001
0101
,
0000
0010
1000
0000
1000
1000
0001
0001
,
1000
0001
0000
0200
0000
0310
0000
2000
,
0000
3100
0000
0020
0000
0031
0000
2000
,
0000
3100
0000
2000
0000
3010
0000
0200
,
0310
0010
0010
0010
1000
1000
0001
0001
,
1001
0001
0100
0010
1000
0100
0100
0010
,
0001
0000
1000
1000
0010
0010
0100
0000
,
1010
1000
0100
0010
0001
0001
1000
1000
,
0010
0100
0010
1000
,
0100
0100
0010
0001
0100
1000
0100
0002
,
0000
1003
0100
0001
0100
1000
0010
0200
,
0000
0320
0000
2030
0000
3002
0000
2003
,
3001
0001
0001
0001
0010
0010
0100
0100
,
1000
1010
0010
0101
,
0001
1100
0010
0110
,
1000
1100
0010
0101
,
0010
1100
1000
0110
,
0100
0000
0101
0001
1000
0010
0100
0010
,
0000
0010
1010
1000
0100
0010
0001
1000
,
0000
1000
0100
0001
0100
1000
0010
0200
,
0000
0000
0310
0000
0010
1000
0001
1000
,
0100
1000
0001
0200
0000
0310
1000
0002
,
0000
1003
0010
0000
0110
0010
1000
0001
,
0000
0200
0000
0310
0000
1000
0001
0200
,
0000
0310
1000
0000
1001
0001
0010
0100
,
1100
2000
0000
3010
0000
0100
0010
2000
,
0000
3001
0100
0000
0101
0001
0010
0100
,
0000
1000
1000
0002
0000
0103
0010
2000
,
0000
3001
0001
0000
0101
0001
1000
0010
,
1010
2000
0000
3002
0000
0103
0010
2000
,
0000
3002
0000
0000
1003
0010
0100
0100
,
0000
0010
0000
2000
0000
3000
0001
0200
,
0000
0300
1010
0000
0011
0001
1000
0010
,
1010
1000
0000
0002
0000
0103
0010
0200
,
0000
0300
0110
0000
0010
1000
0010
0001
,
0000
0010
0000
2000
0000
3000
0100
0020
,
0000
0030
1001
0000
0010
1000
0010
1000
,
0100
1000
0100
1000
0001
0100
0001
0100
,
2002
0000
0000
0000
,
3003
0000
0000
0000
;

//---------------dance-single - ----------------
#NOTES:
     dance-single:
     :
     Medium:
     5:
     0.299,0.319,0.009,0.017,0.000,241.000,1.000,2.000,0.000,0.000,0.000,0.299,0.319,0.009,0.017,0.000,241.000,1.000,2.000,0.000,0.000,0.000:
0000
0000
0000
0000
,
0000
0000
0000
0000
,
0000
0000
0000
0000
,
0000
0000
0000
0000
,
1000
0100
0010
0001
,
1000
0001
0100
0010
,
1000
0010
0100
0010
,
1000
0000
0100
0000
0010
0000
0001
0100
,
0010
0000
1000
0000
0100
0000
1000
0001
,
0000
0100
0010
0000
0010
0000
1000
0100
,
0000
1000
0000
0001
0000
0000
0000
0100
,
0000
0000
0000
0000
0010
0000
1000
0100
,
0000
1000
0000
0001
0000
0000
0000
0100
,
0000
0000
0000
0000
0010
0000
1000
0100
,
0000
1000
0000
0001
0000
0000
0000
0100
,
0000
0000
0010
0000
0010
0000
1000
0100
,
1000
0001
0000
0100
,
0010
0000
0000
0000
0010
0000
1000
0100
,
0000
1000
0000
0001
0000
0000
0100
0010
,
0000
0000
0000
0000
0010
0000
1000
0100
,
0000
1000
0000
0001
0000
0000
0100
0010
,
0000
0000
0000
0000
0010
0000
1000
0100
,
0000
1000
0000
0001
0000
0000
0000
0100
,
0000
0000
0000
0000
0010
1000
0100
1000
,
0001
0100
0010
0010
,
1000
0100
1000
0001
,
0100
0010
1000
0100
,
1000
0001
0100
0010
0100
0010
0100
0010
,
0100
0010
1000
0001
,
1000
0100
1000
0001
,
0100
0010
1000
0001
,
1000
0100
1000
0010
,
0100
0010
0001
0010
,
1000
0001
1000
0100
,
1000
0001
0100
0010
,
1000
0000
0001
0000
1000
0001
1000
0001
,
1000
0010
0100
0001
,
1000
0100
1000
0001
,
0010
0001
0100
0010
,
1000
0100
1000
0001
,
0100
1000
0100
0001
,
0010
1000
0010
0001
,
0100
1000
0010
0001
,
0100
0000
1000
0000
0010
1000
0010
1000
,
0010
0000
0100
0000
0001
0000
1000
0100
,
0000
1000
0001
0000
0100
0000
0010
1000
,
0000
1000
0000
0001
0000
0100
0000
0010
,
0000
1000
0000
0100
1000
0000
0001
0100
,
0000
0100
0000
0010
0000
1000
0000
0001
,
0000
1000
0000
0100
1000
0000
0001
0100
,
0000
0100
0000
0010
0000
1000
0000
0001
,
0000
1000
0000
0100
1000
0000
1000
0001
,
0100
0000
0010
0000
1000
0000
0100
1000
,
0000
1000
0001
0000
0100
0000
0010
0000
,
1000
0000
0001
0000
1000
0000
0100
1000
,
0000
1000
0001
0000
0100
0000
0010
0000
,
1000
0001
1000
0100
,
1000
0000
0010
0000
0100
0000
0010
0100
,
0000
0100
0010
0000
1000
0000
0001
0000
,
1000
0100
1000
0010
,
0100
0000
0001
0000
0010
0001
0010
0001
,
0022
0000
0000
0000
,
0033
0000
0000
0000
;

//---------------dance-single - ----------------
#NOTES:
     dance-single:
     :
     Easy:
     3:
     0.199,0.266,0.051,0.017,0.000,154.000,6.000,2.000,0.000,0.000,0.000,0.199,0.266,0.051,0.017,0.000,154.000,6.000,2.000,0.000,0.000,0.000:
0000
0000
0000
0000
,
0000
0000
0000
0000
,
0000
0000
0000
0000
,
0000
0000
0000
0000
,
1000
0100
0010
0001
,
1000
0001
0100
0010
,
1000
0010
0100
0010
,
1000
0100
0010
0001
,
0001
0001
0100
0000
,
0100
0000
0010
0000
,
1000
0000
0001
0000
,
1000
0000
0100
0100
,
0100
0000
1000
0000
,
0001
0000
0010
0010
,
0010
0000
1000
0000
,
0001
0000
0100
0100
,
0100
0000
0010
0000
,
1000
0000
0100
0100
,
0100
0000
1000
0000
,
0001
0000
0010
0010
,
0010
0000
0001
0000
,
1000
0000
0001
0001
,
0001
0000
0100
0000
,
0010
0000
1000
1000
,
1000
0000
0001
0000
,
0100
0000
0001
0000
,
1000
0000
0100
0000
,
1000
0000
0001
0001
,
0001
0000
0100
0000
,
0010
0000
1000
0000
,
0100
1000
0001
0100
,
0010
0000
0010
0000
,
1000
0001
0100
0000
,
0001
0000
0001
1000
,
0100
0000
1000
0000
,
1000
0010
0100
0010
,
0100
0000
0010
0000
,
1000
0000
0001
0000
,
1000
0001
0100
0010
,
1000
0000
1000
0000
,
0001
0100
1000
0100
,
0001
0000
1000
0100
,
1000
0000
0001
0000
,
1001
1001
1001
1001
,
1001
0000
0001
0000
,
0100
0000
0010
1000
,
0100
0000
1000
0000
,
0001
0000
0100
0001
,
0010
0000
0100
0000
,
1000
0000
0001
0100
,
0001
0000
0010
0000
,
0100
0000
1000
0001
,
0100
0000
0010
0000
,
1000
0000
0001
1000
,
0001
0000
0100
0000
,
0010
0000
1000
0100
,
1000
0000
1000
0000
,
0100
0000
1000
0000
,
0001
0000
0100
0000
,
0010
0000
1000
0001
,
1000
0001
1000
0001
,
2002
0000
0000
0000
,
3003
0000
0000
0000
;
