#TITLE:We Buy Any Car;
#SUBTITLE:(Bass Shockerz! Remix);
#ARTIST:webuyanycar.com;
#TITLETRANSLIT:;
#SUBTITLETRANSLIT:;
#ARTISTTRANSLIT:;
#GENRE:;
#CREDIT:;
#BANNER:;
#BACKGROUND:;
#LYRICSPATH:;
#CDTITLE:;
#MUSIC:We Buy Any Car (Bass Shockerz! Remix).ogg;
#OFFSET:-1.422;
#SAMPLESTART:37.990;
#SAMPLELENGTH:13.200;
#SELECTABLE:YES;
#BPMS:0.000=142.000,30.750=142.000;
#STOPS:30.750=0.420
;
#BGCHANGES:;
#KEYSOUNDS:;

//---------------dance-single - ----------------
#NOTES:
     dance-single:
     :
     Challenge:
     9:
     0.681,0.697,0.342,0.018,0.468,490.000,38.000,2.000,0.000,1.000,0.000,0.681,0.697,0.342,0.018,0.468,490.000,38.000,2.000,0.000,1.000,0.000:
0000
0000
0000
0000
,
0000
0000
0000
0000
,
0000
0000
0000
0000
,
0000
0000
0000
0000
,
1000
0000
0010
0000
0100
0000
0010
1000
,
0100
0000
0000
0010
0001
0000
1000
0000
0001
0000
0000
0000
0100
0010
1000
0100
,
0010
0000
0000
0000
0001
0000
1000
0000
0010
0000
0000
0000
0010
1000
0100
1000
,
0010
1000
0101
1000
,
0001
0000
0000
0000
0100
0000
0000
0000
0010
0000
1000
0000
0100
0000
0000
0010
,
0001
0000
0100
0000
0010
0000
0000
0000
0010
1000
0010
0100
0010
0000
0000
0000
,
1000
0000
0001
0000
0100
0000
0000
0000
0010
1000
0100
0010
0001
0000
0000
0001
,
0010
0000
0000
0001
0100
0000
0000
0000
0010
0000
1000
0000
1010
0000
0000
0000
,
0110
0000
0000
0000
0101
0000
0000
0000
0001
0000
1000
0000
0010
0000
0000
0100
,
0010
0000
1000
0000
0100
0000
0000
0010
0001
0100
0010
1000
0100
0000
0000
0000
,
0010
0000
0001
0000
1000
0000
0000
0000
1000
0010
0100
0001
0010
0000
0000
0000
,
1100
1010
0010
0110
,
1010
0000
0000
0000
1100
0000
0000
0010
0001
0000
0100
0000
0010
0000
0000
1000
,
0100
0000
0001
0000
0100
0000
0000
1000
0100
0010
0100
1000
0100
0000
0000
0000
,
0001
0000
0100
0000
0010
0000
0000
0000
0001
0100
0010
1000
0100
0000
0000
0010
,
0100
0000
0000
0010
0001
0000
0000
0000
1000
0000
1000
0000
0010
0000
0000
0000
,
0010
0000
0000
0000
0110
0000
0000
0000
0010
0000
1000
0000
0100
0000
0000
0010
,
0001
1000
0001
0000
0100
0010
1000
0000
,
0010
0000
1000
0000
0010
0000
0000
0000
1000
0100
0010
0100
1000
0000
0000
0000
,
1010
0000
0000
0000
0110
0000
0000
0000
0001
0100
0000
0000
1010
0000
1000
0000
,
0100
0010
0001
0000
0000
0000
1000
0000
1100
0000
0001
0010
0001
0000
0100
0010
,
1000
0100
0010
0001
1000
0000
1000
0010
0100
0000
0010
0000
1000
0000
0100
0010
,
0000
0000
0001
0100
1000
0000
0100
0000
0110
0000
0000
0000
0010
0000
1000
0000
,
0100
0010
1000
0000
0000
0000
0010
0000
0001
0000
0000
0000
0001
0000
1000
0000
,
0010
1000
0100
0000
0000
0000
0010
0000
0011
0000
0001
1000
0010
0000
0010
0100
,
0010
0000
1000
0100
0010
0000
0001
0100
0010
0000
0010
0000
1010
0000
1000
0100
,
0000
0000
0010
0001
1000
0000
0010
0000
0110
0000
0000
0000
0010
0000
1000
0000
,
0010
0100
0001
0000
0000
0000
0100
0000
1000
0000
0000
0000
1000
0000
0100
0000
,
0010
1000
0100
0000
0000
0000
0010
0000
0001
0000
0000
0000
0001
0000
0100
0010
,
1000
0000
1000
0000
1100
0000
0100
0000
0110
0000
0010
0001
0100
0010
1000
0100
,
0010
0001
0100
0010
0110
0000
1000
0001
,
0100
0010
0100
0000
0000
0000
0010
0000
1010
0000
0000
0000
1000
0000
0001
0000
,
0100
0010
1000
0000
0000
0000
1000
0000
1100
0000
0000
0000
1000
0000
0010
0100
,
0001
0000
0001
0000
1000
0000
0010
0000
0110
0000
0010
1000
0100
0010
0001
0100
,
0010
0000
1000
0000
0100
0000
1000
0000
1000
0100
1000
0100
2000
0000
0000
0000
,
0200
0000
0000
0000
3310
0000
0000
0000
0001
0010
0000
0000
1001
0000
0000
0000
,
0010
1000
0010
0100
0110
0100
0010
1000
,
0001
1000
0100
1000
1001
0001
0100
1000
,
0001
0010
1000
0100
1100
1000
0100
0010
,
0001
1000
0001
0100
1100
1000
0100
0001
,
1000
0010
1000
0100
1100
1000
0100
0001
,
0100
0010
0001
0100
1100
0100
0001
1000
,
0100
0000
0001
0000
0100
0000
0010
0000
0010
0001
0010
0001
0010
0001
0000
0000
,
0001
0100
0000
0000
0100
0010
0000
0000
0010
1000
0000
0000
1000
0000
0010
0000
,
1000
0001
0100
0000
0000
0000
0010
0000
1010
0000
0010
0100
0010
0000
0100
0001
,
1000
0100
1000
0001
0100
0000
0010
0100
0010
0000
1000
0001
1000
0000
0100
1000
,
0000
0000
0001
0100
0010
0000
0100
0000
0101
0000
0000
0000
0010
0000
1000
0000
,
0100
1000
0001
0000
0000
0000
0100
0000
0110
0000
0000
0000
0010
0000
1000
0000
,
0100
1000
0001
0000
0000
0000
0001
0000
0100
0000
0010
1000
0100
0000
0010
0001
,
1000
0000
0001
0100
0010
0000
1000
0001
1000
0000
0001
0000
0001
0000
0100
0010
,
0000
0000
0010
1000
0100
0000
1000
0000
0001
0000
0000
0000
0001
0000
0100
0000
,
1000
0100
0010
0000
0000
0000
0010
0000
1000
0000
0000
0000
0100
0000
1000
0000
,
0001
0100
0010
0000
0000
0000
1000
0000
0100
0000
0000
0000
0010
0000
0001
1000
,
0001
0000
1000
0000
0100
0000
1000
0000
0001
0000
0001
0100
0010
0100
0010
0100
,
0010
1000
0100
1000
0001
0000
0001
0100
,
1000
0100
0010
0000
0000
0000
0010
0000
1000
0000
0000
0000
0100
0000
0001
0000
,
0100
1000
0010
0000
0000
0000
0001
0000
0010
0000
0000
0000
1000
0000
1000
0010
,
0100
0000
0010
0000
1000
0000
0001
0000
1000
0000
0010
1000
0100
0010
0001
1000
,
0001
0000
1000
0000
1001
0000
0001
0000
0001
1000
0010
0100
0010
1000
0000
0000
,
1000
0100
0000
0000
0010
0001
0000
0000
1000
0001
0000
0000
1001
0000
0001
0000
,
1001
0000
1000
0000
1010
0000
1000
0000
0010
0100
0000
0000
0000
0000
0000
0000
;
