#TITLE:Veejay The DJ;
#SUBTITLE:;
#ARTIST:E-Rotic;
#TITLETRANSLIT:;
#SUBTITLETRANSLIT:;
#ARTISTTRANSLIT:;
#GENRE:;
#CREDIT:;
#BANNER:Veejay The DJ.png;
#BACKGROUND:;
#LYRICSPATH:;
#CDTITLE:;
#MUSIC:E-Rotic - 05 - Veejay the DJ.ogg;
#OFFSET:-0.069;
#SAMPLESTART:43.170;
#SAMPLELENGTH:13.200;
#SELECTABLE:YES;
#BPMS:0.000=135.000;
#STOPS:;
#BGCHANGES:;
#KEYSOUNDS:;

//---------------dance-single - ----------------
#NOTES:
     dance-single:
     :
     Hard:
     7:
     0.518,0.477,0.162,0.214,0.018,440.000,22.000,29.000,0.000,0.000,0.000,0.518,0.477,0.162,0.214,0.018,440.000,22.000,29.000,0.000,0.000,0.000:
0000
0000
0000
0000
,
0000
0000
0000
0000
,
0000
0000
0000
0000
,
0000
0000
0000
0000
,
0000
0000
0000
0000
,
0000
0000
0000
0000
,
0000
0000
0000
0000
,
0000
0000
0000
0000
,
0000
0000
1000
0001
0100
0010
1000
0100
,
0001
0100
1000
0010
0100
0010
0001
0010
,
1000
0100
1000
0001
0100
1000
0100
0001
,
0010
0100
1000
0001
1000
0001
1000
0001
,
1000
0010
0100
0001
0010
0100
1000
0100
,
0010
0100
1000
0010
0100
0001
1000
0010
,
0100
0010
1000
0001
0100
0010
1000
0001
,
0010
1000
0010
0001
0100
0010
1000
0100
,
1000
0001
0100
0010
1000
0001
0010
0010
,
0010
0000
0000
0010
0100
1000
0001
0100
,
0010
0000
0000
0010
1000
0001
0010
0100
,
0100
0000
0000
0100
0010
0001
1000
0010
,
0200
0000
0300
0010
1000
0001
0010
0100
,
0100
0000
0000
1000
0001
0100
1000
0100
,
0001
0000
0000
1000
0001
0010
0100
0010
,
0001
1001
0110
1001
,
1000
0001
1000
0000
0001
0000
0000
0000
0100
0000
0010
0000
1000
0000
0000
0000
,
0011
0200
2300
3002
,
0103
0000
0010
1000
0001
0010
0100
0100
,
1000
0001
0200
0000
0320
0000
2030
0000
,
3001
0000
0001
0000
0100
0010
1000
0000
,
1001
0000
1000
0100
0020
0000
0130
0000
,
0010
0000
0001
1000
0001
0010
0100
1000
,
0001
1000
0002
0000
1003
0001
1000
1000
,
1000
0001
2000
0000
3100
0010
0100
0000
,
0110
0000
0100
1000
0001
1000
0001
0100
,
0001
1000
0100
0001
0100
1000
0001
0100
,
1000
0100
0001
0010
0200
1000
1300
0000
,
1001
0000
0001
0000
0100
0001
0010
0000
,
0110
0000
0100
1000
0002
0100
0103
0000
,
1001
0000
0001
1000
0010
0100
0010
1000
,
0001
0010
0100
1000
0001
0100
0020
1000
,
1030
0000
0001
1000
0100
0000
0010
0000
0010
0000
0001
0000
1000
0000
0010
0000
,
0100
0000
0000
0010
1000
0001
0100
0100
,
0100
0000
0000
0010
1000
0001
0100
0010
,
0010
0000
0000
1000
0001
0010
0100
0100
,
0100
1000
1100
0100
0010
0001
0100
0010
,
0200
0000
0310
1000
0100
0001
0100
1000
,
0002
0000
1003
0001
0100
0010
1000
0001
,
1000
1001
0110
1001
,
1100
0000
0100
1000
0001
0000
0000
0000
0100
0000
0010
0000
1000
0000
0000
0000
,
1100
2000
3002
0203
,
0310
1000
0001
0010
0100
0010
0100
0100
,
0100
1000
0002
0000
0203
0000
0320
0000
,
1030
0001
0001
0000
0100
0010
1000
0000
,
1001
0001
0010
0100
2000
0000
3001
0000
,
0100
0100
0100
0010
1000
0001
0010
0001
,
0010
0100
2002
0000
3003
0000
0001
1000
,
0010
0000
0100
0001
1000
0000
0000
0000
0100
0000
0010
0000
0002
0000
0000
0000
,
1003
0000
0010
0100
0001
0010
0100
0100
,
0100
1000
0001
1000
0010
0100
0010
1000
,
0100
0010
0001
1000
0001
0000
1001
0000
,
1001
0001
0100
0000
0010
1000
0002
0000
,
0013
0000
0100
1000
0001
0000
1001
0000
,
1000
0100
0001
0100
1000
0100
0001
0100
,
1000
0100
0010
0001
0010
1000
0010
0001
,
1000
0000
0001
0100
0010
0000
0100
0000
0010
0000
1000
0000
0001
0000
1000
0000
,
0001
1000
0010
0100
0010
0100
0001
0100
,
0001
0100
0010
1000
0010
1000
0001
1000
,
0001
1000
0100
0010
0100
0010
0001
0010
,
0001
0001
0001
1000
0001
1000
0100
1000
,
0100
1000
0010
0100
0010
0100
0001
0100
,
0001
0100
0001
0010
0001
0010
0100
1000
,
0100
1000
0010
1000
0010
1000
0100
0010
,
0100
0010
0120
0000
0130
1000
0001
0000
,
2002
0000
0000
0000
,
0000
0000
0000
0000
,
0000
0000
0000
0000
,
3003
0000
0000
0000
;

//---------------dance-single - ----------------
#NOTES:
     dance-single:
     :
     Medium:
     5:
     0.344,0.338,0.118,0.022,0.000,307.000,16.000,3.000,0.000,0.000,0.000,0.344,0.338,0.118,0.022,0.000,307.000,16.000,3.000,0.000,0.000,0.000:
0000
0000
0000
0000
,
0000
0000
0000
0000
,
0000
0000
0000
0000
,
0000
0000
0000
0000
,
0000
0000
0000
0000
,
0000
0000
0000
0000
,
0000
0000
0000
0000
,
0000
0000
0000
0000
,
0000
0000
1000
0000
0010
0000
0100
0010
,
0100
0000
0100
0010
0100
0000
0100
0010
,
0100
0000
0001
0000
1000
0000
0100
1000
,
0100
0000
0100
1000
0100
0000
0100
1000
,
0100
0000
1000
0000
0010
0000
0100
0001
,
0100
0000
0100
0001
0100
0000
0100
0001
,
0100
0000
0010
0000
1000
0000
0001
0010
,
0001
0000
0001
0010
0001
0000
0001
0010
,
0001
0000
1000
0000
0100
0000
0100
0100
,
0100
0000
1000
0000
0010
0000
0100
0100
,
0100
0000
0010
0000
1000
0000
0001
0001
,
0001
0100
0010
1000
,
0200
0000
1300
0000
0001
0000
0100
0010
,
1000
0000
0001
0000
1000
0000
0100
0100
,
0100
1000
0001
0100
,
0010
1010
0101
1010
,
0010
0000
1000
0000
0001
0100
0010
0000
,
1000
0100
1000
1001
,
0000
0000
0010
0100
,
0001
1000
0100
1000
,
0010
0000
0100
0000
0001
1000
0100
0000
,
1000
0010
0100
0101
,
0000
0000
0010
0000
1000
0000
0100
1000
,
0001
0101
0000
0010
,
1000
0001
0100
0010
,
1000
0000
0001
0000
0100
0000
0010
1000
,
0010
0000
0100
0010
0100
0000
0001
0100
,
0001
1000
0100
1001
,
0000
0000
0010
0000
0100
0001
0100
0000
,
0010
0000
1000
0100
1000
0000
0001
0000
,
0100
0000
0010
1000
0001
0000
0001
1000
,
0001
0000
0100
0001
0100
0000
0010
1000
,
0010
0000
1000
0000
0001
0000
0010
0100
,
1000
0000
0001
0000
0100
0000
0010
0010
,
0010
0000
1000
0000
0001
0000
0100
0100
,
0100
0000
0001
0000
1000
0000
0100
1000
,
0001
0000
0100
0000
0010
0000
1000
0001
,
0010
0000
0100
0000
1000
0000
0001
0100
,
0010
0000
1000
0000
0001
0000
0100
0001
,
0100
0010
1001
0110
,
0010
0000
1000
0000
0001
0100
0001
0000
,
1000
0100
1000
0101
,
0000
0000
0010
1000
,
0001
0000
1000
0000
0100
1000
0001
0000
,
0101
0010
1000
0100
,
1000
0000
0001
0000
0100
0010
1000
0000
,
1010
0000
0010
0000
0100
0001
1000
0000
,
0100
1100
0000
0000
,
0000
1000
0001
0100
,
0010
0000
1000
0010
1000
0000
1000
0010
,
1000
0000
1000
0010
1000
0000
1000
0010
,
1000
0001
0100
0110
,
0000
0000
0010
1000
0010
0000
0010
1000
,
0010
0000
0010
1000
0010
0000
0101
0000
,
0000
0010
1000
0100
,
1000
0000
0001
0000
1000
0000
0010
0100
,
0010
0000
1000
0000
0100
0000
1000
0001
,
1000
0000
0010
1000
0010
0000
0100
0010
,
0100
0000
0001
0000
1000
0000
0010
0100
,
0001
0000
0001
1000
0100
0000
1000
0010
,
0100
0001
1000
0000
0100
0000
1000
0001
,
0100
0000
0010
1000
0001
0000
1000
0001
,
1000
0000
0010
0100
0001
0000
1000
0010
,
1000
0000
0010
0100
0001
0000
0001
1000
,
0100
2002
0000
0000
,
0000
0000
0000
0000
,
0000
0000
0000
0000
,
0000
0000
0000
0000
,
0000
3003
0000
0000
;

//---------------dance-single - ----------------
#NOTES:
     dance-single:
     :
     Easy:
     3:
     0.182,0.276,0.059,0.015,0.000,163.000,8.000,2.000,0.000,0.000,0.000,0.182,0.276,0.059,0.015,0.000,163.000,8.000,2.000,0.000,0.000,0.000:
0000
0000
0000
0000
,
0000
0000
0000
0000
,
0000
0000
0000
0000
,
0000
0000
0000
0000
,
0000
0000
0000
0000
,
0000
0000
0000
0000
,
0000
0000
0000
0000
,
0000
0000
0000
0000
,
0000
1000
0000
0010
,
0000
0100
0000
0001
,
0000
1000
0000
0100
,
0000
1000
0000
0001
,
0000
0100
0000
0010
,
0000
1000
0000
0001
,
0000
1000
0000
0100
,
0000
1000
0000
0001
,
0000
0100
0010
0100
,
0010
0000
0010
1000
,
0010
0000
0100
0001
,
0100
0000
0001
1000
,
0100
1000
0001
0100
,
0001
0000
0001
1000
,
0100
0000
1000
0010
,
0100
0010
0010
0010
,
0000
0010
1000
0001
,
0000
0001
0000
1001
,
0000
0001
0000
0100
,
0000
0010
1000
0010
,
0000
0010
0000
0100
,
0000
0001
1000
0100
,
0000
1000
0000
0001
,
0100
0001
0000
0010
,
0000
0100
0000
0010
,
0000
1000
0000
0100
,
0000
1000
0000
0001
,
0000
0100
0100
0100
,
0000
0010
0000
1000
,
0000
0100
0000
1000
,
0000
0001
0000
0100
,
0000
0010
0000
1000
,
0000
0001
1000
0100
,
1000
0000
0001
0100
,
0001
0000
1000
0010
,
0100
0000
0010
1000
,
0001
0010
0100
1000
,
0001
0000
0001
0100
,
0001
0000
0100
0010
,
1000
1001
1001
1001
,
0000
1000
0000
0100
,
0000
1000
0001
0100
,
0000
0010
0000
1000
,
0000
0100
1000
0001
,
0000
0100
0000
0010
,
0000
1000
0001
1000
,
0000
0100
0000
0010
,
0000
1001
0000
1000
,
0000
0100
1000
0001
,
0000
0100
0000
0010
,
0000
1000
0000
0001
,
0000
1000
1000
1000
,
0000
0001
0000
0100
,
0000
0010
1001
1001
,
0000
0100
0000
1000
,
0000
0001
0000
0100
,
0000
0010
1000
0100
,
0000
1000
0000
0001
,
0000
0100
0001
0010
,
0000
0100
0000
1000
,
0000
0001
0001
0001
,
0000
0100
0000
0010
,
0000
1000
0000
0100
,
0000
1000
0000
0001
,
0000
0220
0000
0000
,
0000
0000
0000
0000
,
0000
0000
0000
0330
;
