#TITLE:Twice Around The Moon;
#SUBTITLE:(Chaos Remix);
#ARTIST:Rampant & Obie vs. Darwin & Ant Johnson;
#TITLETRANSLIT:;
#SUBTITLETRANSLIT:;
#ARTISTTRANSLIT:;
#CREDIT:;
#BANNER:Twice Around The Moon.png;
#BACKGROUND:;
#LYRICSPATH:;
#CDTITLE:;
#MUSIC:Twice Around the Moon (Chaos Remix).ogg;
#OFFSET:0.692;
#SAMPLESTART:100.210;
#SAMPLELENGTH:13.160;
#SELECTABLE:YES;
#BPMS:0.000=176.010;
#STOPS:;
#BGCHANGES:;

//---------------dance-single - ----------------
#NOTES:
     dance-single:
     :
     Hard:
     8:
     0.578,0.625,0.457,0.104,0.000:
0000
0000
1001
1100
,
0011
0000
1000
0100
0000
1000
0000
0001
,
0000
0110
1001
0011
,
1100
0000
1000
0001
0000
0010
0000
0100
,
0000
0000
1001
0110
,
1001
0000
0010
1000
0000
0001
0000
1000
,
0000
1001
0011
1100
,
1010
0000
0001
0100
0000
0001
0000
0100
,
0000
0010
0000
0000
1010
0000
1001
0000
,
0011
0000
0100
1000
0000
0001
0000
1000
,
0000
1001
0110
0011
,
1100
0000
0001
1000
0000
0001
0000
0100
,
0000
0010
0000
0000
1001
0000
0110
0000
,
0011
0000
0100
1000
0000
0001
0000
0010
,
0000
0011
1100
1010
,
0101
0000
1000
0100
2000
0000
0000
0000
,
0000
0000
0000
0000
3001
0100
0001
0100
,
0010
1000
0010
1000
0100
1000
0100
1000
,
0010
0100
0010
0100
0001
1000
0001
1000
,
0100
0010
0100
0010
0001
0010
0001
0010
,
0001
0100
0001
0100
0010
1000
0010
1000
,
0100
0010
0100
0010
0100
1000
0100
1000
,
0001
0100
0001
0100
0020
0000
0000
0000
,
0000
0000
0000
0000
,
0000
0000
2030
0000
,
0000
0000
0000
0000
0001
0000
0000
0001
,
0000
0100
3200
0000
,
0000
0000
0000
1000
1000
0000
0000
0010
,
0000
0010
0320
0000
,
0000
0000
0000
0000
0001
0000
0000
0001
,
0000
0001
0032
0000
,
0000
0000
1000
0000
1000
0000
0000
0100
,
0000
0000
0010
0000
0003
2000
0000
0000
,
0000
0000
0000
0001
0001
0000
0000
0010
,
0000
0000
0100
0100
0000
3200
0000
0000
,
0000
0000
0300
0010
0001
0000
1000
0001
,
0000
0000
0100
0010
0000
2002
0000
0000
,
3003
0000
0000
1000
0100
0000
0000
0110
,
0000
0000
0001
0000
1000
0000
0000
0110
,
0000
0010
2000
0001
,
0010
0200
0000
0000
,
0000
0000
3300
0000
,
1000
0000
0001
0100
0010
0000
1000
0000
,
0001
0010
0100
1000
,
0001
0000
0100
0010
1000
0000
0001
0000
,
0100
0000
0010
1000
0001
0000
0010
0000
,
0001
1000
0010
0100
0001
0000
0001
0000
,
0100
0000
0010
0100
0000
0010
0100
0010
,
0000
1000
0100
1000
0001
0000
0100
0010
,
1000
0001
0010
0000
1100
0000
1000
0000
,
0001
0000
0010
0000
0100
1000
0100
1000
,
0001
0100
0001
0100
0010
1000
0010
1000
,
0001
0010
0001
0010
0100
1000
0100
1000
,
0001
1000
0001
1000
0010
0100
0010
0100
,
0001
0010
0001
0010
0100
1000
0010
0100
,
0001
0100
0010
1000
0100
0010
0001
0100
,
0010
1000
0001
0100
0010
1000
0001
0010
,
0100
1000
0001
0100
0020
0000
0000
1000
,
0000
0130
1001
0110
,
0011
0000
1000
0100
0000
0010
0000
0001
,
0000
1000
0010
0000
0110
0000
1001
0000
,
1010
0000
0001
0100
0000
0010
0000
1000
,
0000
0001
0100
0000
0110
0000
1001
0000
,
0011
0000
0100
1000
0000
0001
0000
0100
,
0000
0010
0100
0000
0110
0000
1001
0000
,
0011
0000
0100
1000
0000
0001
0000
0100
,
0000
0010
0000
0100
0110
0000
1001
0000
,
0011
0000
0100
1000
0000
0001
0000
0100
,
0000
0010
1000
0000
1001
0000
0011
0000
,
1100
0000
0001
1000
0000
0001
0000
0100
,
0000
0010
1000
0000
1001
0000
0011
0000
,
1100
0000
0001
1000
0000
0001
0000
0100
,
0000
0010
0100
0000
1001
0000
0110
0000
,
1100
0000
1000
0001
2002
0000
0000
0000
,
0000
3003
1001
0011
,
1100
0000
0001
0100
0000
0010
0000
0010
,
0000
1000
0100
1000
0001
0000
0100
0100
,
0100
0000
0010
1000
1000
0000
0001
0100
,
0000
0100
0010
1000
0001
0000
0001
0000
,
1000
0000
0100
1000
0001
0000
0001
0100
,
0000
0100
0010
1000
0001
0000
0001
0010
,
0100
1000
0001
0000
0100
0000
0100
0010
,
0000
0010
1000
0001
1000
0000
0100
1000
,
0001
0000
0001
0100
0000
0100
0010
1000
,
0000
0010
1000
0000
0001
0100
0100
0010
,
0000
0010
0100
0010
1000
0000
0001
0010
,
0001
1000
0100
1000
0001
0000
0001
0100
,
0010
0000
1000
0000
1001
0000
1000
0100
,
0000
1000
0001
0100
0010
0000
1000
0001
,
0000
0001
0100
0000
0110
0000
0001
1000
,
0000
1000
0100
1000
1001
0000
0001
0100
,
0000
0100
0010
1000
0000
0010
1000
0001
,
0000
0001
0100
0010
1000
0000
0100
1000
,
0001
1000
0010
0000
0110
0000
0000
0000
,
0000
0000
0010
0000
1000
0000
0100
1000
,
0000
1000
0001
0100
0000
0001
0100
0010
,
0000
0010
1000
0001
1000
0000
0100
1000
,
0001
0100
0010
0000
1000
0000
0001
0000
,
0100
0000
0010
0000
1001
0000
0010
0100
,
0000
0100
0001
1000
0000
0100
1000
0001
,
0000
0100
0010
1000
0001
0000
0001
0010
,
0100
1000
0001
0000
0100
0000
0100
0000
,
0010
0000
1000
0000
0001
0000
0010
0100
,
1000
0000
1000
0001
0000
0001
0100
0100
,
0000
0010
1000
0010
1000
0000
0001
0010
,
0100
1000
0001
0000
0001
0000
0100
0000
,
0010
1001
0000
0000
;

//---------------dance-single - ----------------
#NOTES:
     dance-single:
     :
     Medium:
     6:
     0.407,0.478,0.270,0.097,0.000:
0000
0000
1001
1100
,
0011
0000
1000
0100
0000
0000
0000
0000
,
0000
0110
1001
0011
,
1100
0000
1000
0001
0000
0000
0000
0000
,
0000
0000
1001
0110
,
1001
0000
0010
1000
0000
0000
0000
0000
,
0000
1001
0011
1100
,
1010
0000
0001
0100
0000
0000
0000
0000
,
0000
0000
1010
1001
,
0011
0000
0100
1000
0000
0000
0000
0000
,
0000
1001
0110
0011
,
1100
0000
0001
1000
0000
0000
0000
0000
,
0000
0000
1001
0110
,
0011
0000
0100
1000
0000
0000
0000
0000
,
0000
0011
1100
1010
,
0101
0000
1000
0100
2000
0000
0000
0000
,
0000
0000
0000
0000
3001
0100
0001
0000
,
0100
0010
0100
0000
0010
1000
0010
0000
,
1000
0100
1000
0000
1000
0001
1000
0000
,
0010
0100
0010
0000
1000
0100
1000
0000
,
0001
0010
0001
0000
0100
0001
0100
0000
,
0010
0100
0010
0000
1000
0010
1000
0000
,
0010
1000
0010
0000
0020
0000
0000
0000
,
0000
0000
0000
0000
,
0000
0000
2030
0000
,
0000
0000
0000
0000
0001
0000
0000
0001
,
0000
0100
3200
0000
,
0000
0000
0000
0000
1000
0000
0000
0010
,
0000
0010
0320
0000
,
0000
0000
0000
0000
0001
0000
0000
0001
,
0000
0001
0032
0000
,
0000
0000
1000
0000
1000
0000
0000
0100
,
0000
0000
0010
0000
0003
2000
0000
0000
,
0000
0000
0000
0000
0001
0000
0000
0010
,
0000
0000
0000
0100
0000
3200
0000
0000
,
0000
0000
0300
0010
0001
0000
1000
0001
,
0000
0000
0100
0010
0000
2002
0000
0000
,
3003
0000
0000
1000
0100
0000
0000
0110
,
0000
0000
0001
0000
1000
0000
0000
0110
,
0000
0010
2000
0001
,
0010
0200
0000
0000
,
0000
0000
3300
0000
,
1000
0010
0100
0010
,
1000
0100
1000
0001
,
0100
0010
1000
0001
,
0010
0100
1000
0001
,
0100
1000
0100
0001
,
0010
1000
0010
0001
,
0100
0010
1000
0001
,
0010
0100
1000
0001
,
0100
0000
0010
0000
1000
0010
1000
0000
,
0010
0100
0010
0000
0100
0001
0100
0000
,
0001
0010
0001
0000
0010
0100
0010
0000
,
0100
1000
0100
0000
1000
0001
1000
0000
,
0001
0100
0001
0000
0100
0000
0010
0000
,
1000
0000
0100
0000
1100
0000
0000
1000
,
0000
0000
0001
0000
0100
0000
0000
0010
,
0000
0000
0000
0000
0010
0000
0000
1000
,
0000
0100
1000
0001
,
0100
0000
0010
0100
0000
0010
0000
0100
,
0000
0010
1000
0100
,
1000
0000
0001
0100
0000
0001
0000
0100
,
0000
0001
0000
0000
0100
0000
0010
0000
,
1000
0000
0001
1000
0000
0001
0000
1000
,
0000
1000
1000
0001
,
0100
0000
0010
1000
0000
1000
0000
0100
,
0000
1000
0000
0000
1000
0000
0001
0000
,
0100
0000
0010
0100
0000
0010
0000
1000
,
0000
1000
0001
0100
,
0010
0000
1000
0001
0000
0010
0000
0100
,
0000
1000
0001
0100
,
0010
0000
1000
0001
0000
0100
0000
0010
,
0000
0010
1000
0100
,
1000
0000
0001
0100
0020
0000
0000
0030
,
0010
0000
1000
0100
1000
0000
0001
0000
,
0100
0000
0010
0100
0000
0000
0000
0000
,
0010
1000
0100
1000
,
0001
0000
0100
0001
0000
0000
0000
0100
,
0000
0010
1000
0100
,
1000
0000
0001
0100
0000
0000
0000
0100
,
0000
0010
1000
0100
,
1000
0000
0001
0000
0101
0000
0000
0010
,
0000
1000
0000
0100
1000
0000
0001
0000
,
0100
0000
0010
0100
0000
0000
0000
0010
,
0000
1000
0000
0100
0000
0000
2000
0000
,
0000
0000
0000
0001
0000
3000
0000
0001
,
0000
0100
0010
1000
,
0100
0000
1000
0000
0001
0000
0000
0001
,
0000
0000
0100
0000
0010
0000
0000
1000
,
0000
0000
0000
0000
0100
0000
0000
1000
,
0000
0000
0001
0000
0101
0000
0000
0110
,
0000
0000
0000
1010
0000
0000
0000
0010
,
0000
0100
0010
0000
0100
0000
0001
0000
,
1000
0100
1100
0000
,
0000
0000
1000
0000
0001
0000
0000
0100
,
0000
0000
0000
0100
0000
0000
0000
0010
,
0000
1000
0100
1000
0001
0000
0100
0000
,
0010
1000
1001
0000
,
0000
0000
0001
0000
0100
0000
0000
0100
,
0000
0000
0000
0100
0000
0000
0000
0010
,
0000
1000
0100
1000
,
0001
0100
0110
0000
,
0000
0000
0010
0000
1000
0000
0000
0100
,
0000
0000
0000
1000
0000
0000
0000
0001
,
0000
0100
0010
1000
,
0001
0010
0100
1000
,
0001
1000
0000
0000
;

//---------------dance-single - ----------------
#NOTES:
     dance-single:
     :
     Easy:
     3:
     0.241,0.368,0.208,0.014,0.000: // measure 1
0000
0000
1001
1001
,  // measure 2
1001
0000
1000
0100
0000
0000
0000
0000
,  // measure 3
0000
1001
1001
1001
,  // measure 4
1001
0000
1000
0001
0000
0000
0000
0000
,  // measure 5
0000
0000
1001
1001
,  // measure 6
1001
0000
0010
1000
0000
0000
0000
0000
,  // measure 7
0000
1001
1001
1001
,  // measure 8
1001
0000
0001
0100
0000
0000
0000
0000
,  // measure 9
0000
0000
1001
1001
,  // measure 10
1001
0000
0100
1000
0000
0000
0000
0000
,  // measure 11
0000
1001
1001
1001
,  // measure 12
1001
0000
0001
1000
0000
0000
0000
0000
,  // measure 13
0000
0000
1001
1001
,  // measure 14
1001
0000
0100
1000
0000
0000
0000
0000
,  // measure 15
0000
1001
1001
1001
,  // measure 16
1001
2000
0000
0000
,  // measure 17
3000
0001
0000
0000
,  // measure 18
0100
0000
0010
0000
,  // measure 19
1000
0000
0100
0000
,  // measure 20
1000
0000
0001
0000
,  // measure 21
0100
0000
0010
0000
,  // measure 22
1000
0000
0100
0000
,  // measure 23
1000
0000
0002
0000
,  // measure 24
0000
0000
0000
0000
,  // measure 25
0000
0000
1003
0000
,  // measure 26
0000
0000
0100
0000
,  // measure 27
0000
0000
1000
0000
,  // measure 28
0000
0000
0001
0000
,  // measure 29
0000
0000
0100
0000
,  // measure 30
0000
0000
0010
0000
,  // measure 31
0000
0000
1000
0000
,  // measure 32
0000
0000
0001
0000
,  // measure 33
0000
0000
0100
0000
,  // measure 34
0000
0000
0010
0000
,  // measure 35
0000
0000
1000
0000
,  // measure 36
0000
0000
0100
0000
,  // measure 37
0000
0000
1000
0000
,  // measure 38
0000
0000
0001
0000
,  // measure 39
0000
0000
0100
0000
,  // measure 40
0000
0000
0010
0100
,  // measure 41
0010
0100
0000
0000
,  // measure 42
0000
0000
0000
0000
,  // measure 43
0000
0000
1000
0000
,  // measure 44
0000
0000
0100
0000
,  // measure 45
0000
0000
1000
0000
,  // measure 46
0000
0000
0001
0000
,  // measure 47
0000
0000
0100
0000
,  // measure 48
0010
0000
0100
0000
,  // measure 49
0010
0000
1000
0000
,  // measure 50
0001
0000
1000
0000
,  // measure 51
0100
0000
1000
0001
,  // measure 52
1000
0000
0001
1000
,  // measure 53
0001
0000
0001
1000
,  // measure 54
0001
0000
0001
1000
,  // measure 55
0001
0000
1000
0001
,  // measure 56
1000
0000
0001
1000
,  // measure 57
0001
0000
0001
1000
,  // measure 58
0001
0000
1001
0000
,  // measure 59
0000
0000
0001
0000
,  // measure 60
0100
0000
0010
0000
,  // measure 61
1000
0000
0100
0000
,  // measure 62
1000
0000
0001
0000
,  // measure 63
0100
0000
0001
0000
,  // measure 64
0010
0000
0100
0000
,  // measure 65
1000
0000
0001
0000
,  // measure 66
0100
0000
0001
0000
,  // measure 67
0010
0000
0100
0000
,  // measure 68
1000
0000
0001
0000
,  // measure 69
0100
0000
0010
0000
,  // measure 70
0100
0000
0010
0000
,  // measure 71
1000
0000
0100
0000
,  // measure 72
1000
0000
0001
0000
,  // measure 73
0100
0000
0001
0000
,  // measure 74
0010
0000
0100
0000
,  // measure 75
1000
0000
0001
0000
,  // measure 76
0100
0000
0010
0000
,  // measure 77
1000
0000
0100
0000
,  // measure 78
1000
0000
0001
0000
,  // measure 79
0100
0000
0010
0000
,  // measure 80
0100
0000
0010
0000
,  // measure 81
1000
0000
0100
0000
,  // measure 82
1000
0001
1000
0000
,  // measure 83
0100
0000
1000
0000
,  // measure 84
0001
0000
0100
0000
,  // measure 85
0010
0000
1000
0000
,  // measure 86
0100
0000
1000
0000
,  // measure 87
0001
0000
0010
0000
,  // measure 88
0100
1000
0100
0000
,  // measure 89
1000
0000
0001
0000
,  // measure 90
0100
0000
0010
0000
,  // measure 91
1000
0000
1100
0000
,  // measure 92
0001
0000
0100
0000
,  // measure 93
0010
0000
1000
0000
,  // measure 94
0100
0000
1000
0000
,  // measure 95
0001
0000
0100
0000
,  // measure 96
0010
0000
0100
0000
,  // measure 97
0001
0000
0010
0000
,  // measure 98
0100
1000
0100
0000
,  // measure 99
1000
0000
0001
0000
,  // measure 100
0100
0000
0010
0000
,  // measure 101
1000
0000
0001
0000
,  // measure 102
1000
0001
1000
0000
,  // measure 103
0100
0000
1000
0000
,  // measure 104
0001
0000
0100
0000
,  // measure 105
0010
0000
1000
0000
,  // measure 106
0001
1000
0001
0100
,  // measure 107
0010
1000
0000
0000
;
