#TITLE:Tricky Disco;
#SUBTITLE:(Intense Bass Remix);
#ARTIST:Discotronic feat. ONESTEPAHEAD;
#TITLETRANSLIT:;
#SUBTITLETRANSLIT:;
#ARTISTTRANSLIT:;
#GENRE:;
#CREDIT:;
#BANNER:Tricky Disco.png;
#BACKGROUND:;
#LYRICSPATH:;
#CDTITLE:;
#MUSIC:Tricky Disco.ogg;
#OFFSET:0.758;
#SAMPLESTART:25.250;
#SAMPLELENGTH:14.960;
#SELECTABLE:YES;
#BPMS:0.000=75.505,17.000=151.010;
#STOPS:;
#BGCHANGES:;
#KEYSOUNDS:;

//---------------dance-single - ----------------
#NOTES:
     dance-single:
     :
     Hard:
     9:
     0.763,0.684,0.233,0.027,0.332,566.000,26.000,3.000,0.000,0.000,0.000,0.763,0.684,0.233,0.027,0.332,566.000,26.000,3.000,0.000,0.000,0.000:
0000
0000
1000
0001
0100
0010
1000
0100
,
0010
0000
0001
1000
0010
0000
0100
0000
0010
0000
1000
0000
0100
0000
0001
0000
,
0100
0000
1100
0010
0101
1000
1010
0001
,
0011
0000
1000
0001
1001
0000
0010
0000
1010
0000
1000
0000
1100
0000
0010
0000
,
0011
0000
1000
0000
0010
0000
1000
0000
0010
0000
1000
0001
1000
0000
0100
0000
,
0010
0000
0001
0100
0010
0000
1000
0000
0001
0000
1000
0010
0100
0000
0010
0000
,
1010
0000
0000
0000
1000
0000
0001
0000
0100
0000
0010
1000
0001
0000
1000
0000
,
0010
0000
0100
0010
1000
0000
0100
0000
0010
0000
0001
1000
0010
0000
0100
0000
,
0010
0000
1000
0000
0100
0000
0010
0000
0001
0000
0010
0001
0010
0000
1000
0000
,
0010
0000
0001
0100
0010
0000
1000
0000
0100
0000
0010
0001
1000
0000
0010
0000
,
0100
0000
0000
0000
0010
0000
1000
0000
0100
0000
0010
0001
0100
0000
0010
0000
,
1000
0000
0100
0010
0001
0000
1000
0000
0010
0000
1000
0000
0010
1000
0000
0000
,
1020
0000
0000
1030
0010
0000
0100
0000
0010
0000
1000
0100
0010
0000
0001
0000
,
0100
0000
1000
0100
0001
0000
1000
0000
0100
0000
0010
0001
1000
0000
0010
0000
,
0100
0000
0000
0000
0010
0000
1000
0000
0100
0000
0010
0001
1000
0000
0010
0000
,
0100
0000
0010
1000
0001
0000
0100
0000
0010
0000
1000
0100
0010
0000
0001
0000
,
1000
0000
1000
0000
0010
0000
0100
0000
0010
0000
1000
0100
0010
0000
0001
0000
,
0001
0000
1000
0100
0010
0000
0001
0000
0001
0000
1000
0100
0010
0000
0001
0000
,
0001
0000
0000
0000
1000
0000
0010
0000
0100
0000
0001
0100
0010
0000
1000
0000
,
0100
0000
0010
0001
1000
0000
0001
0000
0001
0000
1000
0100
0010
0001
1000
0000
,
1000
0001
1000
0001
1000
0000
0010
0000
0100
0000
0010
1000
0100
0000
0010
0000
,
0001
0000
1000
0001
1000
0000
0100
0000
0010
0000
0001
1000
0010
0000
0100
0000
,
0010
0000
0000
0000
1000
0000
0010
0000
0100
0000
0010
1000
0100
0000
0010
0000
,
0001
0000
1000
0001
0100
0000
0010
0000
1000
0000
0001
1000
0010
0000
0100
0000
,
0100
0000
0100
0000
0010
0000
1000
0000
0001
0000
1000
0100
1000
0000
0100
0000
,
0100
0000
0010
0001
0010
0000
0011
0000
0011
0000
0001
1000
0001
0100
0001
0010
,
0001
1000
0001
0100
0001
0000
0001
0000
0000
0000
1000
0000
0000
0000
0010
0000
,
0000
0100
0000
1010
0000
1100
0000
0011
,
0000
0101
0000
0010
0000
1000
0000
0100
,
0000
0010
0000
1100
0000
1010
0000
0101
,
0000
0011
0001
1000
0001
1000
0001
0010
,
0001
1000
0001
0100
0001
0010
0001
0100
,
0001
1000
1000
0010
1000
0100
1000
0001
,
1000
0010
1000
0100
1000
0010
1000
0001
,
1000
0100
0010
0001
0100
0010
1000
0100
,
0100
0010
0001
1000
1000
0010
0100
0001
,
0001
0000
1000
0010
0010
0100
0001
1000
,
1000
0100
0001
0100
0100
1000
0010
0100
,
0100
0100
0010
1000
0001
1000
0100
0001
,
1000
0010
0001
1000
0010
0001
1000
0100
,
0001
0000
0001
1000
0010
0100
0010
1000
,
0100
0010
0001
1000
0010
0100
0010
1000
,
0100
0100
0100
0010
0001
1000
0010
0100
,
0010
1000
0100
0010
0001
1000
0010
0100
,
0010
0000
1000
1000
0001
0001
0100
0100
,
0010
0010
1000
1000
0001
0001
1000
1000
,
0001
0001
0100
0100
0010
1000
0100
0001
,
0100
1000
0010
0001
0010
1000
0100
0010
,
0001
0000
1000
0000
1001
0000
0001
0000
0101
0000
0001
0000
0001
0010
0000
0000
,
0011
0000
0000
0001
1000
0000
0010
0000
0100
0000
0010
1000
0001
0000
0010
0000
,
0100
0000
1000
0010
0100
0000
0010
0000
1000
0000
0001
0100
0010
0000
1000
0000
,
0100
0000
0000
0000
0010
0000
0100
0000
1000
0000
0010
0100
1000
0000
0100
0000
,
0001
0000
0010
0001
0100
0000
0010
0000
1000
0000
0100
0010
0001
0000
1000
0000
,
1001
0000
1000
0000
0010
0000
0100
0000
0010
0000
1000
0001
1000
0000
0010
0000
,
0100
0000
0001
0010
0100
0000
1000
0000
0010
0000
0100
0010
1000
0000
0100
0000
,
0010
0000
0000
0000
0001
0000
1000
0000
0010
0000
0100
0010
0100
0000
0010
0000
,
1000
0000
0100
0010
0100
0000
0010
0000
0001
0000
1000
0001
1000
0001
1000
0000
,
0001
1000
0001
0010
0100
0000
1000
0000
0010
0000
0100
0010
1000
0000
0100
0000
,
0010
0000
0001
1000
0010
0000
0100
0000
0100
0000
0010
1000
0100
0000
0010
0000
,
0010
0000
0000
0000
0001
0000
0100
0000
0010
0000
1000
0001
0100
0000
0010
0000
,
1000
0000
0100
0010
0001
0000
1000
0000
0010
0000
1000
0100
1000
0000
0010
0000
,
0101
0000
0001
0000
1000
0000
0010
0000
0100
0000
0010
1000
0100
0000
0010
0000
,
0001
0000
1000
0001
1000
0000
0100
0000
0010
0000
0001
0100
0010
0000
1000
0000
,
0100
0000
0000
0000
0010
0000
0001
0000
1000
0000
0010
1000
0100
0000
0010
0000
,
0010
0000
0001
1000
0001
0000
0100
0000
0100
0000
0010
0000
0010
0000
1000
0000
,
1000
0100
0000
0100
1000
0000
0000
0000
1000
0000
0010
0000
0100
0010
0000
0000
,
0220
0330
0000
0000
;

//---------------dance-single - ----------------
#NOTES:
     dance-single:
     :
     Medium:
     6:
     0.428,0.445,0.063,0.018,0.000,325.000,7.000,2.000,0.000,0.000,0.000,0.428,0.445,0.063,0.018,0.000,325.000,7.000,2.000,0.000,0.000,0.000:
0000
0000
0000
0000
1000
0000
0100
1000
,
0001
0000
0100
0010
1000
0000
0001
1000
,
0100
0000
1000
1000
0100
0100
0010
0010
,
0001
0001
0100
0100
0010
0010
1000
1000
,
0001
0001
1000
0000
0010
0000
0100
0010
,
0100
0000
0010
0000
1000
0000
0100
1000
,
0100
0000
1000
0000
0001
0000
0100
0001
,
0100
0000
0010
0000
1000
0000
0100
1000
,
0100
0000
1000
0000
0001
0000
0100
0001
,
0100
0000
0010
0000
1000
0000
0100
1000
,
0100
0000
1000
0000
0001
0000
0010
0100
,
1000
0001
0100
0010
,
1000
0000
0010
0000
0100
0000
0001
0010
,
0100
0000
1000
0000
0001
0000
0100
0001
,
0100
0000
0010
0000
1000
0000
0001
1000
,
0001
0000
0010
0000
0100
0000
1000
0001
,
0100
0000
0010
0000
1000
0000
0010
0100
,
0010
0000
1000
0000
0100
0000
0010
0001
,
0100
0000
0010
0000
1000
0000
0001
0100
,
0010
0000
0100
0000
0001
0000
0010
0100
,
1000
0000
0001
0000
0100
0000
0010
1000
,
0001
0000
1000
0000
0100
0000
1000
0001
,
0100
0000
0010
0000
1000
0000
0001
0010
,
0100
0000
1000
0000
0001
0000
0100
0001
,
0100
0000
0010
0000
1000
0000
0100
1000
,
0001
0100
0010
1000
,
1001
0000
0010
0000
0100
0000
0000
0001
,
0000
1000
0000
0100
0000
1000
0000
0001
,
0000
0100
0000
0010
0000
1000
0000
0100
,
0000
1000
0000
0001
0000
0100
0000
0010
,
0000
1000
0001
0000
0100
0000
0010
0000
,
1000
0100
1000
0001
,
0100
0010
1000
0100
,
1000
0001
0100
0010
,
1000
0000
0001
0000
0100
0000
0010
1000
,
0100
0000
1000
0000
0001
0000
0100
0001
,
0100
0000
0010
0000
1000
0000
0001
0100
,
0001
0000
1000
0000
0010
0000
0100
0001
,
0100
0010
0100
0000
0010
0000
1000
0100
,
1000
0000
0001
0000
0100
0000
0001
0100
,
0001
0000
1000
0000
0100
0000
0010
0001
,
0100
0000
0010
0000
1000
0000
0001
0100
,
0001
0000
1000
0000
0100
0000
1000
0100
,
1000
0000
0001
0000
0100
0000
0001
0100
,
0001
0000
1000
0000
0010
0000
0100
0010
,
0100
0000
0010
0000
1000
0000
0100
1000
,
0100
0000
1000
0000
0001
0000
0100
0001
,
0100
0000
0010
0000
1000
0000
0001
0100
,
0010
1000
0100
1000
,
0100
0000
1100
0000
0101
0000
0010
1000
,
0100
0000
1000
0000
0001
0000
0100
0001
,
0100
0000
0010
0000
1000
0000
0100
1000
,
0001
0000
0100
0000
0001
0000
0010
0100
,
1000
0000
0001
0000
0100
0000
0001
0100
,
0001
0000
1000
0000
0010
0000
0100
0001
,
0010
0000
0100
0000
1000
0000
0001
0100
,
0001
0000
0010
0000
0100
0000
1000
0001
,
0100
0000
0010
0000
1000
0000
0100
1000
,
0001
0000
0100
0000
0010
0000
1000
0001
,
0100
0000
0010
0000
1000
0000
0001
1000
,
0001
0000
0100
0000
0010
0000
1000
0010
,
1000
0000
0010
0000
0100
0000
0001
1000
,
0100
0000
0010
0000
0001
0000
0100
0010
,
0100
0000
0010
0000
1000
0000
0100
0010
,
0001
0000
0100
0000
0010
0000
1000
0001
,
1000
0101
1010
0101
,
0220
0330
0000
0000
0000
0000
0000
0000
;

//---------------dance-single - ----------------
#NOTES:
     dance-single:
     :
     Easy:
     3:
     0.196,0.237,0.009,0.018,0.000,150.000,1.000,2.000,0.000,0.000,0.000,0.196,0.237,0.009,0.018,0.000,150.000,1.000,2.000,0.000,0.000,0.000:
0000
1000
0100
0010
,
0001
0100
0010
1000
,
0001
1000
0001
0100
,
0010
1000
0100
1000
,
0001
0100
0000
0010
,
0000
1000
0000
0100
,
0000
1000
0000
0001
,
0000
0100
0000
0010
,
0000
1000
0000
0100
,
0000
1000
0000
0001
,
0000
0100
0000
0010
,
0000
1000
0000
0100
,
0000
0010
0000
0001
,
0000
0100
0000
0010
,
0000
1000
0000
0100
,
0000
1000
0000
0001
,
0000
0100
0000
0010
,
0000
1000
0000
0100
,
0000
1000
0000
0001
,
0000
0100
0000
0010
,
0000
1000
0000
0100
,
0000
1000
0000
0001
,
0000
0100
0000
0001
,
0000
0010
0000
1000
,
0000
0010
0000
0001
,
0000
0100
0000
0010
,
0000
1000
0000
1000
,
0000
0100
0000
0100
,
0000
1000
0000
1000
,
0000
0001
0000
0001
,
0000
0100
0100
0100
,
0100
0100
0100
0100
,
0100
0010
0010
0010
,
0010
0010
0010
0010
,
0010
1000
0000
1000
,
0000
0001
0000
0001
,
0000
0100
0000
0100
,
0000
0100
0000
0100
,
0000
0010
0000
0010
,
0000
1000
0000
0001
,
0000
0100
0000
0001
,
0000
0010
0000
0100
,
0000
1000
0000
0001
,
0000
0100
0000
0010
,
0000
1000
0000
0100
,
0000
1000
0000
0001
,
0000
0100
0000
0010
,
0000
1000
0000
0100
,
0000
1000
0000
0001
,
0000
0100
0000
0010
,
0000
1000
0000
0100
,
0000
1000
0000
0001
,
0000
0100
0000
0001
,
0000
1000
0000
0100
,
0000
1000
0000
0001
,
0000
0100
0000
0010
,
0000
1000
0000
0001
,
0000
0100
0000
1000
,
0000
0100
0000
0001
,
0000
1000
0000
0100
,
0000
1000
0000
0001
,
0000
0100
0000
0010
,
0000
1000
0000
0100
,
0000
1000
0000
0001
,
0000
0100
0000
0010
,
0000
1000
1000
1000
,
2002
3003
0000
0000
0000
0000
0000
0000
;
