#TITLE:Tik Tok;
#SUBTITLE:;
#ARTIST:Ke$ha;
#TITLETRANSLIT:;
#SUBTITLETRANSLIT:;
#ARTISTTRANSLIT:;
#GENRE:;
#CREDIT:;
#BANNER:Tik Tok.png;
#BACKGROUND:;
#LYRICSPATH:;
#CDTITLE:;
#MUSIC:01-Tik Tok (Original Version).ogg;
#OFFSET:-0.627;
#SAMPLESTART:32.150;
#SAMPLELENGTH:14.920;
#SELECTABLE:YES;
#BPMS:0.000=120.000,55.000=60.000,58.000=120.000,178.000=63.000,179.000=120.000;
#STOPS:28.000=1.500
,150.000=1.500
,175.250=1.500
;
#BGCHANGES:;
#KEYSOUNDS:;

//---------------dance-single - ----------------
#NOTES:
     dance-single:
     :
     Hard:
     7:
     0.456,0.423,0.374,0.107,0.111,356.000,49.000,14.000,1.000,0.000,0.000,0.456,0.423,0.374,0.107,0.111,356.000,49.000,14.000,1.000,0.000,0.000:
0000
0000
0000
0000
,
0000
0000
0000
0000
,
1000
0000
0000
0001
0000
0000
0100
0000
0000
0000
0000
0000
0000
0000
0010
0000
,
0100
0000
0000
0010
0000
0000
1000
0000
0000
0000
0100
0000
0000
0010
0000
0000
,
0001
0000
0000
1000
0000
0000
0001
0000
0000
0000
0000
0000
0000
0000
0001
0000
,
1000
0000
0000
0010
0000
0000
0100
0000
0000
0000
0010
0000
0000
1000
0000
0000
,
0001
0000
0000
1000
0000
0000
0001
0000
0000
0000
0000
0000
0000
0000
0001
0000
,
0000
0000
1001
0001
0100
0010
1010
0000
,
1010
0000
0010
1000
0100
0010
0011
0000
,
1100
0000
1000
0001
0100
0010
0110
0000
,
1001
0000
0000
0000
1000
0000
0000
1000
0000
0000
1000
0000
0000
0000
0001
0000
,
0000
0001
0000
0000
1000
0000
0100
0000
0010
0000
0001
0000
1002
0000
0000
0000
,
1003
0000
0001
0100
0010
1000
1100
0000
,
0011
0000
0001
1000
0010
0100
0020
0000
,
0000
0200
0000
0000
0000
0000
0000
0000
0000
0000
0330
0000
0110
0000
0000
0000
1001
0000
0000
0000
0000
0000
0000
0000
0100
0000
0000
0000
1000
0000
0000
0000
,
0001
0000
0001
0010
1000
0010
0001
0100
,
1000
0000
0101
0000
0011
0000
0100
1000
,
0010
0000
0010
0100
0010
1000
0200
0000
,
0310
0000
0011
0000
1100
0000
0010
1000
,
0001
0000
0001
0100
1000
0100
0001
0000
,
0020
0000
0000
0000
0130
0000
0000
0000
1000
0000
0010
0100
0000
0010
0100
0000
,
0110
0000
0000
0000
1001
0000
0000
0000
1000
0000
0001
0100
0000
0010
1000
0000
,
0100
0000
1100
0000
0011
0000
0010
0001
,
1000
0000
0010
0100
0010
1000
0001
0010
,
0100
0000
2000
0000
3001
0000
0010
0001
,
0100
0000
0010
1000
0001
0010
0200
0000
,
0310
0000
1001
0000
0110
0000
0010
1000
,
0001
0000
0010
0100
1000
0001
0100
0000
,
0110
0000
0000
0000
1001
0000
0000
0000
0001
0000
0010
0100
0000
0100
0010
0000
,
0011
0000
0000
0000
0101
0000
0000
0000
0010
0000
1000
0100
0000
1000
0100
0000
,
0010
0001
0001
0000
1000
0000
0001
0010
,
0100
0000
1000
0001
0100
0010
0100
0010
,
0000
1000
0100
0010
0010
0010
0100
1000
,
0001
0100
1000
0100
0001
0010
0100
2000
,
0000
3001
0100
0010
1000
0001
0010
0100
,
1000
0000
0001
0010
1000
0010
0001
2000
,
0000
0001
3000
0000
0001
0000
0100
0000
0010
0000
0010
0000
1000
0000
0100
0000
,
0010
0100
1000
0001
0100
0000
0100
0010
,
1000
0001
0011
0000
0011
0000
0001
1000
,
0010
1000
1010
0000
1010
0000
0100
0010
,
1000
0000
0001
0000
0011
0000
0000
0000
1100
0000
0000
0000
1000
0000
0000
0001
,
0000
0100
0000
0100
0100
0100
0010
0001
,
0010
1000
1100
0000
1100
0000
1000
0001
,
0100
0000
0010
0000
0100
0000
0000
0000
0100
0000
0010
0000
0100
0010
0000
0000
,
0100
0000
0010
0000
0100
0000
0001
0000
2000
3000
1001
0000
0110
0000
0000
0000
,
0001
0010
0100
0000
1000
0010
0100
0010
,
1000
0001
0010
0000
1100
0000
0011
0000
,
0010
0100
0010
0000
0001
0100
0010
1000
,
0100
0010
0001
0000
1001
0000
0110
0000
,
0001
0010
1000
0000
0010
0001
0100
0010
,
2000
0000
0000
0000
3200
0000
0000
0000
0310
0000
0000
0000
0001
0000
1000
0010
,
0000
0010
0100
0000
0010
0000
0000
0000
1001
0000
0000
0000
1000
0000
0001
0010
,
0000
0100
0010
0000
0001
0000
0000
0000
1001
0000
0000
0000
0110
0000
0000
0000
,
1000
0010
0100
0000
0010
1000
0100
0001
,
0100
1000
0010
0000
0110
0000
1001
0000
,
1000
0001
0100
0000
0010
1000
0001
0010
,
0100
1000
0100
0000
1100
0000
0011
0000
,
0001
0100
0001
0000
1000
0010
0100
0010
,
2000
0000
0000
0000
3200
0000
0000
0000
0310
0000
0000
0000
0001
0000
0100
0010
,
0000
1000
0100
0000
0010
0000
0000
0000
1001
0000
0000
0000
0010
0000
1000
0001
,
0000
0010
0100
0000
1000
0000
0000
0000
0001
0000
0000
0000
0110
0000
0000
0000
,
0000
0000
0000
0000
0000
M000
0000
0000
;

//---------------dance-single - ----------------
#NOTES:
     dance-single:
     :
     Medium:
     5:
     0.329,0.347,0.297,0.038,0.027,258.000,39.000,5.000,0.000,0.000,0.000,0.329,0.347,0.297,0.038,0.027,258.000,39.000,5.000,0.000,0.000,0.000:
0000
0000
0000
0000
,
0000
0000
0000
0000
,
1000
0000
0000
0001
0000
0000
0100
0000
0000
0000
0000
0000
0000
0000
0010
0000
,
0100
0000
0000
0010
0000
0000
1000
0000
0000
0000
0100
0000
0000
0010
0000
0000
,
0001
0000
0000
1000
0000
0000
0001
0000
0000
0000
0000
0000
0000
0000
0001
0000
,
1000
0000
0000
0010
0000
0000
0100
0000
0000
0000
0010
0000
0000
1000
0000
0000
,
0001
0000
0000
1000
0000
0000
0001
0000
0000
0000
0000
0000
0000
0000
0001
0000
,
0000
1000
0010
0100
,
0100
0010
1000
0100
,
0100
0000
1000
0001
0100
0000
0010
0000
,
0010
0010
1000
0100
,
0010
0000
0001
0100
1000
0000
0110
0000
,
1001
0000
0100
1000
0001
0000
0101
0000
,
1010
0010
1000
2002
,
0000
0000
3003
0110
0110
0000
0001
1000
,
0100
0000
1000
0000
0001
0000
0010
0100
,
1000
0000
0101
0000
1010
0000
0100
1000
,
0001
0100
0010
0010
,
1000
0000
1010
0000
0101
0000
0010
1000
,
0100
1000
0001
1000
,
0001
0100
0010
1000
,
1100
0001
0100
0010
,
1001
0000
1100
0000
0011
0000
0001
0100
,
1000
0000
0010
0000
1000
0000
0100
1000
,
0001
0000
0101
0000
1010
0000
0100
1000
,
0001
0000
0100
0010
1000
0000
0001
0000
,
1100
0000
0101
0000
1010
0000
0100
1000
,
0001
0100
0010
0001
,
1000
0100
1001
0110
,
0100
0000
0001
0000
1000
0000
0010
0100
,
0001
1000
0100
1000
,
0001
0000
0100
0000
0100
0000
0010
1000
,
0000
0100
1000
0000
0001
0000
0100
0000
,
0001
0000
0010
0000
0100
0000
1000
0100
,
0000
1000
0001
0000
0100
0000
0010
0000
,
1000
0000
0001
0000
0010
0000
0100
1000
,
0000
1000
0001
0000
0100
0000
0010
0000
,
1000
0001
1001
0001
,
0100
0000
0010
0000
0100
0000
0010
1000
,
0100
0000
1100
0000
0101
0000
0100
1000
,
0001
0101
1100
0001
,
0100
0000
0010
0000
0010
0000
1000
0100
,
1000
0101
1100
0001
,
0100
0010
1000
0001
,
1000
0001
2000
3001
,
0100
0010
1000
0100
,
0010
0001
0100
1000
,
0100
0010
1000
0000
0100
1000
0001
0000
,
0101
1100
1010
0101
,
0010
1000
0100
0000
1000
0000
0001
0000
,
0010
0100
1000
0002
,
0000
1003
0000
0002
,
0000
1003
0100
1000
,
0001
0100
0010
0000
0010
0000
1100
0000
,
0001
0100
1010
0101
,
0001
1000
0100
0000
0001
0000
0010
0000
,
0100
1000
0001
0000
0101
0000
1100
0000
,
0001
0100
0010
0000
0010
0000
1000
0000
,
0001
0000
0100
0000
0010
0000
1010
0001
,
0000
1000
0100
0000
0000
0000
1000
0000
,
0001
0100
0000
0001
;

//---------------dance-single - ----------------
#NOTES:
     dance-single:
     :
     Easy:
     3:
     0.193,0.208,0.114,0.015,0.000,160.000,15.000,2.000,0.000,0.000,0.000,0.193,0.208,0.114,0.015,0.000,160.000,15.000,2.000,0.000,0.000,0.000:
0000
0000
0000
0000
,
0000
0000
0000
0000
,
0000
0000
0000
0000
,
0000
0000
0000
0000
,
0000
0000
0000
0000
,
0000
0000
0000
0000
,
0000
0000
0000
0000
,
0000
1000
1000
0010
,
0010
0100
0100
0001
,
0001
1000
1000
0100
,
0100
0010
0010
0000
,
0001
1000
1000
0100
,
0100
0010
0010
1000
,
1000
0001
0001
2000
,
0000
0000
3001
0100
,
0010
0000
0010
1000
,
0001
0001
1000
0000
,
0100
0000
1000
0010
,
0100
1010
0101
0000
,
0010
0000
1000
0100
,
1000
0000
0001
0001
,
0001
0000
1000
1000
,
1000
1001
0110
0000
,
0010
0000
1000
0100
,
1000
0001
1001
0000
,
0010
0000
1000
0100
,
1000
1001
0110
0000
,
0010
0000
1000
0001
,
0100
0000
0010
0010
,
0010
0000
0100
0100
,
0100
0000
1000
0000
,
0001
0000
0100
0100
,
0100
0000
0010
0000
,
1000
0000
0010
0100
,
0010
0000
1000
0000
,
0100
0000
0001
1000
,
0001
0000
0100
0000
,
0010
0000
1001
0001
,
0000
1000
1000
0000
,
0000
0001
0001
0100
,
0000
0010
0010
1000
,
0000
0100
0000
1000
,
1000
0001
0001
0100
,
0100
0010
0010
1000
,
0001
0000
2000
3001
,
0100
0100
0000
0010
,
0000
1000
0100
1100
,
0000
0001
0000
0100
,
0010
0010
0110
1001
,
0000
0100
0000
1000
,
0001
0100
0000
0010
,
0010
0010
0000
0100
,
0100
0100
0000
1010
,
0000
0001
0000
1000
,
0100
1000
0001
0100
,
0000
0010
0000
1000
,
0100
1000
1001
0110
,
0000
0001
0000
1000
,
0010
0100
0000
0010
,
0010
0010
0000
1000
,
1000
1000
0000
1001
;
