#TITLE:THRILLER;
#SUBTITLE:(The Speed Mix);
#ARTIST:DJ MOONRAKER;
#TITLETRANSLIT:;
#SUBTITLETRANSLIT:;
#ARTISTTRANSLIT:;
#GENRE:;
#CREDIT:;
#BANNER:Thriller.png;
#BACKGROUND:;
#LYRICSPATH:;
#CDTITLE:;
#MUSIC:ARD 1372 - DJ MOONRAKER - THRILLER (The Speed Remix).ogg;
#OFFSET:-6.133;
#SAMPLESTART:24.470;
#SAMPLELENGTH:14.940;
#SELECTABLE:YES;
#BPMS:0.000=156.010;
#STOPS:80.000=0.385
,80.500=0.385
,228.250=0.192
,228.750=0.192
,231.000=0.048
,231.125=0.048
,231.250=0.048
,231.375=0.048
,231.500=0.048
,231.625=0.048
,231.750=0.048
,231.875=0.048
,234.000=0.096
,234.250=0.096
,234.500=0.096
,234.750=0.096
,237.000=0.192
,237.250=0.192
;
#BGCHANGES:;
#KEYSOUNDS:;

//---------------dance-single - ----------------
#NOTES:
     dance-single:
     :
     Hard:
     8:
     0.557,0.622,0.288,0.219,0.129,341.000,29.000,22.000,0.000,0.000,0.000,0.557,0.622,0.288,0.219,0.129,341.000,29.000,22.000,0.000,0.000,0.000:
0000
0000
0000
0000
,
0000
0000
0000
0000
,
1000
0001
1000
0000
0010
0000
0100
0000
0001
0000
1000
0001
0000
1000
0001
1000
,
0000
0010
1000
0000
0100
0000
0010
0000
0001
0000
1000
0001
0000
1000
0001
0100
,
0000
0010
1000
0000
0100
0000
0001
0000
0100
0000
1000
0010
0000
0100
0010
0000
,
0110
0010
1000
0100
0010
0000
0001
0000
,
0100
0010
1000
0100
0010
0000
0001
0000
,
0100
1000
0100
0010
1000
0000
0100
0000
,
0001
0100
1000
0010
0100
0000
0010
0000
,
0100
1000
0100
0010
0001
0000
0010
0000
,
0010
0100
0010
1000
0100
0000
0010
0000
,
0001
0100
1000
0100
0010
0000
1000
0000
,
1001
0000
0000
0011
0000
0000
0110
0000
0000
1100
0000
0000
1010
0000
0110
0000
,
0102
0000
0000
2000
0000
0000
0000
0000
3003
0000
0000
0000
1000
0000
0010
0000
,
0200
0302
0023
0000
,
0130
0001
0100
0000
1000
0010
1000
0000
,
0010
0000
0100
0000
0001
0100
0010
0000
,
1020
0000
0000
2000
0000
0000
0000
0000
0000
0000
3030
0000
1000
0000
0001
0000
,
0002
0000
0203
0000
0320
0000
0000
0030
,
0010
1000
0100
0000
1000
0001
0100
0000
,
0110
1001
0110
0000
0010
0000
1000
0000
,
0010
0100
0001
0000
1000
0000
0100
0000
,
0010
0001
0100
0000
1100
0000
0100
0000
,
0010
1000
0100
0000
0010
0000
0001
0000
,
0001
0100
0010
0000
0010
0000
1000
0000
,
0100
0010
0001
0000
0001
0000
0100
0000
,
1000
0100
0010
0000
1000
0000
0100
0000
,
1000
0001
0100
0000
1010
0000
0001
0000
,
0100
1000
0100
0010
1000
0000
0100
0000
,
1000
0000
0001
0100
0020
0000
1030
0000
,
1010
0000
1000
0000
0100
0010
0001
0100
,
1000
0100
0010
1000
0100
0000
0010
0000
,
0001
0000
0100
0000
1000
0100
0010
0001
,
0010
1000
0100
0001
1000
0010
0001
0100
,
1100
0000
0100
0000
0010
1000
0100
0010
,
0001
0100
1000
0001
0010
1000
0100
0010
,
0001
0100
0010
1000
0101
0000
0010
0000
,
1000
0000
0100
0000
0010
0001
0100
1000
,
0001
0010
1000
0100
1000
0001
0001
0000
,
0100
0000
0000
0000
0010
0000
1000
0000
0100
1000
0000
1000
0000
1000
0000
1000
,
0000
0000
0101
0000
0010
1000
0100
0010
,
0001
0100
1000
0001
0010
1000
0100
0001
,
1000
0010
0001
0100
1000
0001
0010
1000
,
0100
0001
1000
0010
0001
0100
1000
0001
,
0010
0000
1000
0000
0100
0000
1000
0000
2001
0000
0000
0020
0000
0000
0000
0000
,
3030
0000
0000
0000
0010
0000
1000
0000
0200
0000
0000
0000
0020
0300
0000
0000
,
0002
0030
0000
0000
0000
0000
0000
0000
0103
0000
0010
0000
0100
0000
0000
0000
,
0010
1000
0100
1000
0001
0100
0010
1000
,
0001
0000
0000
0000
0100
0000
0000
0000
2010
0000
0000
0002
0000
0000
0000
0000
,
0000
3003
0020
2030
,
0200
3000
0000
0000
0000
0300
0000
0000
0010
0000
0001
0000
0100
0000
1000
0000
,
0100
0010
1000
0001
0000
0001
0101
0000
,
0010
1010
0000
0001
0201
0000
0010
0000
,
1000
0000
0000
0000
0010
0300
0000
0000
0010
0000
1000
0000
0100
0000
0000
0000
,
1000
0001
0100
0000
0001
0000
1100
0000
,
0001
0100
0010
0000
0101
0000
1010
0000
,
1100
0000
0101
0000
0010
1000
0100
0010
,
0001
0000
0001
0000
1000
0000
0000
0000
0001
0000
0000
0000
1000
0001
0010
0100
,
1000
0000
0000
0000
0010
0000
0000
0000
1000
0010
0100
0001
1000
0000
0000
0000
,
0010
0000
0000
0000
0010
1000
0100
0000
0110
0000
0000
0000
0000
0000
0000
0000
;

//---------------dance-single - Copied from----------------
#NOTES:
     dance-single:
     Copied from:
     Challenge:
     11:
     0.914,1.000,0.338,0.229,1.000,586.000,34.000,23.000,0.000,0.000,0.000,0.914,1.000,0.338,0.229,1.000,586.000,34.000,23.000,0.000,0.000,0.000:
0000
0000
0000
0000
,
0000
0000
0000
0000
,
1000
0001
1000
0000
0010
0000
0100
0000
0001
0000
1000
0001
0000
1000
0001
1000
,
0000
0010
1000
0000
0100
0000
0010
0000
0001
0000
1000
0001
0000
1000
0001
0100
,
0000
0010
1000
0000
0100
0000
0001
0000
0100
0000
1000
0010
0000
0100
0010
0000
,
0110
0000
1000
0000
0001
0000
1000
0000
0001
0000
0000
0001
0000
0000
0100
0000
,
0010
1000
0010
1000
0100
0000
1000
0000
0001
0000
0000
0100
0000
0000
0010
0000
,
0100
0010
1000
0010
1000
0000
0001
0000
0100
0000
0000
0010
0000
0000
0100
0000
,
0010
1000
0100
1000
0001
0000
0100
0000
0010
0000
0000
0100
0000
0000
0010
0000
,
1000
0100
1000
0001
0100
0000
0001
0000
0100
0000
0010
0100
0000
0010
0100
0010
,
1000
0000
0100
0000
1000
0000
0001
0000
0100
0000
0010
1000
0000
0010
1000
0001
,
0100
0000
0010
0000
1000
0000
0001
0000
1000
0000
1000
0001
0000
0001
1000
0000
,
1001
0000
0000
0011
0000
0000
0110
0000
0000
1100
0000
0000
1010
0000
0110
0000
,
0102
0000
0000
2000
0000
0000
0000
3000
1003
0010
0100
0001
1000
0100
0010
0001
,
0200
0000
0000
0000
0302
0000
0000
0000
0013
0000
0001
1000
0010
0100
0010
0000
,
0200
0000
0000
0000
0310
1000
0001
0000
0000
0011
0000
0000
1001
0000
1000
0001
,
0010
0000
0100
0010
0001
1000
0010
0000
0000
1001
0000
0000
1010
0000
0000
0000
,
1020
0000
0000
2000
0000
0000
0000
0000
0000
3000
1030
0100
1000
0100
1000
0000
,
2000
0000
0000
0000
3200
0000
0000
0000
0320
0000
0031
0010
0100
1000
0001
0000
,
0200
0000
0300
0010
1000
0100
0010
0000
0000
1001
0000
0000
1010
0000
0000
0000
,
0110
0000
1001
0000
0110
0000
0000
0000
1000
0010
0100
0001
0000
1000
0010
0100
,
0010
1000
0100
0010
0000
0001
1000
0010
0100
0010
1000
0100
0010
0001
0100
0010
,
1000
0100
0010
0001
0000
1000
0010
0100
0001
1000
0010
0100
0000
0010
1000
0100
,
0010
0100
1000
0010
1000
0100
1000
0010
1000
0100
0010
0001
1000
0100
0010
0001
,
0100
0001
0010
0001
0100
0010
1000
0100
0010
0001
0010
0001
0100
0010
1000
0010
,
1000
0100
0010
0100
0010
0001
1000
0001
1000
0010
1000
0010
1000
0100
1000
0100
,
0010
0001
0100
0010
0000
0010
1000
0100
0010
0001
1000
0010
1000
0100
0010
0001
,
1000
0100
0010
0001
0010
0100
1000
0001
0010
0100
1000
0010
0100
0001
1000
0010
,
0100
0001
1000
0010
0100
0001
0010
0100
1000
0000
0000
0000
0001
0000
0000
0000
,
0100
0000
0010
0000
0100
0000
0010
1000
0000
0000
0100
0000
1000
0000
0001
0000
,
0110
0000
0010
0000
1000
0100
1000
0100
,
1000
0000
0001
0000
1000
0000
0100
1000
0000
0000
0000
0000
1000
0000
0100
0000
,
1000
0001
0100
0010
0101
0000
0010
1000
,
0100
0000
1000
0000
0001
0000
0010
0001
0000
0000
0100
0000
0010
0000
1000
0000
,
0001
0000
1100
0000
0001
0100
0010
1000
,
0001
0000
1000
0000
0100
0000
1000
0001
0000
0100
0010
0000
0100
0000
0001
0000
,
1000
0000
0100
0000
1000
0000
0001
0100
0000
0000
0010
0000
0100
0000
0010
1000
,
0100
1000
0001
0100
0010
1000
0001
0100
,
0010
1000
0100
1000
0001
0100
0001
0110
,
0110
0000
0100
0000
0001
0000
1000
0000
0100
1000
0000
1000
0000
1000
0000
1000
,
0001
0000
0001
0000
0100
0000
0010
1000
0000
0000
1000
0000
0001
0000
0000
0000
,
0010
0100
0001
1000
0100
1000
0001
0100
,
0010
1000
0001
0100
1000
0001
0010
1000
,
0100
1000
0001
0100
0010
1000
0001
0010
,
0100
0000
1000
0000
0010
0000
0100
0000
2001
0000
0000
0020
0000
0000
0000
0030
,
3010
1000
0100
0010
0001
1000
0100
0000
0200
0000
0000
0000
0020
0300
0000
0000
,
0031
1000
0010
1000
0010
0100
0001
0000
0100
0000
0010
0000
0100
0000
0010
0000
,
0000
1001
0000
0000
0110
0000
0000
0000
0001
1000
0100
0010
0001
1000
0010
0100
,
0000
1001
0000
0000
1001
0000
1000
0000
2010
0000
0000
0002
0000
0000
0000
0000
,
0003
0000
0001
0010
3100
1000
0001
0000
0002
0000
0000
0000
2003
0000
0000
0000
,
0200
3000
1300
0100
1000
0100
0010
0000
0010
0000
0001
0000
0100
0000
1000
0000
,
0100
0010
1000
0001
1000
0001
0101
0110
,
0010
0000
1010
0000
1001
0000
0001
0000
0001
0010
0100
1000
0000
0010
1000
0100
,
0010
0001
1000
0010
0100
0010
0100
0010
1000
0100
0010
0001
1000
0100
0010
0100
,
1000
0010
0100
0001
1000
0010
0100
0001
0100
0010
1000
0100
0010
0100
1000
0010
,
0100
0010
1000
0010
1000
0100
1000
0100
0010
0100
0010
0001
0100
0010
0100
0010
,
1000
0100
0010
0001
1000
0010
0100
0010
1000
0100
0010
0100
1000
0010
0100
0001
,
1000
0000
0001
0000
1000
0000
0001
0000
1000
0000
0100
0000
0010
0000
0001
0000
0100
0000
0010
0000
1000
0000
0100
0000
1000
0100
0010
0001
1000
0100
0010
0001
,
1000
0010
0100
0001
0010
0100
1000
0010
1000
0010
0100
0001
1000
0010
0100
0010
,
1000
0000
0100
0000
0010
0000
0001
0000
0020
0030
0002
0003
0200
0000
0300
0000
0110
0000
0000
0000
0000
0000
0000
0000
0000
0000
0000
0000
0000
0000
0000
0000
;

//---------------dance-single - ----------------
#NOTES:
     dance-single:
     :
     Medium:
     6:
     0.411,0.414,0.139,0.020,0.010,273.000,14.000,2.000,0.000,0.000,0.000,0.411,0.414,0.139,0.020,0.010,273.000,14.000,2.000,0.000,0.000,0.000:
0000
0000
0000
0000
,
0000
0000
0000
0000
,
0000
0000
0000
0000
,
1000
0000
0010
0000
0100
0010
0100
0000
,
0010
0000
1000
0000
0100
1000
0100
0000
,
1001
0000
0010
0000
0100
0010
0100
0000
,
0010
0000
1000
0000
0100
1000
0100
0000
,
1000
0000
0001
0000
0100
0001
0100
0000
,
0010
0000
1000
0000
0100
1000
0100
0000
,
1000
0000
0010
0000
0100
0010
0100
0000
,
0001
0000
1000
0000
0100
0010
0001
0000
,
0100
0000
0010
0000
1000
0100
1000
0000
,
0001
0000
0000
0010
0000
0000
0010
0000
0000
0100
0000
0000
0100
0000
1000
0000
,
0001
0200
0000
0000
0000
0000
0000
0300
,
0010
1000
0200
0000
,
1300
0000
0001
0000
0000
0110
0000
0110
,
0000
0010
1000
0000
0000
0100
1000
0000
,
0001
0100
0000
0010
,
1000
0100
1000
0001
,
0100
0010
1000
0001
,
1000
0001
1000
0000
0010
0000
0100
0000
,
0010
0000
1000
0000
0100
0010
0001
0000
,
0100
0010
1000
0000
0100
0000
1000
0000
,
0001
0100
1000
0000
1000
0100
0001
0000
,
0001
0010
0100
0000
1000
0000
0001
0000
,
0100
0010
1000
0000
0010
0100
0010
0000
,
1000
0001
1000
0000
0100
0000
1000
0000
,
0001
0100
0001
0000
0010
0100
1000
0000
,
1000
0001
0100
0000
0010
0000
1000
0000
,
0001
0000
1000
0100
1000
0000
0001
0000
,
0101
0000
0010
0000
1000
0001
1000
0000
,
0100
0000
1000
0000
0010
0100
0010
0000
,
1000
0100
1000
0000
0101
0000
0010
0000
,
1000
0000
0001
0100
0010
0000
1000
0000
,
1100
0000
1000
0000
0001
0100
0010
0000
,
1000
0001
0010
0100
,
1000
0001
0100
0010
1000
0000
0100
0000
,
1000
0000
0001
0000
0100
0010
1000
0000
,
0001
0010
0100
1000
,
1100
0000
1000
0000
0001
0100
0100
0100
,
0100
0010
1000
0100
,
1000
0001
0100
0000
0010
0000
1000
0000
,
0001
0010
0100
0000
1000
0000
0001
0000
,
0100
0100
0100
0000
0010
0000
1000
0000
,
0100
1000
0001
0000
0101
0000
1010
0000
,
0010
1000
0100
0000
1100
0000
0011
0000
,
0101
0000
0010
0000
1000
0100
1000
0000
,
0001
0000
0100
0000
0010
1000
0100
0000
,
1000
0001
0100
0010
,
1000
0000
0100
1000
0001
0000
0100
0000
,
0010
1000
0001
0010
,
0100
0000
1000
0000
0001
0100
0010
0000
,
0010
1000
0100
0000
1000
0000
0001
0000
,
0100
0010
1000
0000
0010
0000
0100
0000
,
0001
0010
0100
0000
1000
0000
0001
0000
,
0100
0010
1000
0000
0001
0000
0010
0000
,
0100
1000
0001
1000
,
0001
0001
1000
0000
0010
0000
0100
0100
,
0100
0000
0010
0000
1000
1000
1000
0000
,
0001
0110
0110
0000
;

//---------------dance-single - ----------------
#NOTES:
     dance-single:
     :
     Easy:
     3:
     0.212,0.207,0.060,0.060,0.000,137.000,6.000,6.000,0.000,0.000,0.000,0.212,0.207,0.060,0.060,0.000,137.000,6.000,6.000,0.000,0.000,0.000:
0000
0000
0000
0000
,
0000
0000
0000
0000
,
0000
0000
0000
0000
,
1000
0010
0100
0000
,
1000
0100
1000
0000
,
1001
0000
0001
0000
,
0100
0000
0010
0000
,
1000
0000
0001
0000
,
1000
0000
0100
0000
,
1000
0000
0001
0000
,
0100
0000
0010
0000
,
1000
0000
0001
0000
,
1001
0000
1001
0000
,
1001
0000
0001
0000
,
0100
0010
1000
0000
,
0001
0000
1000
0000
,
0100
1000
0001
0000
,
0001
0000
0100
0000
,
0010
1000
0001
0000
,
0001
0000
1000
0000
,
2000
3000
0001
0000
,
0100
0000
0010
0000
,
1000
0000
0100
0000
,
1000
0000
0001
0000
,
0100
0000
0010
0000
,
1000
0000
0001
0000
,
1000
0000
0100
0000
,
1000
0000
0001
0000
,
0100
0000
0010
0100
,
0010
0000
0010
1000
,
0100
0000
1000
0001
,
0100
0000
0001
1000
,
0100
0000
1000
0010
,
1000
0000
0010
0100
,
0020
0000
0130
0001
,
0100
0000
0001
1000
,
0100
0000
0100
0000
,
0100
0000
1000
0001
,
0100
0000
0001
1000
,
1001
0000
1000
1000
,
1000
0000
0001
0100
,
0001
0000
0001
1000
,
0010
0000
0010
0100
,
0010
0000
0010
1000
,
0001
0000
1001
0000
,
0001
0000
0001
0100
,
0001
0000
0001
0000
,
1000
0000
0100
0000
,
1000
0000
0010
0100
,
0000
0000
0010
1000
,
0001
0000
0001
1000
,
0100
0000
0100
0000
,
1000
0000
0001
0100
,
0001
0000
0001
1000
,
0001
0000
0001
0000
,
1000
0000
0010
0000
,
0100
0000
0010
0000
,
0020
0030
0000
2000
,
3000
0000
0002
0003
,
0000
2000
3000
0000
;
