#TITLE:Teddy Bear;
#SUBTITLE:;
#ARTIST:smile.dk;
#TITLETRANSLIT:;
#SUBTITLETRANSLIT:;
#ARTISTTRANSLIT:;
#GENRE:;
#CREDIT:;
#BANNER:Teddy Bear.png;
#BACKGROUND:;
#LYRICSPATH:;
#CDTITLE:;
#MUSIC:smile dk - Teddy Bear.ogg;
#OFFSET:-0.115;
#SAMPLESTART:37.990;
#SAMPLELENGTH:13.180;
#SELECTABLE:YES;
#BPMS:0.000=138.040;
#STOPS:;
#BGCHANGES:;
#KEYSOUNDS:;

//---------------dance-single - ----------------
#NOTES:
     dance-single:
     :
     Challenge:
     9:
     1.000,1.000,0.381,1.000,0.362,839.000,40.000,141.000,0.000,0.000,0.000,1.000,1.000,0.381,1.000,0.362,839.000,40.000,141.000,0.000,0.000,0.000:
0000
0000
0000
0001
1000
0000
0000
0000
1000
0000
0001
0000
0100
0000
0010
0000
,
1000
0100
0010
0001
0100
0010
1000
0001
,
0010
1000
0010
0001
0100
0010
1000
0100
,
0010
0001
1000
0010
0100
0010
1000
0100
,
0010
0000
0100
0000
1000
0000
0001
0000
0100
0010
1000
0100
0010
0000
0001
0000
,
1000
0010
0100
0000
0010
0000
0100
0000
0010
0000
1000
0100
1000
0000
1000
0000
,
0002
0000
0000
0000
0103
0000
0000
0000
0010
1000
0001
0010
0100
0000
1000
0000
,
0001
0100
0001
0000
0010
0000
0100
0000
2000
0000
0001
0000
3001
0000
0200
0000
,
0010
0000
0310
0000
0110
0000
0000
0000
0010
1000
0001
0010
0001
0000
1000
0000
,
0001
0100
0001
0000
0100
0000
0010
0000
1000
0000
0001
0000
0001
0000
0001
0000
,
0002
0000
0000
0000
1003
0000
0000
0000
1000
0001
0100
0001
1000
0000
0010
0000
,
0100
0001
1000
0000
0020
0000
0000
0000
0130
0000
0010
0100
0000
0010
0000
0110
,
0000
0000
0001
0000
0001
0000
0001
0000
1000
0010
0100
0010
1000
0000
0001
0000
,
0100
0010
0110
0000
0010
1000
0001
0010
,
1000
0010
0001
0000
0000
0001
1000
0010
,
0100
0010
0010
0100
0002
0000
0000
1003
,
0020
0000
0000
0000
0030
0000
0000
0000
0100
0010
1000
0001
0010
0000
0100
0000
,
0010
0001
0011
0000
0001
1000
0010
0100
,
0010
1000
1001
0000
0000
0000
2001
0000
,
3001
0100
1000
0100
0002
0000
0000
1003
,
0200
0000
0000
0000
0000
0000
0000
0000
0310
0000
0000
0011
0000
0000
0011
0000
,
0000
0001
1000
0000
0010
0100
0010
0000
0100
0000
0010
0000
1000
0000
0001
0000
,
0020
0000
0030
0000
0100
1000
0001
0100
,
0020
0000
0030
0100
0010
1000
0001
0010
,
0100
0100
1000
0001
0200
0000
0300
0010
,
0100
0010
1000
0000
0001
0000
0001
0000
0010
0000
0100
0000
0010
0000
1000
0000
,
0020
0000
0030
0001
1000
0010
0100
0010
,
0200
0000
0300
0001
1000
0100
1000
0001
,
0100
1000
0100
0001
1000
0000
0001
0100
,
0101
1010
2000
3002
,
0023
0000
0230
0000
2300
0000
3001
0100
,
0010
1000
0001
0010
0100
0000
0000
0000
0000
0000
0000
0000
0200
0000
0010
0000
,
0310
0100
0010
0001
2000
0000
3001
0100
,
0010
1000
0001
1000
0100
0000
0000
0000
0200
0000
0000
0000
2300
0000
0000
0000
,
3002
0000
0203
0000
0320
0000
0130
0010
,
0100
0010
1000
0001
0100
0000
0000
0000
0000
0000
0010
0000
0100
0000
0010
0000
,
1000
0001
1000
0002
0000
0000
2003
0000
,
3020
0000
0000
0000
0230
0000
0000
0000
0301
0100
0010
0100
0001
0000
1000
0000
,
0100
1000
0010
0000
1000
0001
0010
0100
,
1000
0001
0100
0000
0000
0010
0100
0010
,
1000
0001
0010
0100
2000
0000
0000
0001
,
3002
0000
0000
0000
0000
0000
0003
0000
1000
0001
1000
0010
0100
0000
0010
0000
,
1000
0001
0010
0000
0100
0001
0100
1000
,
0010
0100
0010
0000
0000
0000
2000
0000
,
3100
0010
0001
0010
0200
0000
0000
0000
,
0310
0000
0001
0010
0001
0000
0000
0000
0002
0000
0010
0000
0023
0000
0100
0000
,
0230
0000
2300
0001
3000
0001
0100
0010
,
1000
0001
2002
0000
3003
0001
1000
0010
,
0200
0000
0310
0010
0110
0000
1001
0000
,
0220
0000
0330
0000
0020
0100
0230
0001
,
0302
0000
1003
0001
0000
0001
1000
0001
,
0010
0010
0220
0000
0330
0001
1000
0010
,
0200
0000
0000
0000
0310
0000
1000
0000
1001
0000
0000
0000
0011
0000
1000
0001
,
0100
0010
0100
0000
0001
1000
0001
0010
0001
0000
0001
0000
0100
0000
0010
0000
,
0200
0000
0300
0010
1000
0001
0010
0100
,
0020
0000
0030
0001
1000
0010
0100
0001
,
0010
0100
1000
0001
2000
0000
3000
0001
,
0100
0010
0100
0000
0110
0000
0000
0000
1001
0000
0001
0000
1000
0000
0010
0000
,
0200
0000
0300
0010
1000
0001
0100
0010
,
0200
0000
0300
0001
0001
1000
1000
0100
,
0100
0010
0010
0001
0002
0000
0003
1000
,
0020
0000
0000
0030
0110
0000
0000
0000
0020
0000
0000
0000
2030
0000
0000
0000
,
3002
0000
0023
0000
0230
0000
1300
0001
,
1000
0010
0100
0001
0010
0000
0000
0000
0100
0000
0000
0000
0010
0000
0001
0000
,
1000
0010
0100
0010
0200
0000
0301
0001
,
1000
0001
0100
0001
0010
0000
0000
0000
0200
0000
0000
0000
0320
0000
0000
0000
,
0032
0000
2003
0000
3002
0000
0103
0010
,
1000
0001
0100
0010
0100
0000
0000
0000
0010
0000
1000
0000
0001
0000
0100
0000
,
0001
0000
0010
0000
0100
0000
2200
0000
0000
0000
0000
3300
1100
0000
0000
0000
,
1001
0000
0000
0000
1010
0000
0000
0000
1000
0001
0010
0100
1000
0000
0001
0000
,
0100
0010
1010
0000
1000
0100
0001
0100
,
1000
0001
0100
0000
0000
0010
0100
0001
,
0010
0100
1000
0001
0200
0000
0000
0310
,
0020
0000
0000
0000
1030
0000
0000
0000
1000
0001
0100
0001
0010
0000
0100
0000
,
1000
0001
1001
0000
1000
0010
0100
0010
,
1000
0001
0002
0000
0003
0000
1000
0001
,
0010
0100
0100
1000
0002
0000
0000
0000
,
2003
0000
0000
0000
3002
0010
0023
0100
,
0230
0000
1300
0001
0100
0010
0010
1000
,
0001
0001
2002
0000
3003
1000
0001
0100
,
0020
0000
1030
0001
0020
0000
0230
0000
,
2300
0000
3000
0000
0200
1000
2300
0001
,
3002
0000
0103
0010
0000
0100
0010
1000
,
0001
1000
2002
0000
3003
1000
0001
0010
,
0200
0000
1300
0001
0200
0000
0320
0000
,
1030
0001
0100
0000
0010
0000
0000
0000
0010
0000
1000
0000
0001
0000
0010
0000
,
0100
0010
0001
1000
0010
0100
0010
1000
,
0001
0010
0100
1000
0100
0001
0100
1000
,
0001
0100
1000
0100
0001
0010
1000
0010
,
0001
0000
1000
0000
0001
0000
0100
0000
0010
1000
0001
0100
0010
0000
1000
0000
,
0001
1000
0100
0000
0010
0000
0001
0000
1000
0000
0001
1000
0010
0000
0100
0000
,
0110
0000
0000
0000
1001
0000
0000
0000
1000
0001
0100
0010
0100
0000
0010
0000
,
1000
0001
0010
0000
0100
0000
1000
0000
0002
0000
0000
0000
1003
0000
0010
0000
,
0100
0010
0100
0000
0110
0000
0000
0000
0010
1000
0010
0100
0010
0000
1000
0000
,
0001
0010
0100
0000
1000
0000
0001
0000
0100
0000
0100
0000
0100
0000
0100
0000
,
0200
0000
0000
0000
0310
0000
0000
0000
0001
1000
0001
1000
0001
0000
0100
0000
,
0010
1000
0100
0000
0010
0000
0001
0000
1000
0000
0000
1000
0000
0001
0000
1000
,
0001
0000
0100
0000
0100
0000
0000
0000
0010
1000
0100
0010
0001
0000
1000
0000
,
0001
0100
0101
0000
0010
1000
0001
0010
,
0100
1000
1100
0000
1000
0001
0100
0010
,
1000
0001
0100
0010
2000
0000
0000
0001
,
3002
0000
0000
0000
0003
0000
0000
0000
1000
0001
0100
0001
0010
0000
0100
0000
,
1000
1000
1001
0000
0001
0010
1000
0010
,
0001
1000
2002
0000
3003
0000
0001
1000
,
0010
0100
0001
0010
0200
0000
0000
0000
,
2300
0000
0000
0000
3002
0100
0203
0010
,
0320
0000
1030
0002
0000
1003
1000
0001
,
1000
0010
0220
0000
0330
0010
1000
0001
,
0020
0000
0130
1000
0002
0000
2003
0000
,
3020
0000
0030
0000
0020
1000
2030
0001
,
3002
0000
0013
0200
0000
1300
0001
0100
,
0010
1000
2002
0000
3003
0000
0001
1000
,
0020
0000
0130
0010
2000
0000
3002
0000
,
0203
0000
0300
0000
0020
1000
2030
0001
,
3002
0000
1003
0002
0000
1003
0001
0100
,
0010
1000
2020
0000
3030
1000
0001
0100
,
0020
0000
1030
0001
0200
0000
0320
0000
,
2030
0000
3000
0000
0200
0010
0320
0001
,
0032
0000
1003
0200
0000
1300
0001
0100
,
0100
0001
2002
0000
3003
1000
0001
0010
,
0200
0000
1300
0001
0200
0000
0320
0000
,
2030
0000
3000
0000
1001
1000
0100
0001
,
0100
1000
0010
0001
0010
1000
0100
0010
,
0001
0100
0010
1000
0001
0100
1000
0100
,
0001
0010
1000
0010
0001
0100
0010
0100
,
0001
0000
0000
0000
0000
0000
0000
0000
0000
0000
0000
0000
0000
0000
0000
0000
0000
0000
0000
0000
0000
0000
0000
0000
0000
0000
0000
0000
0000
0000
0000
0000
1000
0000
0000
0000
0000
0000
0000
0000
0000
0000
0000
0000
0000
0000
0000
0000
0000
0000
0000
0000
0000
0000
0000
0000
0000
0000
0000
0000
0000
0000
0000
0000
0000
0000
0001
0000
0000
0000
0000
0000
0000
0000
0000
0000
0000
0000
0000
0000
0000
0000
0000
0000
0000
0000
0000
0000
0000
0000
0000
0000
0000
0000
0000
0000
0000
0000
0000
0000
0000
0000
1000
0000
0000
0000
0000
0000
0000
0000
0000
0000
0000
0000
0000
0000
0000
0000
0000
0000
0000
0000
0000
0000
0000
0000
0000
0000
0000
0000
0000
0000
0000
0000
0000
0000
0000
0000
0000
0000
0000
0000
0000
0000
0002
0000
0000
0000
0000
0000
0000
0000
0000
0000
0000
0000
0000
0000
0000
0000
0000
0000
0000
0000
0000
0000
0000
0000
0000
0000
0000
0000
0000
0000
0000
0000
0000
0000
0000
0000
0000
0000
0000
0000
0000
0000
0000
0000
0000
0000
0000
0000
,
0000
0000
0000
0000
,
0000
0000
0000
0000
,
0003
0000
0000
0000
;
