#TITLE:Starstrukk;
#SUBTITLE:;
#ARTIST:3 Oh! 3 feat. Katy Perry;
#TITLETRANSLIT:;
#SUBTITLETRANSLIT:;
#ARTISTTRANSLIT:;
#GENRE:;
#CREDIT:;
#BANNER:Starstrukk.png;
#BACKGROUND:;
#LYRICSPATH:;
#CDTITLE:;
#MUSIC:Starstrukk.ogg;
#OFFSET:-0.022;
#SAMPLESTART:43.430;
#SAMPLELENGTH:13.180;
#SELECTABLE:YES;
#BPMS:0.000=140.010;
#STOPS:;
#BGCHANGES:;
#KEYSOUNDS:;

//---------------dance-single - ----------------
#NOTES:
     dance-single:
     :
     Hard:
     7:
     0.469,0.485,0.218,0.138,0.029,403.000,30.000,19.000,0.000,0.000,0.000,0.469,0.485,0.218,0.138,0.029,403.000,30.000,19.000,0.000,0.000,0.000:
0000
0000
0000
0000
,
0000
0000
0000
0000
,
0000
0000
0000
0000
,
0000
0000
0000
0000
,
0000
0000
0000
0000
,
0000
0000
0000
0000
,
0000
0000
0000
0000
,
0000
0000
0000
0000
,
1000
0000
0001
0000
0100
0010
1000
0000
,
0001
0010
0100
1000
1100
0000
0011
0000
,
0001
0000
0000
0100
0001
0000
0100
0000
0010
0000
1000
0000
0001
0000
0010
0000
,
0110
1001
1100
0011
,
0001
1000
0010
0100
,
0001
1000
0010
0100
0110
0000
1001
0000
,
0100
0000
0000
1000
0100
0000
0010
0000
0001
0000
0000
0000
1000
0000
0010
0000
,
0110
0000
1001
0001
0100
0010
1000
0002
,
0000
0003
0010
0000
0100
1000
0000
0002
,
0000
0000
0103
0000
0010
1000
0000
0002
,
0000
0000
0000
0000
0013
0000
0000
0000
0100
0000
0000
1000
0000
0000
0002
0000
,
0000
0003
1001
0000
0011
0000
1100
0000
,
0110
0000
0100
0000
1000
0001
0000
0100
,
0000
0000
0010
0000
1000
0001
0000
0010
,
0000
0000
0100
0000
1000
0010
0000
0100
,
0000
0010
1000
0001
,
0100
0000
0100
0000
0100
0100
0100
0100
,
0100
0000
0100
0001
0100
0000
0010
0000
1000
0000
0001
0000
0010
0000
0100
0000
,
1100
0000
0001
0100
0010
0000
1000
0000
,
1001
0000
0001
0010
0100
1000
1000
0000
,
0001
0100
0010
1000
0001
0010
0100
0010
,
0001
1000
0010
0100
0010
1000
0001
0010
,
0100
0000
1000
0000
0001
1000
0010
0000
,
0110
0000
0010
0000
1000
0001
0010
0000
,
0100
1000
0001
0100
0010
1000
0001
0010
,
0100
1000
0001
0010
0100
1000
0001
0100
,
0010
0000
2000
0000
3001
0100
0010
1000
,
0002
0000
0023
0000
0130
1000
0001
0000
,
1000
0001
0010
0100
1000
0001
0100
0010
,
0100
0001
0010
0100
1000
0001
0100
0010
,
2000
0000
3002
0000
0013
0100
1000
0001
,
0200
0000
0320
0000
1030
0001
0100
0000
,
0010
1000
0001
0010
0100
1000
0001
0100
,
0010
0100
0010
1000
0001
0010
0100
1000
,
0002
0000
0000
0000
,
0000
0000
0000
0000
,
0013
0000
0110
0000
0100
0100
0100
0000
,
1000
0001
0100
0010
1010
0000
1010
0000
,
1000
0000
0000
0001
0100
0000
0010
0000
1000
0000
0001
0000
0010
0000
0100
0000
,
1100
0011
0101
1010
,
1000
0001
0100
0010
,
1000
0001
1000
0001
1001
0000
0110
0000
,
1000
0000
0000
0001
0100
0000
0010
0000
1000
0000
0001
0000
0010
0000
0100
0000
,
1100
0000
1010
1000
0001
0001
0001
1000
,
0100
0000
1000
0000
0001
0100
0000
0010
,
0000
0000
1000
0000
0001
0010
0000
0001
,
0000
0000
0000
0000
1000
0000
0000
0000
0001
0000
0000
0100
0000
0000
0010
0000
,
0000
1000
0010
1000
,
0100
0000
0010
0000
0001
1000
0000
0001
,
0000
0000
0100
0000
0010
1000
0000
0001
,
0000
0000
0001
0000
0010
0100
0000
1000
,
0000
0001
0100
0010
,
0100
0000
0100
0000
0100
0100
0100
0100
,
0100
0000
0100
0001
0100
0000
0010
0000
1000
0000
0001
0000
0010
0000
0100
0000
,
1000
0000
0001
0000
0100
0010
0100
0000
,
0110
0000
0010
0000
1000
0001
0010
0000
,
0100
1000
0001
0010
0100
1000
0100
0010
,
0001
0100
0010
1000
0001
0010
0100
1000
,
0001
0000
0100
0000
0010
1000
0010
0000
,
0110
0000
0001
0000
1000
0001
0010
0000
,
0100
1000
0001
0100
0010
0100
0001
0010
,
0100
1000
0001
1000
0001
0100
0010
1000
,
0001
0000
2000
0000
3001
1000
0010
0100
,
0020
0000
2030
0000
3001
0010
0100
0000
,
1000
0001
0100
0010
0100
0001
1000
0001
,
0010
0100
1000
0100
1000
0001
0100
0010
,
0100
0000
0020
0000
1030
0100
0010
0100
,
2000
0000
3002
0000
0103
0010
1000
0000
,
0001
1000
0001
0010
0001
1000
0010
1000
,
0100
1000
0001
0100
0001
1000
0010
0100
,
0020
0000
0030
0000
;

//---------------dance-single - ----------------
#NOTES:
     dance-single:
     :
     Challenge:
     9:
     0.718,0.913,0.196,0.109,0.396,650.000,27.000,15.000,0.000,0.000,0.000,0.718,0.913,0.196,0.109,0.396,650.000,27.000,15.000,0.000,0.000,0.000:
0000
0000
0000
0000
,
0000
0000
0000
0000
,
1000
0001
0000
0001
0100
0000
0001
1000
0010
0100
0001
0000
0001
0100
0001
0100
,
0001
1000
0100
0010
0001
1000
0001
1000
0001
0100
0001
0100
0010
0100
0010
0100
,
0010
1000
0000
1000
0010
0000
0100
0010
1000
0001
0010
0100
0010
0001
1000
0001
,
1000
0100
0010
0001
1000
0100
0010
0001
1000
0100
1000
0010
0100
0001
0100
0010
,
1000
0001
0000
0001
1000
0000
1000
0100
1000
0010
0100
0010
0100
0001
0010
0100
,
1000
0100
1000
0100
1000
0100
1000
0100
1000
0100
1000
0100
1000
0100
1000
0100
,
1000
0000
0001
0000
0100
0010
1000
0000
,
0001
0010
0100
1000
1100
0000
0011
0000
,
0001
0000
0000
0100
0001
0000
0100
0000
0010
0000
1000
0000
0001
0000
0010
0000
,
0110
0000
0000
0000
1001
0000
0000
0000
1100
0000
0000
0000
0011
0000
0001
1000
,
0001
1000
0010
0100
,
0001
1000
0010
0100
0110
0000
1001
0000
,
0100
0000
0000
1000
0100
0000
0010
0000
0001
0000
0000
0000
1000
0000
0010
0000
,
0110
0000
0000
0000
1000
0001
0100
0000
0100
0000
0010
0000
1000
0000
0001
0000
,
0100
0010
1000
0001
0010
0100
1000
0001
,
0010
0100
1000
0001
0100
0010
0100
0001
,
0010
0100
1000
0001
1000
0010
1000
0010
,
0100
0001
0010
0100
1000
0001
0010
0100
,
1000
0001
0100
0010
1000
0001
0010
0100
,
1000
0001
0100
0010
0100
0001
0010
0100
,
1000
0100
0010
0100
1000
0001
0100
0010
,
1000
0100
0010
0100
1000
0001
0100
0000
,
0110
0000
0100
0000
0100
0100
0100
0100
,
0100
0000
0100
0001
0100
0000
0010
0000
1000
0000
0001
0000
0010
0000
0100
0000
,
1100
0000
1000
0001
0100
0000
0100
0010
0100
0000
0010
0000
1000
0000
0001
0000
,
1001
0000
1000
0000
0001
0000
0010
0100
1000
0000
0001
0000
1000
0000
0001
0000
,
0001
0100
0010
1000
0001
0010
0100
0010
,
0001
1000
0010
0100
0010
1000
0001
0010
,
0100
0000
1000
0100
1000
0000
0000
1000
0001
0000
1000
0000
0010
0000
0100
0000
,
0110
0000
0010
0000
0010
0000
0000
0010
1000
0000
0001
0000
0010
0000
0100
0000
,
0100
1000
0001
0100
0010
1000
0001
0010
,
0100
1000
0001
0010
0100
1000
0001
0100
,
0010
0000
0000
0000
2000
0000
0000
0000
3001
0000
0100
0010
0100
0010
1000
0100
,
2000
0000
0000
0000
3020
0000
0000
0000
0130
0000
0001
1000
0100
0010
0001
1000
,
0001
0001
0010
0100
1000
0001
0100
0010
,
0100
0001
0010
0100
1000
0001
0100
0010
,
2000
0000
0000
0000
3002
0000
0000
0000
0013
0000
0100
0010
0001
0010
0100
1000
,
0200
0000
0000
0000
0320
0000
0000
0000
0030
0000
0001
0100
0010
1000
0010
1000
,
0010
1000
0001
0010
0100
1000
0001
0100
,
0010
0100
0010
1000
0001
0010
0100
1000
,
0001
1000
0001
1000
0001
1000
0001
1000
0001
1000
0001
1000
0001
1000
0001
1000
,
0001
1000
0001
1000
0001
1000
0001
1000
0001
1000
0001
1000
0001
1000
0001
1000
,
0100
0000
0110
0000
0100
0100
0100
0000
,
1000
0001
0100
0010
1010
0000
1010
0000
,
1000
0000
0000
0001
0100
0000
0010
0000
1000
0000
0001
0000
0010
0000
0100
0000
,
1100
0000
0000
0000
0011
0000
0000
0000
0101
0000
0000
0000
1010
0000
0100
1000
,
0001
0001
0100
0010
,
1000
0001
1000
0001
1001
0000
0110
0000
,
1000
0000
0000
0001
0100
0000
0010
0000
1000
0000
0001
0000
0010
0000
0100
0000
,
1100
0000
0000
0000
0010
1000
0001
0000
1000
0000
1000
0000
1000
0000
0100
0000
,
0010
0001
0100
0010
0010
1000
0100
0010
,
0001
0100
1000
0100
0010
1000
0010
0100
,
0010
0001
0010
1000
0100
0010
0001
1000
,
0100
1000
0001
0100
0010
1000
0001
0001
,
0100
0010
1000
0100
0010
0001
0100
0010
,
1000
0010
1000
0001
0100
0010
1000
0001
,
0010
0100
1000
0001
0100
0010
0100
0010
,
1000
0001
0010
0100
1000
0001
0100
0001
,
0100
0000
0100
0000
0100
0101
0100
0101
,
0100
0000
0100
0001
0100
0000
0010
0000
1000
0000
0001
0000
0010
0000
0100
0000
,
1000
0002
1003
0000
0001
0000
0000
0001
0100
0000
0010
0000
0100
0010
0100
0000
,
0110
0000
0100
0010
0100
0000
0000
0001
1000
0000
0001
0000
0010
0000
0010
0000
,
0100
1000
0001
0010
0100
1000
0100
0010
,
0001
0100
0010
1000
0001
0010
0100
1000
,
0001
0000
1000
0001
0100
0000
0000
0100
0010
0000
1000
0000
0010
0000
0100
0000
,
0110
0000
0010
0100
0001
0000
0000
0001
1000
0000
0001
0000
0010
0000
0100
0000
,
0100
1000
0001
0100
0010
0100
0001
0010
,
0100
1000
0001
1000
0001
0100
0010
1000
,
0001
0000
0000
0000
2000
0000
0000
0000
3001
0000
1000
0010
0100
0010
1000
0001
,
0020
0000
0000
0000
0032
0000
0000
0000
0003
0000
0010
0100
1000
0001
1000
0100
,
0010
0001
0100
0010
0100
0001
1000
0001
,
0010
0100
1000
0100
1000
0001
0100
0010
,
0100
0000
0000
0000
0020
0000
0000
0000
1030
0000
0100
0010
0100
0010
0001
0100
,
0020
0000
0000
0000
2030
0000
0000
0000
3000
0000
0010
1000
0001
0010
0100
0010
,
0001
1000
0001
0010
0001
1000
0010
1000
,
0100
1000
0001
0100
0001
1000
0010
0100
,
0020
0000
0030
0000
;

//---------------dance-single - ----------------
#NOTES:
     dance-single:
     :
     Medium:
     5:
     0.325,0.371,0.131,0.080,0.000,284.000,18.000,11.000,0.000,0.000,0.000,0.325,0.371,0.131,0.080,0.000,284.000,18.000,11.000,0.000,0.000,0.000:
0000
0000
0000
0000
,
0000
0000
0000
0000
,
0000
0000
0000
0000
,
0000
0000
0000
0000
,
0000
0000
0000
0000
,
0000
0000
0000
0000
,
0000
0000
0000
0000
,
0000
0000
0000
0000
,
1000
0000
0010
0000
0100
0010
0100
0000
,
0010
1000
1100
0011
,
0001
0000
0100
0000
0010
1000
0100
0000
,
1100
0011
0101
1010
,
0010
0000
0100
0000
0001
1000
0100
0000
,
1000
0010
0101
1010
,
0010
0000
1000
0000
0001
0100
0001
0000
,
1000
0100
1000
0010
,
0100
0000
0010
0000
0010
0010
0000
0010
,
0000
0000
1000
0000
0100
0100
0000
0100
,
0000
1000
0001
0100
,
0010
1000
0100
1000
,
0001
0000
0100
0000
0010
0010
0000
0010
,
0000
0000
1000
0000
0100
0100
0000
0100
,
0000
0000
1000
0000
0001
0001
0000
0001
,
0000
0100
0010
1000
,
0100
0100
0100
0100
,
0100
0000
0100
0000
0100
1000
0001
0000
,
0100
0000
0010
0000
0001
0100
0010
0000
,
1000
0100
1000
0001
,
0010
0000
1000
0000
0001
0100
0001
0000
,
1000
0000
0100
0000
1000
0010
0100
0000
,
0001
0000
1000
0000
0100
1000
0001
0000
,
0100
0000
0010
0000
0001
0100
0010
0000
,
0001
0000
1000
0000
0100
1000
0001
0000
,
0100
0000
0010
0000
1000
0001
1000
0000
,
0100
0000
2000
0000
0000
0000
0000
3000
,
0001
0200
0000
0000
,
0310
1000
0100
1000
,
0001
0100
0001
0000
1000
0000
0010
0000
,
0100
0002
0003
1000
,
0100
2000
0000
3001
,
0100
0010
1000
0001
,
0010
0100
1000
0001
,
2000
0000
0000
0000
,
0000
0000
0000
0000
,
3001
0100
0010
0010
,
1000
0100
0101
1010
,
0001
1000
0100
0010
,
0011
0101
1010
1100
,
0001
0100
0010
1000
,
0100
1000
1010
0101
,
0010
1000
0100
1000
,
0001
0000
0100
0010
1000
0000
0100
0000
,
1000
0000
0001
0000
0100
0010
0000
0010
,
0000
0000
1000
0000
0100
1000
0000
1000
,
0000
0001
0100
0010
,
1000
0100
1000
0001
,
0100
0000
0010
0000
1000
1000
0000
1000
,
0000
0000
0001
0000
0100
0100
0000
0100
,
0000
0000
0010
0000
1000
1000
0000
1000
,
0000
0001
0100
0010
,
0100
0100
0100
0100
,
0100
0100
0010
0100
,
0010
0000
1000
0000
0100
1000
0100
0000
,
1000
0001
0100
0010
,
1000
0001
0100
0000
0010
0000
1000
0000
,
0100
0010
0001
0000
0100
0000
0010
0000
,
1000
0100
1000
0001
,
0101
0010
1000
0100
,
1000
0000
0010
0000
0100
0000
0001
0010
,
0100
1000
0001
0100
,
0010
1000
0200
0000
,
1300
0001
0200
0000
,
0310
1000
0100
1000
,
0001
0100
0001
0000
0010
0000
0100
0000
,
1000
0001
0200
0000
,
0310
1000
0200
0000
,
1300
0001
0100
0010
,
1000
0001
0100
0000
0010
0000
1000
0000
,
2002
0000
0000
0000
0000
0000
0000
0000
0000
0000
0000
0000
0000
0000
0000
0000
0000
0000
0000
0000
0000
0000
0000
0000
0000
0000
0000
0000
0000
0000
0000
0000
0000
0000
0000
0000
0000
0000
0000
0000
0000
0000
0000
0000
0000
0000
0000
0000
0000
0000
0000
0000
0000
0000
0000
0000
0000
0000
0000
0000
0000
0000
0000
0000
0000
0000
0000
0000
0000
0000
0000
0000
0000
0000
0000
0000
0000
0000
0000
0000
0000
0000
0000
0000
0000
0000
0000
0000
0000
0000
0000
0000
0000
0000
0000
0000
0000
3003
0000
0000
0000
0000
0000
0000
0000
0000
0000
0000
0000
0000
0000
0000
0000
0000
0000
0000
0000
0000
0000
0000
0000
0000
0000
0000
0000
0000
0000
0000
0000
0000
0000
0000
0000
0000
0000
0000
0000
0000
0000
0000
0000
0000
0000
0000
0000
0000
0000
0000
0000
0000
0000
0000
0000
0000
0000
0000
0000
0000
0000
0000
0000
0000
0000
0000
0000
0000
0000
0000
0000
0000
0000
0000
0000
0000
0000
0000
0000
0000
0000
0000
0000
0000
0000
0000
0000
0000
0000
0000
0000
0000
0000
0000
;

//---------------dance-single - ----------------
#NOTES:
     dance-single:
     :
     Easy:
     4:
     0.246,0.340,0.218,0.007,0.000,206.000,30.000,1.000,0.000,0.000,0.000,0.246,0.340,0.218,0.007,0.000,206.000,30.000,1.000,0.000,0.000,0.000:
0000
0000
0000
0000
,
0000
0000
0000
0000
,
0000
0000
0000
0000
,
0000
0000
0000
0000
,
0000
0000
0000
0000
,
0000
0000
0000
0000
,
0000
0000
0000
0000
,
0000
0000
0000
0000
,
1000
0010
0100
0010
,
1000
0001
0101
1010
,
0010
1000
0100
1000
,
1100
0011
1100
0011
,
1000
0001
0100
0010
,
1000
0010
1010
0101
,
0010
1000
0100
1000
,
1100
0011
0101
0010
,
1000
0000
1000
0000
,
0010
0000
0100
0000
,
0001
0000
1000
0000
,
0100
0000
1000
0000
,
0001
0000
0010
0000
,
0100
0000
1000
0000
,
0001
0000
0100
0000
,
0010
0000
1000
0000
,
0100
0000
0100
0000
,
0100
0100
0100
1000
,
0001
0000
0001
0000
,
0110
0000
0010
0000
,
1000
0001
1000
0100
,
1000
0001
0100
0010
,
1000
0000
0001
0000
,
1001
0000
0001
0000
,
0001
0100
1000
0100
,
0001
0010
0100
1000
,
1100
0000
1000
0000
,
1001
0000
0001
0000
,
0001
0100
0010
1000
,
0001
0010
0100
1000
,
0001
0000
0100
0000
,
0010
0000
1000
0000
,
0100
1000
0001
0100
,
0010
1000
0001
1000
,
2001
0000
0000
0000
,
0000
0000
0000
0000
,
3001
0100
0010
1000
,
0001
0010
1100
0011
,
0001
0100
0010
1000
,
0101
1010
1100
0011
,
0001
0100
0010
1000
,
0001
0010
1100
0011
,
0001
0100
0010
1000
,
1001
0110
0001
1000
,
0100
0000
1000
0000
,
0001
0000
0100
0000
,
0010
0000
1000
0000
,
0100
0000
1000
0000
,
0001
0000
0100
0000
,
0010
0000
1000
0000
,
0001
0000
1000
0000
,
0100
0000
1000
0000
,
0100
0000
0100
0000
,
0100
0100
0100
1000
,
0001
0000
0001
0000
,
1010
0000
0010
0000
,
0100
0001
1000
0100
,
0001
0100
1000
0001
,
0101
0000
0010
0000
,
0110
0000
0010
0000
,
1000
0001
0010
1000
,
0010
0001
1000
0010
,
0100
0000
0010
0000
,
1001
0000
0100
0000
,
1000
0001
0100
0010
,
1000
0001
0010
0100
,
1000
0000
0001
0000
,
0100
0000
0010
0000
,
0001
0100
1000
0001
,
0010
1000
0100
1000
,
0001
0000
0000
0000
;
