#TITLE:Sky High;
#SUBTITLE:(Zombie Remix);
#ARTIST:DJ MIKO;
#TITLETRANSLIT:;
#SUBTITLETRANSLIT:;
#ARTISTTRANSLIT:;
#GENRE:;
#CREDIT:;
#BANNER:SKY HIGH.png;
#BACKGROUND:;
#LYRICSPATH:;
#CDTITLE:;
#MUSIC:SAI 586 - Dj Miko - Sky High (Zombie Remix).ogg;
#OFFSET:-2.071;
#SAMPLESTART:37.990;
#SAMPLELENGTH:13.180;
#SELECTABLE:YES;
#BPMS:0.000=140.000;
#STOPS:103.000=1.286
;
#BGCHANGES:;
#KEYSOUNDS:;

//---------------dance-single - ----------------
#NOTES:
     dance-single:
     :
     Hard:
     8:
     0.489,0.450,0.147,0.244,0.000,372.000,18.000,30.000,0.000,0.000,0.000,0.489,0.450,0.147,0.244,0.000,372.000,18.000,30.000,0.000,0.000,0.000:
0000
0000
0000
0000
,
0000
0000
0000
0000
0000
0000
0000
0001
,
1000
0100
0010
0001
0000
0000
0000
0001
,
0100
1000
0100
0001
0010
0100
0000
1000
,
0010
0001
0010
1000
0000
0000
0000
0010
,
1000
0100
0001
0100
1000
0010
0100
0000
,
0010
0000
0100
0110
0000
0000
0010
0000
,
1000
0000
0001
1001
0000
0110
0000
0000
,
0010
0000
1000
1001
0000
0000
0001
0000
,
1000
0000
0010
0110
0100
0110
0020
0000
,
1000
0030
0100
0000
0010
1000
0100
0000
,
0010
0001
1000
0000
0002
0000
0103
0000
,
0020
0000
1030
0001
0100
0000
0010
0000
,
2000
0000
3100
0010
0001
1000
0002
0000
,
0203
0000
0310
1000
0100
0000
0020
0000
,
0031
0000
1000
0010
0100
0010
1000
0000
,
0200
0000
0310
0001
0100
0000
0010
0000
,
1000
0000
1000
0100
0001
0100
2000
0000
,
0010
0001
0100
0001
,
3010
0000
0001
1000
0010
0100
0020
0000
,
1000
0001
0100
1030
,
0010
0000
1000
0100
0010
0001
1000
0000
,
0001
0000
0100
0010
0010
0000
1000
0000
,
0001
0000
0010
0100
1000
0001
0200
0000
,
0001
0000
1300
0100
0001
0001
0010
0000
,
0100
2000
0000
0000
3001
0000
1001
0001
,
1000
0000
1000
0010
0100
0010
1000
0100
,
0000
0100
1000
0001
0100
0010
1000
0001
,
0020
0000
1030
0010
0001
0100
0020
0000
,
2030
0000
3001
1000
0100
0010
0001
1000
,
0001
0000
0001
1000
0010
0100
0010
1000
,
0000
0001
0100
0010
1000
0100
0010
0001
,
2000
0000
3001
0010
0100
0010
0002
0000
,
2000
0000
0000
0000
,
0000
0000
0000
3003
,
0001
0100
1000
0100
0001
0100
1000
0100
,
2001
0000
0010
0000
3100
1000
0001
0100
,
0020
0000
1030
0100
0001
0100
1000
0010
,
0200
0000
0310
1000
0001
0010
0100
0010
,
0000
0001
0100
1000
0100
0010
1000
0100
,
0110
0000
0010
0001
1000
0001
0100
0010
,
0000
0010
1000
0001
0100
1000
0100
0010
,
1000
0000
0100
0010
0001
1000
0002
0000
,
2000
0000
0000
0000
,
0000
0000
0000
3003
,
1100
1000
0001
0100
0010
1000
0000
0001
,
0000
1000
0010
0100
0010
1000
0100
0100
,
0000
0010
0001
1000
0010
0100
0000
1001
,
0000
0010
1000
0001
0100
0010
1000
0100
,
0000
0010
0001
1000
0100
0010
0001
0000
,
0000
0010
0100
1000
0001
0010
0100
1000
,
0000
0001
0100
0010
1000
0100
0000
0000
,
0000
0100
1000
0001
0100
0010
1000
0100
,
0220
0000
0000
0330
0010
0001
1000
0000
,
0110
0000
0010
0000
1000
0010
0100
0010
,
1000
0000
0100
0000
0010
0001
1000
0000
,
0100
0000
0010
0000
0100
1000
0001
0100
,
2000
0000
3100
0000
0010
1000
1000
0000
,
0200
0000
0310
0000
0001
1000
0010
0100
,
0010
0000
1000
0000
0100
0010
0010
0000
,
0001
0000
1000
0000
0010
0100
0010
1000
,
0200
0000
1000
0000
0001
0001
0001
0000
,
2300
0000
0010
0000
0001
0001
3001
1000
,
0002
0000
0010
0000
0100
0100
0100
0000
,
1003
0000
1010
0000
0010
0100
0010
0100
,
0110
0000
0010
0000
1000
0100
0010
0000
,
0001
0000
0100
0000
1000
0100
0001
0010
,
0100
0000
1000
0000
0001
0101
0100
0000
,
0010
0000
1000
0000
0001
1001
1000
1001
,
0001
0000
0000
0000
;

//---------------dance-single - ----------------
#NOTES:
     dance-single:
     :
     Medium:
     5:
     0.313,0.253,0.057,0.024,0.000,259.000,7.000,3.000,0.000,0.000,0.000,0.313,0.253,0.057,0.024,0.000,259.000,7.000,3.000,0.000,0.000,0.000:
0000
0000
0000
0000
,
0000
0000
0000
0000
,
1000
0000
0010
1000
0000
0000
0000
0000
,
1000
0000
0001
0000
0100
0010
0000
0000
,
0010
0000
1000
0001
0000
0000
0000
0000
,
0100
0000
0010
0000
1000
0100
0000
0000
,
1000
0000
0000
0001
0000
0000
0000
0000
,
0010
0000
0000
1000
0000
0001
0000
0000
,
0100
0000
0000
0010
0000
0000
0000
0000
,
0001
0000
0000
0100
0000
0010
1000
0000
,
0100
1000
0001
0100
,
0100
0010
1000
0001
,
1000
0100
1000
0010
,
0100
0001
0010
0100
,
1000
0001
0100
0010
,
1000
0001
0010
1000
,
0010
0001
0100
1000
,
0001
0010
1000
0100
,
1000
0001
0100
0010
,
1000
0001
1000
0100
,
1000
0001
0100
0010
,
1000
0000
0001
0000
0010
0010
0010
0000
,
0001
0100
0010
1000
,
0100
1000
0001
0100
,
0010
1000
0100
1000
,
0001
0100
0010
1001
,
0001
0100
0010
1000
,
0100
1000
0001
0100
,
0010
1000
0001
0010
,
1000
0001
0100
1000
,
0002
0003
0100
0000
1000
0000
0001
0000
,
0010
1000
0001
0010
,
0100
1000
0001
0100
,
2001
0000
0001
0001
,
0001
0000
0100
0000
0010
0000
0001
3000
,
0100
1000
0010
0100
,
0001
1000
0100
1000
,
0001
0100
0001
1000
,
0010
1000
0001
0010
,
0001
1000
0010
0100
,
0101
0010
1000
0100
,
1000
0001
0100
0010
,
1001
0100
1000
0001
,
0210
0000
0010
0000
,
0010
0000
0010
0000
,
0310
1000
0100
1000
,
0001
0100
0001
0010
,
0100
1000
0001
0100
,
0010
1000
0001
1000
,
0100
1000
0001
0100
,
0010
1000
0001
0010
,
0100
1000
0001
0100
,
0010
0010
1000
0100
,
1000
0001
0100
0010
,
0100
0001
0010
0100
,
1000
0001
0100
0010
,
1000
0001
1000
0010
,
0110
0010
1000
0100
,
1000
0001
0100
0010
,
1000
0001
1000
0100
,
1000
0001
0100
0010
,
1000
0100
1000
0001
,
0100
0010
1000
0001
,
0100
0010
1000
0100
,
1000
0000
0001
0000
0100
0000
0010
1000
,
0001
0100
0010
1000
,
0001
1000
0100
1000
,
0001
0100
0010
1000
,
0001
0100
0010
1000
,
1001
0000
0000
0000
;

//---------------dance-single - ----------------
#NOTES:
     dance-single:
     :
     Easy:
     4:
     0.234,0.225,0.049,0.008,0.000,194.000,6.000,1.000,0.000,0.000,0.000,0.234,0.225,0.049,0.008,0.000,194.000,6.000,1.000,0.000,0.000,0.000:
0000
0000
0000
0000
,
0000
0000
0000
0000
,
1000
0010
0000
0000
,
0001
1000
0001
0000
,
0001
1000
0000
0000
,
0001
1000
0100
0000
,
1000
0001
0100
0000
,
0001
1000
0100
0000
,
0100
1000
0001
0000
,
0001
0100
0010
1001
,
0000
0001
0000
0100
,
0010
1000
0000
0001
,
1000
0100
0000
0100
,
0100
0100
0000
1000
,
0000
0001
0000
0100
,
0010
1000
0000
0001
,
1000
0100
0000
1000
,
0000
0001
0000
0100
,
0000
0010
1000
0100
,
0000
1000
0001
0100
,
0000
0010
0100
0001
,
0000
0001
1000
0100
,
0000
1000
0001
0100
,
0000
0010
0100
0001
,
0000
0001
1000
0100
,
0000
1000
0001
1001
,
0001
0100
0010
1000
,
0001
0001
1000
0100
,
1000
0001
0100
0010
,
1000
0001
0010
0001
,
1000
0100
1000
0001
,
0100
0010
1000
0001
,
1000
0100
0010
0001
,
1001
0000
0000
0000
,
0000
0000
0000
0000
,
0001
0000
0100
0000
,
0010
1000
0100
0000
,
1000
0001
0100
0000
,
0001
1000
0100
1000
,
0010
0000
0010
0000
,
0010
0100
0001
0010
,
0100
0000
1000
0000
,
0001
0100
0010
1000
,
2001
0000
0000
0000
,
0000
0000
0000
0000
,
3001
0000
0100
0000
,
0010
1000
0100
0000
,
0100
0000
1000
0000
,
0001
0100
0010
1000
,
0100
0000
1000
0000
,
0001
0010
0100
1000
,
0001
0000
0100
0000
,
0010
1000
0001
0010
,
0100
0000
1000
0000
,
0001
0100
0001
0000
,
0001
1000
0100
0000
,
1000
0100
0010
0000
,
0010
0001
0100
0000
,
0001
0100
0010
0000
,
0010
1000
0100
0000
,
1000
0001
0100
0000
,
0010
0100
0010
1000
,
0001
0000
0001
1000
,
0100
0000
1000
0000
,
0001
0100
0010
1000
,
1010
0000
0010
0100
,
0001
0000
0001
1000
,
0100
0000
1000
0000
,
0001
0100
0010
1000
,
1001
0000
0000
0000
;
