#TITLE:Saturday Night;
#SUBTITLE:;
#ARTIST:Whigfield;
#TITLETRANSLIT:;
#SUBTITLETRANSLIT:;
#ARTISTTRANSLIT:;
#GENRE:;
#CREDIT:;
#BANNER:Saturday Night.png;
#BACKGROUND:;
#LYRICSPATH:;
#CDTITLE:;
#MUSIC:09 - Whigfield - Saturday Night.ogg;
#OFFSET:-0.228;
#SAMPLESTART:23.270;
#SAMPLELENGTH:14.700;
#SELECTABLE:YES;
#BPMS:0.000=130.010;
#STOPS:;
#BGCHANGES:;
#KEYSOUNDS:;

//---------------dance-single - ----------------
#NOTES:
     dance-single:
     :
     Hard:
     7:
     0.493,0.404,0.017,0.104,0.186,385.000,2.000,12.000,19.000,0.000,0.000,0.493,0.404,0.017,0.104,0.186,385.000,2.000,12.000,19.000,0.000,0.000:
0000
0000
0000
0000
0000
0000
0000
0000
0001
0000
0000
1000
0000
0000
0001
0000
,
0100
0000
0000
0010
0000
0000
0100
0000
0010
0000
0000
1000
0000
0000
0001
0000
,
0000
0000
1000
0000
0100
0000
0001
0000
0100
0000
0000
1000
0000
0000
0010
0000
,
0100
0000
0000
0010
0000
0000
0100
0000
0010
0000
0000
1000
0000
0000
0001
0000
,
0000
0001
1000
1000
0001
1000
0001
0010
,
0000
0100
1000
0001
0100
0010
1000
0001
,
1000
0000
0000
0000
0001
0000
1000
0000
1000
0000
0000
1000
0000
0000
1000
0000
,
0100
0010
0001
2000
0000
3001
0000
0001
,
0000
1000
0010
0010
0010
0100
0010
1000
,
0000
0001
0010
1000
0010
0001
1000
0010
,
0010
0000
0000
0010
0100
0000
0010
0000
1000
0000
0000
0001
0000
0000
0100
0000
,
0010
1000
0001
0020
0000
0130
0000
0100
,
0000
0100
1000
0001
1000
0001
0100
0010
,
0000
0110
0000
0010
1000
0001
0100
1000
,
0100
0000
0001
0000
1000
0000
0001
0000
1000
0000
0000
0100
0000
0000
0100
0000
,
0010
0000
0001
0000
1000
0000
0100
0000
0100
0000
0000
0100
0000
0000
0100
0000
,
0000
1000
0001
0010
0100
1000
0001
0100
,
0000
0010
1000
0001
0001
0010
0100
1000
,
0002
0000
0000
0000
0003
0000
1000
0000
0001
0000
0000
0100
0000
0000
0010
0000
,
1000
0000
0001
0000
0010
0000
0100
0000
1000
0000
0000
0001
0000
0000
0001
0000
,
0000
0000
1000
0001
1000
0000
0000
0000
0100
0000
1000
0000
0001
0000
0100
0000
,
0000
0010
0010
0010
1000
0100
0001
0100
,
1000
0000
0000
0000
0001
0000
0100
0000
0001
0000
0000
1000
0000
0000
1000
0000
,
0001
0100
0010
2000
0000
3001
0001
0000
,
0001
1000
0010
0100
0010
0010
0010
1000
,
0000
0001
0010
1000
0010
0001
0100
1000
,
0100
0000
0001
0000
0010
0000
0010
0000
0010
0000
0000
0100
0000
0000
0100
0000
,
1000
0001
0100
0020
0000
0130
0000
0010
,
0000
0000
1000
0100
1000
0000
0000
0000
0001
0000
0000
0100
0000
0000
0010
0000
,
0000
1000
0000
0000
0001
0000
0010
0000
0100
0000
0000
1000
0000
0000
0001
0000
,
0000
1000
0000
0000
0001
0000
0100
0000
0010
0000
0000
1000
0000
0000
0100
0000
,
0000
0010
0000
0000
0001
0000
1000
0000
0010
0000
0000
0100
0000
0000
0010
0000
,
0000
1000
0000
0000
0001
0000
0010
0000
0100
0000
0000
0100
0000
0000
0010
0000
,
0000
0001
0000
0000
1000
0000
0010
0000
0100
0000
0000
0010
0000
0000
1000
0000
,
0000
0001
0000
0000
0010
0000
0100
0000
1000
0000
0000
0100
0000
0000
0001
0000
,
0000
0100
0000
0000
1000
0000
0010
0000
0100
0000
0000
0010
0000
0000
0100
0000
,
0000
0010
0000
0000
0010
0000
1000
0000
0100
0000
1000
0000
0001
0000
0100
0000
,
0000
0010
0100
0010
1000
0100
0010
0100
,
2000
0000
0000
0000
3001
0000
0100
0000
0010
0000
0000
1000
0000
0000
1000
0000
,
0001
0100
0010
2000
0000
3001
0000
0010
,
0000
0100
1000
1000
1000
0001
0100
0010
,
0000
0010
0100
0010
1000
0100
0010
0001
,
0010
0000
0001
0000
1000
0000
0010
0000
0100
0000
0000
0100
0000
0000
0100
0000
,
0010
1000
0001
2000
0000
3001
0000
1000
,
0000
0001
0100
0100
0100
0010
1000
0001
,
0000
0110
0000
0100
0001
1000
0100
0010
,
0001
0000
0000
0000
1000
0000
0100
0000
0100
0000
0000
0010
0000
0000
0001
0000
,
0000
1000
0001
0020
0000
0130
0000
1000
,
0000
0001
0100
0100
0010
1000
0010
0100
,
0000
0010
1000
0100
1000
0001
0100
0010
,
0100
0000
0000
0000
0001
0000
1000
0000
0100
0000
0000
0010
0000
0000
0001
0000
,
0000
1000
0001
2000
0000
3100
0000
0010
,
0000
0001
0000
0000
0001
0000
1000
0000
0010
0000
0100
0000
0100
0000
0100
0000
,
0000
0010
1000
0100
0001
0100
1000
0001
,
0100
0000
0000
0000
0010
0000
1000
0000
0001
0000
0000
1000
0000
0000
0001
0000
,
0000
0010
0100
0020
0000
0130
0000
1000
,
0000
0010
0100
0010
1000
0100
0001
0100
,
0000
1000
0001
0100
0010
1000
0010
0100
,
0010
0000
0000
0000
1000
0000
0001
0000
0010
0000
0000
0100
0000
0000
0100
0000
,
1000
0001
0100
0020
0000
1030
0000
0001
,
0000
0000
1000
0001
1000
0000
0000
0000
M000
0000
0000
0000
000M
0000
0000
0000
,
M000
00M0
0M00
000M
M000
0000
0000
0000
MM0M
0000
0000
0000
0MMM
0000
0000
0000
,
MMM0
M0MM
0000
0000
;

//---------------dance-single - ----------------
#NOTES:
     dance-single:
     :
     Medium:
     5:
     0.316,0.265,0.043,0.000,0.000,251.000,5.000,0.000,0.000,0.000,0.000,0.316,0.265,0.043,0.000,0.000,251.000,5.000,0.000,0.000,0.000,0.000:
0000
0000
0000
0000
,
0000
0000
0000
0000
,
0000
0000
0000
0000
,
0000
0000
0000
0000
,
0000
0000
1000
0010
,
0100
0000
0010
0000
1000
0001
0100
0000
,
0110
0000
0010
1000
,
0001
0000
0100
0001
0000
0100
0000
0010
,
0000
1000
0100
0000
1000
0000
0001
0000
,
0100
0000
0010
0000
1000
0001
1000
0000
,
1001
0000
0001
0100
,
0010
1000
0100
1000
,
0001
0000
0100
0000
0010
1000
0100
0000
,
1000
0000
0001
0000
0100
0001
0100
0000
,
1010
0010
0100
0001
,
1000
0100
1000
0001
,
0100
0010
1000
0100
,
1000
0001
0100
0010
,
1000
0100
1000
0001
,
0100
0010
1000
0100
,
1000
0001
0100
0010
,
1000
0000
0100
0000
1000
0000
0001
0100
,
0001
1000
0010
0100
,
0001
1000
0100
1000
,
0010
0100
0001
0010
,
0100
0000
1000
0000
0010
0100
0010
0000
,
0110
0010
1000
0001
,
0100
0010
0100
0000
0010
0000
1000
0000
,
0100
1000
0001
0000
0100
0000
0010
0000
,
1000
0000
0100
1000
0100
0000
1000
0000
,
0001
0000
0100
0001
0100
0000
0010
0000
,
1000
0000
0010
1000
0010
0000
0100
0000
,
0010
0000
0100
0001
0100
0000
0010
0000
,
1000
0000
0001
1000
0100
0000
0010
0000
,
0001
0000
0100
1000
0100
0000
0001
0000
,
0010
0000
0100
1000
0001
0000
0100
0000
,
0010
0000
1000
0001
1000
0000
0100
0000
,
1000
0001
0100
0010
,
1000
0100
1000
0001
,
0100
0010
1000
0001
,
0010
0100
1000
0001
,
0100
1000
0100
0001
,
0010
0100
1000
0001
,
0100
0010
1000
0001
,
1000
0000
0100
0000
1000
0001
0100
0000
,
0010
0000
1000
0000
0100
1000
0001
0000
,
0100
0010
1000
0001
,
0010
0100
1000
0001
,
0100
0010
1000
0100
,
1000
0001
0100
0010
,
1000
0001
1000
0100
,
0010
0001
1000
0100
,
1000
0010
0100
0000
0010
0000
1000
0000
,
0100
0000
1000
0001
0100
0000
0010
0000
,
1001
0000
1000
0100
1000
0000
0001
0000
,
0100
0010
1000
0100
,
1000
0000
0001
0000
0100
0010
1000
0000
,
0100
1000
0001
0100
,
0010
0000
1000
0100
1000
0000
0001
0000
,
0100
0001
0010
0100
,
1000
0001
0100
0010
,
1000
0100
1000
0000
0000
0000
0000
0000
;

//---------------dance-single - Copied from----------------
#NOTES:
     dance-single:
     Copied from:
     Easy:
     3:
     0.195,0.211,0.000,0.000,0.000,158.000,0.000,0.000,0.000,0.000,0.000,0.195,0.211,0.000,0.000,0.000,158.000,0.000,0.000,0.000,0.000,0.000:
0000
0000
0000
0000
,
0000
0000
0000
0000
,
0000
0000
0000
0000
,
0000
0000
0000
0000
,
0000
0000
1000
0010
,
0100
0000
0010
1000
,
0001
0000
0001
1000
,
0100
0000
1000
0001
,
0100
0000
0010
0100
,
0010
0000
0010
1000
,
0010
0000
0010
0100
,
0010
0000
0001
1000
,
0100
0000
1000
0001
,
0100
0000
0010
0010
,
0010
0000
0100
0001
,
1000
0000
0100
1000
,
0001
0000
0001
1000
,
0001
0000
0001
0100
,
0001
0000
0100
0010
,
0100
0000
0010
1000
,
0010
0000
0010
0000
,
0010
0000
1000
1000
,
1000
0000
0001
0000
,
0100
0000
0010
0000
,
1000
0000
0001
0000
,
0100
0000
0010
0010
,
0010
0000
0100
0000
,
0001
0000
1000
0000
,
0100
0000
1000
0001
,
0100
0100
0100
0010
,
1000
0001
1000
0100
,
0010
0001
0100
0010
,
1000
0001
0010
0100
,
1000
0001
0100
0010
,
1000
0001
0010
0100
,
1000
0001
0100
0010
,
0100
0001
1000
0000
,
0001
0000
0100
0000
,
0010
0000
1000
0000
,
0001
0000
0100
0000
,
0010
0000
1000
0000
,
0001
0000
1000
0000
,
0100
0000
1000
0000
,
0001
0000
0100
0000
,
0010
0000
1000
0001
,
1000
0000
0001
1000
,
0001
0000
0100
0001
,
0100
0000
0001
0100
,
0001
0000
1000
0010
,
1000
0000
0010
1000
,
0010
0000
0100
0010
,
0100
0000
0010
0100
,
0010
0000
1000
0000
,
1000
0000
0001
0001
,
0001
0000
0100
0000
,
0010
0000
1000
0000
,
0100
0000
0010
0000
,
0001
0000
0100
0100
,
0100
0000
0010
0000
,
1000
0000
0001
0000
,
0010
0000
0100
0000
,
0100
0000
0000
0000
;
