#TITLE:Rock Paranoia;
#SUBTITLE:;
#ARTIST:Stabilized & The MD;
#TITLETRANSLIT:;
#SUBTITLETRANSLIT:;
#ARTISTTRANSLIT:;
#GENRE:;
#CREDIT:;
#BANNER:Rock Paranoia.png;
#BACKGROUND:;
#LYRICSPATH:;
#CDTITLE:;
#MUSIC:11 - Hardcore Underground 2 - Stabilized & The MD - Rock Paranoia.ogg;
#OFFSET:-1.296;
#SAMPLESTART:37.990;
#SAMPLELENGTH:13.200;
#SELECTABLE:YES;
#BPMS:0.000=177.960;
#STOPS:;
#BGCHANGES:;
#KEYSOUNDS:;

//---------------dance-single - ----------------
#NOTES:
     dance-single:
     :
     Hard:
     9:
     0.822,0.954,0.506,1.000,0.214,579.000,71.000,157.000,0.000,0.000,0.000,0.822,0.954,0.506,1.000,0.214,579.000,71.000,157.000,0.000,0.000,0.000:
0000
0000
0000
0000
,
0000
0000
0000
0000
,
0000
0000
0000
0000
,
0000
0000
0000
0000
,
0000
0000
0000
0000
,
0000
0000
0000
0000
,
1001
0000
0010
1000
0100
0010
0000
1001
,
0000
0000
0001
0010
0100
1000
0000
1001
,
0000
0000
0010
1000
0001
1000
0000
1001
,
0000
0000
0001
0100
1000
0100
0000
0101
,
0001
0100
0000
1000
0100
0010
0000
0010
,
1000
0100
0000
0001
0100
1000
0000
0010
,
1000
0010
1000
0100
0010
0001
0010
0001
,
0020
0000
0000
0000
,
0031
0000
0001
1000
0010
0100
0000
0110
,
0000
0010
1000
0100
0010
0100
1000
0000
,
1001
0000
1000
0001
0100
0010
0000
0110
,
0000
0010
1000
0100
0110
0000
0011
0000
,
1001
0000
0010
1000
0100
0010
0000
0011
,
0000
0010
0001
0100
1000
0100
0010
0000
,
0110
0000
0010
1000
0100
0001
0000
0101
,
0000
0001
0100
1000
1100
0000
1010
0000
,
0110
0000
0010
1000
0001
0100
0000
0110
,
0000
0010
1000
0001
0010
1000
0010
0000
,
0011
0000
0001
0100
0010
1000
0000
1010
,
0000
1000
0001
0100
0110
0000
1001
0000
,
1100
0000
1000
0100
0010
0001
0000
1100
,
0000
0001
0010
0100
1000
0001
0010
0000
,
0110
0000
0001
0100
0010
1000
0000
1010
,
0000
1000
0010
1000
0020
2030
3020
0000
,
1030
0000
0001
0100
0010
1000
0000
1001
,
0000
0010
0100
0001
0010
0100
1000
0000
,
1100
0000
0010
0100
0001
1000
0000
1100
,
0000
0001
0100
0010
1000
0000
1010
0000
,
0010
0000
0100
0001
1000
0100
0000
1001
,
0000
0001
0100
0010
1000
0001
0100
0000
,
0101
0000
0010
1000
0100
0010
0000
0011
,
0000
0001
0100
1000
0001
0000
0010
0000
,
1010
0000
0100
1000
0001
0100
0000
1001
,
0000
0001
1000
0001
1000
0001
0100
0000
,
0010
0000
0010
1000
0100
1000
0000
0101
,
0000
0010
1000
0100
1000
0000
0101
0000
,
0010
0000
1000
0100
0010
0002
0000
0003
,
1000
0010
0100
0001
1000
0001
0002
0000
,
2003
3200
0320
0032
,
0203
0000
0320
0000
,
1030
0010
1000
0100
0010
0000
0002
0000
2000
0000
3003
0000
0110
0000
0000
1000
,
0020
0000
0230
0000
0302
0000
2003
0000
0000
0000
3100
0010
0001
1000
0010
0100
,
0020
0000
2030
0000
3002
0003
0002
0000
2003
0000
0000
0000
0000
0000
3001
0100
,
0010
1000
1000
0200
0000
0320
0000
0000
,
0031
0100
0010
1000
0002
0000
2003
0000
3020
0000
0000
0000
0000
0000
1030
0010
,
0200
0000
0320
0000
2030
0000
3200
0000
0000
0000
0310
0001
0010
0001
1000
0010
,
0100
0010
0100
0000
0020
0000
2030
0000
3002
0000
2003
0000
3000
0000
0000
0000
,
0100
0010
0001
0100
0010
1000
0001
0100
0020
0000
2030
0000
3002
0000
0000
0000
,
1003
0100
0010
0001
2000
0000
3020
0000
0230
0000
0000
0000
0000
0000
0301
0100
,
0020
0000
2030
0000
3002
0000
0203
0000
0000
0000
0310
1000
0001
1000
0001
0010
,
0200
0000
0300
1000
0200
0000
0320
0000
0032
0000
0000
0000
0000
0000
1003
0010
,
0200
0320
2030
3002
0000
2003
0000
0000
,
3001
1000
0010
0100
0002
0000
0203
0000
0320
0000
0000
0000
0000
0000
0130
0010
,
2000
0000
3200
0000
0320
0000
0032
0000
0000
0000
1003
0010
0100
0001
0010
0100
,
1000
0100
2000
0000
3200
0000
2300
0000
3200
0000
2300
0000
0000
0000
0000
0000
,
3001
0100
0010
1000
0100
0010
0001
1000
0100
0010
0002
0000
2000
0000
0003
0000
,
3020
0000
0000
0000
0000
2030
3020
0230
,
0302
0000
0023
0032
2003
0000
0000
0000
,
3002
0000
0000
0000
0000
2003
3200
0320
,
0032
0000
2003
3200
2300
0000
0000
3000
,
1000
0100
1000
0100
0010
0001
0010
0001
,
1000
0010
1000
0010
0100
0001
0100
0001
,
1000
0001
1000
0001
1000
0001
1000
0001
0100
0010
0100
0010
0100
0010
0100
0010
,
0200
0000
0000
0000
0310
0000
1000
0100
1000
0000
0001
0000
1001
0000
0000
0000
,
1001
0000
0120
0000
0000
1030
0100
0010
,
0011
0000
0000
1001
0000
0000
0101
0000
2002
0000
0000
0000
0000
0000
3003
0000
,
1001
0000
1020
0000
0000
1030
0001
0100
,
0110
0000
0000
1010
0000
0000
1001
0000
1200
0000
0000
0000
2300
0000
0000
0000
,
3002
0000
0203
0000
0300
0010
0001
0010
,
1000
0000
0000
1000
0000
0000
1000
0000
2000
0000
0000
0000
0000
0000
3200
0000
,
0320
0000
0032
0000
0000
0000
2003
3200
,
0320
0000
0000
0000
0032
0000
2003
0000
3020
0000
0030
0100
0010
0000
0000
0000
,
1020
0000
2000
0000
3030
1000
0001
0100
,
0010
0000
0000
1010
0000
0000
1001
0000
2002
0000
0000
0000
0000
0000
3003
0000
,
1010
0000
0202
0000
0303
0001
1000
0010
,
0100
0000
0000
0100
0000
0000
0100
0000
0200
0000
0000
0000
0320
0000
0000
0000
,
2030
0000
3200
0000
0000
0310
0001
1000
,
0010
0000
0000
1010
0000
0000
1001
0000
2100
0000
0000
0000
0000
0000
3100
0000
,
2000
0000
0020
0000
0000
0030
3010
1000
,
0002
0000
1003
0010
0200
0000
0300
0000
,
0110
0000
0010
1000
0002
0000
0203
0000
,
0320
0000
0000
0000
1030
0000
0010
0000
0100
0010
0100
0000
0110
0000
0000
0000
,
1020
0000
1030
1000
2000
0000
3200
0000
,
0320
0000
0000
0000
0030
0000
0001
0010
0001
0000
0010
0000
0011
0000
0000
0000
,
2001
0000
3010
1000
0002
0000
2003
0000
,
3002
0000
0000
0000
0103
0000
0010
1000
0010
0000
1000
0000
1010
0000
0000
0000
,
2100
0000
3010
0100
0002
0000
0203
0000
,
0320
0000
0000
0000
1030
0000
0100
0010
0100
0000
2000
0000
0000
3020
0000
0000
,
2030
0000
3001
0100
0002
0000
0203
0000
,
0320
0000
0000
0000
0000
2030
0000
0000
,
3200
0000
0310
0001
0200
0000
0320
0000
,
2030
0000
3001
0100
0001
0100
0010
1000
,
2010
0000
3100
0010
0002
0000
0023
0000
,
2030
0000
0000
0000
3010
0000
0001
0100
0010
0000
1000
0000
1100
0000
0000
0000
,
0012
0000
1003
0100
0020
0000
0032
0000
,
2003
0000
0000
0000
0000
0000
0000
3000
,
1001
0000
0000
0000
0002
0023
0230
2300
,
3000
0000
0000
0000
;

//---------------dance-single - ----------------
#NOTES:
     dance-single:
     :
     Medium:
     6:
     0.411,0.403,0.171,0.064,0.000,371.000,24.000,9.000,0.000,0.000,0.000,0.411,0.403,0.171,0.064,0.000,371.000,24.000,9.000,0.000,0.000,0.000:
0000
0000
0000
0000
,
0000
0000
0000
0000
,
0000
0000
0000
0000
,
0000
0000
0000
0000
,
0000
0000
0000
0000
,
0000
0000
0000
0000
,
1001
0000
0001
1000
0010
0000
0000
0100
,
0000
0000
0010
1000
0100
0000
0000
0100
,
0000
0000
1000
0001
0100
0000
0000
0010
,
0000
0000
0010
1000
0001
0000
0000
1000
,
0100
0000
0000
0010
0001
0000
0000
0100
,
0001
0000
0000
1000
0010
0000
0000
1000
,
0100
0010
0001
1000
,
2020
0000
0000
0000
0000
0000
0000
3030
,
0010
0000
1000
0000
0100
1000
0000
1000
,
0000
0001
0100
0010
,
1000
0000
0100
0000
1000
0100
0000
0100
,
0000
1000
0001
0100
,
0010
0000
1000
0000
0001
0100
0000
0100
,
0000
0010
1000
0100
,
1000
0000
0001
0000
0100
0010
0000
0010
,
0000
0010
1000
0100
,
1000
0000
0001
0000
0100
0010
0000
0010
,
0000
0010
1000
0100
,
1000
0000
0001
0000
0100
0001
0000
0001
,
0000
0001
0100
0000
0010
0000
1000
0000
,
0100
0000
1000
0000
0100
1000
0000
1000
,
0000
0001
0100
0010
,
1000
0000
0001
0000
0100
0010
0000
0010
,
0000
0010
1000
0100
,
1000
0000
0001
0000
0100
0010
0000
0010
,
0000
0010
1000
0100
,
1000
0000
0001
0000
0100
0001
0000
0001
,
0000
0001
1000
0100
,
1000
0000
0010
0000
0100
0010
0000
0010
,
0000
0010
1000
0100
,
1000
0000
0001
0000
0100
0001
0000
0001
,
0000
1000
0010
0100
,
0010
0000
1000
0000
0100
1000
0000
1000
,
0000
1000
0001
0100
,
0010
0000
1000
0000
0001
1000
0000
1000
,
0000
1000
0010
0100
,
0001
0010
0200
0000
,
1300
0001
1000
0002
,
2003
3200
0320
0032
,
0203
0000
0310
0000
,
1000
0000
0100
1000
0001
0000
0100
0000
,
0010
1000
0100
1000
,
0001
0100
0001
0000
0100
0000
0000
0000
,
0010
0000
1000
0100
0000
1100
0000
0000
,
0001
0100
0010
0000
,
0010
1000
0100
1000
0000
0000
0001
0000
,
0100
0000
0010
1000
0010
1000
0000
0000
,
0010
0000
0100
0000
0001
1000
0100
0000
,
1000
0001
0100
0000
,
0010
0000
1000
0100
0000
1000
0001
0100
,
0010
0010
1000
0000
,
0100
0000
1000
0001
0000
0101
0000
0000
,
0010
0000
1000
0100
1000
0000
0000
0000
,
1000
0001
0100
0010
0000
0010
0000
1000
,
0100
0000
1000
0001
0100
0010
0000
0000
,
0010
0000
1000
0000
0100
1000
0001
0000
,
1001
0000
0000
0000
0000
0000
0010
0100
,
0010
0000
0010
0100
0010
0000
0000
0000
,
1001
0000
0000
0000
0000
0000
0100
0010
,
0100
0000
0100
0010
0100
0000
0000
0000
,
1001
0000
0000
0000
0000
0000
0001
1000
,
0001
0000
0001
1000
0001
0000
0000
0000
,
1001
0000
0000
0000
0000
0000
1000
0001
,
1000
0000
1000
0001
1000
0000
0000
0000
,
1010
0101
0000
0010
,
0100
0010
0100
0000
,
1001
0110
0000
1000
,
0001
1000
0001
1000
,
1001
0110
0000
0100
,
0010
0100
0010
0000
,
0010
1000
0000
0100
,
1000
0000
0001
0100
0010
0000
0000
0000
,
1010
0101
0000
0010
,
1000
0100
1000
0000
,
0001
0110
0000
0010
,
1000
0100
1000
0001
,
1001
0110
0000
0010
,
1000
0100
1000
0000
,
1000
0000
0001
0000
0000
0000
0010
1000
,
0100
0000
0010
0001
0100
0000
0010
0000
,
1001
0000
0100
1000
0001
0000
0001
0000
,
1001
0000
0000
0000
0000
0010
0000
0000
,
1010
0000
0001
0100
0010
0000
1000
0000
,
1100
0000
0000
0000
0000
1000
0000
0000
,
0001
0000
0100
0010
1000
0000
0001
0000
,
0101
0000
0000
0000
0000
0010
0000
0000
,
0010
0000
1000
0100
1000
0000
0001
0000
,
0100
0000
0000
0000
0000
0010
0000
1000
,
0100
0000
1000
0001
0100
0000
0010
0000
,
1000
0000
0000
0000
0000
0001
0000
0000
,
1000
0000
0100
1000
0001
0000
0100
0000
,
0010
0000
0000
0000
0000
1000
0000
0000
,
1000
0000
0100
1000
0001
0000
1000
0000
,
0010
0000
0000
0000
0000
0100
0000
0000
,
0010
0000
1000
0100
1000
0000
0001
0000
,
0100
0000
0000
0010
,
1000
0000
0000
0000
0001
0100
0010
1000
;

//---------------dance-single - ----------------
#NOTES:
     dance-single:
     :
     Easy:
     4:
     0.285,0.293,0.029,0.000,0.000,276.000,4.000,0.000,0.000,0.000,0.000,0.285,0.293,0.029,0.000,0.000,276.000,4.000,0.000,0.000,0.000,0.000:
0000
0000
0000
0000
,
0000
0000
0000
0000
,
0000
0000
0000
0000
,
0000
0000
0000
0000
,
0000
0000
0000
0000
,
0000
0000
0000
0000
,
1000
0000
0000
0000
0010
0000
0000
0100
,
0000
0000
0010
0000
1000
0000
0000
0001
,
0000
0000
0001
0000
1000
0000
0000
0100
,
0000
1000
0001
0000
,
0100
0000
0100
0000
,
0100
0000
0100
0000
,
0100
0010
1000
0000
,
0001
0000
1000
0000
,
0100
0000
0000
0000
1000
0000
0000
0001
,
0000
0001
0100
0100
,
0010
0000
0000
0000
0010
0000
0000
1000
,
0000
0100
1000
0001
,
0100
0000
0000
0000
0010
0000
0000
0100
,
0000
0010
1000
0001
,
1000
0000
0000
0000
0100
0000
0000
1000
,
0000
0001
0100
0100
,
0010
0000
0000
0000
0100
0000
0000
0010
,
0000
1000
0100
1000
,
0100
0000
0000
0000
1000
0000
0000
0001
,
0000
0100
0010
0100
,
0010
0000
0000
0000
1000
0000
0000
0001
,
0000
1000
0100
1000
,
0001
0000
0100
0000
0010
0000
0000
0100
,
0000
0010
1000
0001
,
1000
0000
0000
0000
0100
0000
0000
1000
,
0000
0001
0100
0010
,
0100
0000
0000
0000
0001
0000
0000
1000
,
0000
0100
1000
0001
,
0100
0000
0000
0000
0010
0000
0000
0100
,
0000
0001
1000
0100
,
1000
0000
0000
0000
0001
0000
0000
0100
,
0000
0010
1000
0001
,
1000
0000
0000
0000
0100
0000
0000
1000
,
0000
0001
0100
0010
,
0100
0000
0000
0000
0001
0000
0000
0100
,
0000
0010
1000
0100
,
1000
0000
0001
0000
,
0100
0000
0010
0000
,
1000
0000
0001
0000
,
0101
0000
1010
0000
,
0010
0100
0010
0000
,
0010
1000
0001
0000
,
0001
1000
0100
0000
,
0100
1000
0001
1001
,
0001
0100
0010
0000
,
0010
1000
0001
0000
,
0001
1000
0100
0000
,
0100
1000
0001
0100
,
0001
0000
1000
0000
,
0010
0100
0010
0000
,
0010
1000
0001
0000
,
0001
1000
0010
0110
,
0010
1000
0100
0000
,
0100
1000
0001
0000
,
0001
1000
0001
0000
,
0001
0100
1000
0100
,
0001
0000
0000
0000
,
0001
0000
1000
0000
,
1000
0000
0000
0000
,
0010
0000
0100
0000
,
0010
0000
0000
0000
,
0100
0000
0010
0000
,
1000
0000
0000
0000
,
0001
0000
1000
0000
,
0001
1000
0000
1000
,
0001
0100
1000
0000
,
1000
0100
0000
1000
,
0100
0001
0010
0100
,
1000
0001
0000
0001
,
1000
0001
0100
0000
,
0010
0100
0000
0010
,
0100
0010
1000
0000
,
0001
1000
0000
0001
,
0100
0010
1000
0000
,
1000
0001
0000
0001
,
0100
0001
0010
0100
,
1000
0001
0000
0001
,
0100
0010
0100
0000
,
0010
1000
0000
0001
,
1000
0100
1000
0000
,
0001
0100
0010
0100
,
0010
0000
0000
0000
0000
1000
0000
0000
,
0001
0100
0010
1000
,
0001
0000
0000
0000
,
0010
1000
0100
1000
,
0001
0000
0000
0000
0000
0100
0000
0000
,
0010
1000
0001
1000
,
0100
0000
0000
0000
0000
1000
0000
0000
,
0001
0100
0010
0100
,
0001
0000
0000
0000
0000
1000
0000
0000
,
0100
1000
0001
0010
,
0100
0000
0000
0000
,
0001
0100
0010
0100
,
0001
0000
0000
0000
0000
1000
0000
0000
,
0100
1000
0001
0100
,
0010
0000
0000
0000
,
1000
0000
0000
0000
0001
1000
0001
1000
;
