#TITLE:Red Alert;
#SUBTITLE:;
#ARTIST:DJ Stormtrooper vs. DJ D-Lyte feat. MC Night;
#TITLETRANSLIT:;
#SUBTITLETRANSLIT:;
#ARTISTTRANSLIT:;
#GENRE:;
#CREDIT:;
#BANNER:Red Alert.png;
#BACKGROUND:;
#LYRICSPATH:;
#CDTITLE:;
#MUSIC:Red Alert.ogg;
#OFFSET:0.265;
#SAMPLESTART:54.590;
#SAMPLELENGTH:11.960;
#SELECTABLE:YES;
#BPMS:0.000=175.540,17.000=351.080,18.000=175.540,33.000=351.080,34.000=175.540,49.000=351.080,50.000=175.540,125.000=351.079,125.500=175.540,158.000=351.080,159.000=175.540,478.000=351.080,479.000=175.540;
#STOPS:17.000=0.171
,33.000=0.171
,49.000=0.171
,61.000=1.025
,125.000=0.085
,158.000=0.171
,478.000=0.183
;
#BGCHANGES:;
#KEYSOUNDS:;

//---------------dance-single - ----------------
#NOTES:
     dance-single:
     :
     Challenge:
     10:
     1.000,1.000,1.000,1.000,1.000,1158.000,112.000,167.000,81.000,0.000,0.000,1.000,1.000,1.000,1.000,1.000,1158.000,112.000,167.000,81.000,0.000,0.000: // measure 1
0000
0000
0000
0000
,  // measure 2
0000
0000
0000
0000
,  // measure 3
0000
0000
0000
0000
,  // measure 4
0000
0000
0000
0000
,  // measure 5
0000
0000
1001
0000
0110
0010
1000
0100
,  // measure 6
0010
0001
1000
0100
0010
0001
1000
0100
,  // measure 7
0010
0001
1000
0100
0010
0001
1000
0100
,  // measure 8
0010
0001
1000
0100
0010
0001
1000
0100
,  // measure 9
0010
0001
0011
0000
1100
1000
1100
1000
,  // measure 10
0010
0100
0001
1000
0010
0100
0001
1000
,  // measure 11
0010
0100
0001
1000
0010
0100
0001
1000
,  // measure 12
0010
0100
0001
1000
0010
0100
0001
1000
,  // measure 13
0010
0000
0000
0100
0000
0000
0101
0000
0000
0000
0000
0000
0011
0000
0000
0001
0010
0001
0010
0000
0000
0001
0000
0000
,  // measure 14
1000
0010
0100
0010
1000
0001
1000
0010
,  // measure 15
0100
0010
1000
0100
0010
0001
1000
0010
,  // measure 16
0100
0000
0010
0000
1010
0000
0000
0000
1100
000M
0000
M000
00M0
0000
0M00
0000
,  // measure 17
00M0
0000
1M01
0000
0000
M000
0110
000M
0000
0000
M000
00M0
0M00
0000
000M
0000
,  // measure 18
M000
0000
0M20
0000
M00M
0000
0M00
000M
M030
0M00
0000
000M
0000
00M0
MM00
0000
,  // measure 19
000M
0000
1M10
0000
0000
00M0
0101
M000
0000
00M0
000M
0M00
M000
0000
0MM0
0000
,  // measure 20
000M
0000
2M00
00M0
000M
0000
00M0
0M00
3000
000M
0000
00M0
0M00
0000
0000
MM00
,  // measure 21
0000
M000
0011
0M00
0000
000M
1100
0000
00M0
0000
0M00
0000
M000
0000
00M0
0000
,  // measure 22
000M
0M00
00M0
0000
M000
0000
000M
0000
2000
0000
0000
0000
3002
0000
0000
0000
,  // measure 23
0000
0000
0000
0000
0203
0000
0000
0000
0301
0000
1000
0100
1000
0000
0001
0100
,  // measure 24
0001
0000
1000
0100
1000
0000
0001
0100
0001
0000
0000
1000
0000
0000
0100
0000
,  // measure 25
0000
0010
0001
1000
00M2
0000
2M03
0000
,  // measure 26
302M
0000
0000
0000
M230
0000
0000
0000
0310
0000
0000
1000
0000
0000
0001
0000
,  // measure 27
0000
1000
0001
0100
002M
0000
2M30
0000
,  // measure 28
320M
0000
0000
0000
M320
0000
0000
0000
0031
0000
0000
1000
0000
0000
0010
0000
,  // measure 29
0000
0100
0010
0100
M020
0000
2M30
0000
,  // measure 30
30M2
20M3
3002
2003
,  // measure 31
0000
0000
0000
0000
3200
0000
0000
0000
1300
0100
1000
0000
0001
0100
0001
0000
,  // measure 32
0010
0001
0010
0000
0100
0000
0100
0000
1000
0000
0001
0000
0010
0000
1000
0000
,  // measure 33
1000
0010
0000
0100
0000
0000
0010
0000
0010
0000
1000
0000
0001
0000
1000
0000
,  // measure 34
0010
0100
0000
0010
0000
0000
1000
0001
0100
0000
0010
0000
1000
0000
0100
0000
,  // measure 35
0010
0001
0000
0100
0000
0000
0010
0000
1000
0000
0100
0000
0010
0000
0001
0000
,  // measure 36
1000
0010
0000
0100
0000
0000
0010
0000
1000
0000
0001
0000
0101
0000
0001
0000
,  // measure 37
1000
0100
1100
0100
0010
0001
0101
0100
,  // measure 38
0010
1000
1100
0100
0020
0000
0032
0000
,  // measure 39
2003
0000
3020
0000
0230
0002
0300
1000
,  // measure 40
2003
3000
1001
0110
,  // measure 41
0010
0000
1000
0000
0001
0000
0000
0000
1000
0000
0010
0000
0100
0000
0010
1000
,  // measure 42
0000
1000
0001
0000
1000
0010
0100
0000
0100
0000
0010
0000
1000
0000
0100
0000
,  // measure 43
0010
1000
0010
0100
0001
0100
1000
0010
,  // measure 44
0100
0010
0000
1000
0100
0010
0001
0000
1000
0010
0000
0100
0000
0000
0010
0000
,  // measure 45
1000
0000
0100
0000
0010
0000
0000
0000
0011
0000
0011
0000
0001
0000
0100
0010
,  // measure 46
0000
1000
0100
0000
0110
0000
0000
0000
0001
0000
0010
0000
0100
0000
1000
0001
,  // measure 47
0000
0001
0010
0000
0110
0000
0000
0000
0010
0000
0010
0000
0001
0000
0001
0000
,  // measure 48
1000
0000
1000
0000
0100
0010
0100
0010
0100
0000
0000
0010
0000
0000
0001
0000
,  // measure 49
0000
0000
0001
0000
1000
0000
0010
0000
0110
0000
0000
0010
0000
0000
1000
0000
,  // measure 50
0000
0000
1000
0000
0010
0100
0001
0000
1001
0000
0000
0001
0000
0000
0010
0000
,  // measure 51
0000
0000
0100
0000
2000
0000
3010
0000
0100
0000
0000
0010
0000
0000
2000
0000
,  // measure 52
3001
0000
1000
0000
0010
1000
0001
1000
0100
0000
0000
0010
0000
0000
0001
0000
,  // measure 53
0000
0000
1000
0000
0010
0000
0100
0000
0010
0000
0000
1000
0000
0000
0100
0000
,  // measure 54
0000
0000
0010
0000
0001
0100
0000
0000
0110
0000
0000
0010
0000
0000
1000
0000
,  // measure 55
0000
0000
1000
0000
0002
0000
0103
0000
0101
0000
0000
0010
0000
0000
0102
0000
,  // measure 56
0200
0000
0000
0000
0000
0000
0303
0000
0101
0000
0000
0001
0000
0000
1000
0000
,  // measure 57
0000
0000
0100
0000
0010
0000
0001
0000
1000
0000
0000
0010
0000
0000
0100
0000
,  // measure 58
0000
0000
0010
0000
1000
0001
0100
0000
0010
0000
0000
1000
0000
0000
0001
0000
,  // measure 59
0000
0000
1000
0000
0200
0000
0310
0000
0001
0000
0000
1000
0000
0000
0001
0000
,  // measure 60
0100
0000
0010
0000
1000
0100
0010
0100
1000
0000
0000
1000
0000
0000
0010
0000
,  // measure 61
0000
0000
0100
0000
0100
0000
0100
0000
0010
0000
0000
1000
0000
0000
0100
0000
,  // measure 62
0000
0000
0010
0000
0001
1000
0010
0000
0100
0000
0000
0010
0000
0000
0110
0000
,  // measure 63
0000
0010
1000
0010
1000
0010
0001
0010
,  // measure 64
1000
0000
0010
0000
0001
0000
0000
0000
0010
0000
1000
0010
0000
0000
0010
0000
,  // measure 65
1000
0000
0020
0000
2030
0000
3100
0000
0010
0000
0001
0010
0000
0000
0001
0000
,  // measure 66
0010
0000
2000
0000
3010
0001
1000
0000
0001
0000
0100
0010
0000
0000
0010
0000
,  // measure 67
1000
0001
2000
3100
0010
0001
0001
0001
,  // measure 68
0100
0000
0010
0000
1000
0010
2000
0000
3010
0000
0100
0010
0000
0000
1000
0000
,  // measure 69
0100
0000
0010
0000
0002
0000
2003
0000
3010
0000
1000
0010
0000
0000
0100
0000
,  // measure 70
0010
0000
1000
0000
0100
0010
0001
0000
1000
0000
0010
0100
0000
0000
0001
0000
,  // measure 71
1000
0000
0200
0000
0320
0000
0032
0000
1003
0000
0001
1000
0000
1000
0100
0000
,  // measure 72
0020
0000
0000
0000
1030
0010
0001
1000
,  // measure 73
0010
0100
0000
0010
1000
0000
0100
0000
0110
0000
0010
0000
0001
0000
1000
0000
,  // measure 74
0010
0100
0000
0010
1000
0000
0100
0000
0110
0000
0010
0000
0001
0000
1000
0000
,  // measure 75
0100
0001
0000
0001
0100
0000
1000
0000
0100
0010
0000
0010
0100
0000
0010
0000
,  // measure 76
0001
1000
0000
1000
0001
0100
0001
0010
0001
0000
1000
0000
0010
0000
1000
0000
,  // measure 77
0100
0010
0000
0001
1000
0000
0010
0000
0110
0000
0010
0000
1000
0000
0100
0000
,  // measure 78
0001
0100
0000
1000
0100
0000
0100
0000
0020
0000
0000
0000
0032
0000
0000
0000
,  // measure 79
2003
0000
3020
0000
0230
0010
0000
0020
,  // measure 80
0000
0000
0330
0000
0000
0000
0000
0000
1010
0000
1010
0000
0010
0000
1000
0100
,  // measure 81
0000
1000
0100
0000
0020
0000
0030
0000
0011
0000
0011
0000
0001
0000
0100
0010
,  // measure 82
0000
1000
0100
0000
0020
0000
0030
0000
0110
0000
0110
0000
0001
0000
1000
0010
,  // measure 83
0000
0100
0010
0000
2002
0000
3003
0000
2200
0000
3300
0000
0202
0000
0303
0000
,  // measure 84
0000
1000
0100
0000
2200
0000
3300
0000
0011
0000
0011
0000
0001
0000
1000
0100
,  // measure 85
0000
0100
1000
0000
0020
0000
0030
0000
1010
0000
1010
0000
1000
0000
0100
0010
,  // measure 86
0000
0001
1000
0000
0200
0000
0300
0000
0110
0000
0110
0000
0010
0000
0001
1000
,  // measure 87
0000
0010
0100
0000
0020
0000
0030
0000
1000
0000
0100
0000
0010
0000
0001
1000
,  // measure 88
0000
0001
1000
0000
0110
0000
0000
0000
1010
0000
1010
0000
1000
0000
0001
0010
,  // measure 89
0000
0100
1000
0000
0002
0000
0003
0000
1001
0000
1001
0000
0001
0000
0100
0010
,  // measure 90
0000
1000
0100
0000
0020
0000
0030
0000
0011
0000
0011
0000
0001
0000
1000
0010
,  // measure 91
0000
0010
1000
0000
0200
0000
0300
0000
0022
0000
0033
0000
2002
0000
3003
0000
,  // measure 92
0000
0001
0100
0000
0202
0000
0303
0000
0011
0000
0011
0000
0001
0000
1000
0010
,  // measure 93
0000
0100
0010
0000
2000
0000
3000
0000
1100
0000
1100
0000
0100
0000
0010
0001
,  // measure 94
0000
1000
0100
0000
0002
0000
0003
0000
1100
0000
1100
0000
1000
0000
0010
0100
,  // measure 95
0000
0010
1000
0000
0002
0000
0003
0000
1000
0000
0100
0000
0001
0000
0100
0000
,  // measure 96
1000
0000
0100
0000
0010
0000
0000
0000
0021
0000
0000
0000
0001
0000
0000
0001
,  // measure 97
0000
0000
0001
0000
0032
0000
0000
0000
2003
0000
0000
0000
0100
0000
0000
0100
,  // measure 98
0000
0000
0100
0000
3100
0000
0010
0000
0200
0000
0000
0000
1000
0000
0000
1000
,  // measure 99
0000
0000
1000
0000
2300
0000
0000
0000
3020
0000
0000
0000
0130
0000
0000
0100
,  // measure 100
0000
0000
0200
0000
0000
0000
0000
0000
0320
0000
0000
0000
1000
0000
0000
1000
,  // measure 101
0000
0000
1000
0000
2030
0000
0000
0000
3002
0000
0000
0000
0010
0000
0000
0010
,  // measure 102
0000
0000
0010
0000
0013
0000
0100
0000
2000
0000
0000
0000
0001
0000
0000
0001
,  // measure 103
0000
0001
3002
0000
0203
0000
0000
0000
,  // measure 104
0000
0000
0020
0000
0000
0000
0330
0000
1000
0000
0000
0001
0000
0000
0100
0000
,  // measure 105
0020
0000
0000
0030
1010
0000
1010
0000
1000
0000
0000
0100
0000
0000
0010
0000
,  // measure 106
0002
0000
0000
0003
1001
0000
1001
0000
1000
0000
0000
0010
0000
0000
0100
0000
,  // measure 107
0200
0000
0000
0300
0110
0000
0110
0000
1010
0000
1010
0000
1000
0000
0100
0010
,  // measure 108
0000
0001
0100
0000
0020
0000
0030
0000
1000
0000
0000
0010
0000
0000
0001
0000
,  // measure 109
0020
0000
0000
0030
1010
0000
1010
0000
1000
0000
0000
0100
0000
0000
0010
0000
,  // measure 110
0200
0000
0000
0300
0110
0000
0110
0000
0001
0000
0000
1000
0000
0000
0010
0000
,  // measure 111
0200
0000
0000
0300
0101
0000
0101
0000
0001
0000
1000
0000
0010
0000
0100
0000
,  // measure 112
0010
0000
0001
0000
0020
0000
0000
0000
2030
0000
0000
0000
0100
0000
0000
0100
,  // measure 113
0000
0000
3200
0000
0000
0000
0300
0000
0020
0000
0000
0000
0001
0000
0000
0001
,  // measure 114
0000
0000
0032
0000
0000
0000
2003
0000
3200
0000
0000
0000
0010
0000
0000
0010
,  // measure 115
0000
0000
0320
0000
0000
0000
0000
0000
0032
0000
0000
0000
2003
0000
0000
3200
,  // measure 116
0000
0000
0320
0000
0000
0000
0000
0000
0032
0000
0000
0000
1000
0000
0000
1000
,  // measure 117
0000
0000
2003
0000
0000
0000
0000
0000
3200
0000
0000
0000
1000
0000
0000
1000
,  // measure 118
0000
0000
2300
0000
0000
0000
3002
0000
0203
0000
0000
0000
0010
0000
0000
0010
,  // measure 119
0000
0320
0000
0000
2030
0000
0000
0000
,  // measure 120
0000
0200
0000
3300
1100
0000
0011
0000
,  // measure 121
1000
0000
0002
0000
0100
0000
0003
0000
0010
0000
1000
0000
0001
0000
1000
0100
,  // measure 122
0000
1000
0100
0000
0100
0000
0010
0000
0001
0000
1000
0000
0010
0000
0001
0000
,  // measure 123
1000
0100
0001
0000
0001
0010
0100
1000
,  // measure 124
0100
0010
0001
0000
0000
0000
0000
0000
0001
1000
0010
0000
0000
0000
0000
0000
,  // measure 125
1010
0000
1000
0000
1000
0000
0000
0000
1001
0000
1001
0000
0001
0000
0100
0010
,  // measure 126
0000
1000
0100
0000
0220
0000
0330
0000
0001
0000
1000
0000
0010
0000
0100
0001
,  // measure 127
0000
0100
0001
0000
1001
0000
0000
0000
1000
0000
0100
0000
0001
0000
0100
0000
,  // measure 128
1000
0000
0010
0000
0001
0000
0000
0000
0010
0000
0000
1000
0000
0000
0100
0000
,  // measure 129
0000
0010
0001
1000
002M
0000
2M30
0000
,  // measure 130
30M2
0000
0000
0000
M023
0000
0000
0000
0130
0000
0000
0100
0000
0000
0100
0000
,  // measure 131
0000
1000
0010
0100
M020
0000
023M
0000
,  // measure 132
03M2
0000
0000
0000
2M03
0000
0000
0000
3010
0000
0000
0100
0000
0000
0010
0000
,  // measure 133
0000
0010
1000
0100
M020
0000
0M32
0000
,  // measure 134
02M3
0000
0000
0000
M320
0000
0000
0000
1030
0000
0000
0001
0000
0000
0100
0000
,  // measure 135
0000
0000
0010
0000
0010
0000
0100
0000
0100
0000
0000
0010
0000
0000
1000
0000
,  // measure 136
0000
0000
0001
0000
0010
0100
1000
0000
1001
0000
1001
0000
0001
0000
0100
0010
,  // measure 137
0000
0010
1000
0000
0200
0300
1000
0000
1100
0000
1100
0000
0100
0000
0010
0001
,  // measure 138
0000
0100
0010
0000
0020
1030
0100
0000
0110
0000
0110
0000
0010
0000
0001
0100
,  // measure 139
0000
0010
0100
0000
0020
0030
1000
0000
0200
0300
0010
0000
0002
0003
0000
0000
,  // measure 140
1000
0100
1000
0100
1000
0001
0100
0000
0110
0000
0110
0000
0010
0000
1000
0000
,  // measure 141
1001
0010
0100
1000
1100
1000
0010
0100
,  // measure 142
0110
0010
1000
0100
0120
0000
0032
0000
,  // measure 143
2003
0000
3020
0000
0130
0100
0010
0010
,  // measure 144
1000
0100
0010
0000
0001
1000
0010
0100
0010
0000
0000
0010
0000
0000
1000
0000
,  // measure 145
0000
0000
0001
0000
0010
0000
0100
0000
1000
0000
0000
0010
0000
0000
0100
0000
,  // measure 146
0000
0000
0010
0000
1000
0100
0010
0000
0001
0000
0000
2000
3000
0000
0010
0000
,  // measure 147
0000
0000
0100
0000
0020
0000
1030
0000
0100
0000
0000
0010
0000
0000
0002
0000
,  // measure 148
1003
0000
0010
0000
0100
0010
1000
0100
0010
0000
0000
0001
0000
0000
0100
0000
,  // measure 149
0000
0000
0010
0000
1000
0000
0100
0000
0010
0000
0000
0100
0000
0000
1000
0000
,  // measure 150
0000
0000
0001
0000
0100
0010
0100
0000
0010
0000
0000
1000
0000
0000
0100
0000
,  // measure 151
0000
0000
0010
0000
0002
0000
0013
0000
0100
0000
0000
0100
0000
0000
0200
0000
,  // measure 152
2000
0000
0000
0000
0000
0000
3300
0000
1100
0000
0000
1100
0000
0000
1100
0000
,  // measure 153
0000
0000
1000
0000
0010
0000
0100
0000
0010
0000
0000
0010
0000
0000
0010
0000
,  // measure 154
0000
0000
1000
0000
0100
0010
0001
0000
1000
0000
0000
0010
0000
0000
0100
0000
,  // measure 155
0000
0000
0010
0000
1000
0000
0001
0000
0100
0000
0000
0010
0000
0000
0100
0000
,  // measure 156
0010
0000
1000
0000
0100
0010
0001
1000
0001
0000
0000
0100
0000
0000
0010
0000
,  // measure 157
0000
0000
1000
0000
0100
0000
0010
0000
0100
0000
0000
0001
0000
0000
0100
0000
,  // measure 158
0000
0000
1000
0000
0010
0100
0010
0000
1000
0000
0000
0100
0000
0000
0010
0000
,  // measure 159
0000
0100
1000
0010
0100
0100
0010
0010
,  // measure 160
1000
0000
1000
0000
1001
0000
0000
0000
1000
0000
0100
1000
0000
0000
1000
0000
,  // measure 161
0001
0000
0010
0000
0200
0000
2300
0000
3001
0000
0100
0010
0000
0000
0010
0000
,  // measure 162
1000
0000
0100
0000
0010
0001
1000
0000
0010
0000
0100
0010
0000
0000
0010
0000
,  // measure 163
1000
0000
0200
0000
0320
0000
0032
0000
1003
0000
0010
1000
0001
0000
0001
0010
,  // measure 164
0100
0000
1000
0000
0010
0100
0010
1000
0100
0000
0010
0001
0000
0000
0001
0000
,  // measure 165
0010
0000
0200
0000
2300
0000
3020
0000
0130
0000
0010
1000
0000
0000
1000
0000
,  // measure 166
0010
0000
0100
0000
0010
1000
0001
0000
0010
0000
0100
1000
0000
0000
1000
0000
,  // measure 167
0001
0000
0200
0000
0320
0000
2030
0000
3001
0000
0100
0010
0000
1000
0100
0000
,  // measure 168
0220
0000
0000
0330
0011
0011
0001
0100
,  // measure 169
0010
1000
0000
0100
0010
0000
0010
0000
0001
0000
1000
0000
0010
0000
0100
0000
,  // measure 170
0010
1000
0000
1000
0100
0000
0010
0000
0001
0000
1000
0000
0010
0000
0100
0000
,  // measure 171
0010
1000
0000
0001
0100
0000
0010
0000
1000
0100
0000
0010
0001
0000
1000
0000
,  // measure 172
0010
0100
0000
0010
1000
0100
0010
0001
1000
0000
0001
0000
1000
0000
0010
0000
,  // measure 173
0110
0010
1000
0100
1100
0100
0010
0001
,  // measure 174
0011
0010
0100
1000
1020
0000
0230
0000
,  // measure 175
0320
0000
2030
0000
3002
0203
0000
0020
,  // measure 176
0000
0000
0330
0000
;
