#TITLE:Radio Up;
#SUBTITLE:;
#ARTIST:Letter Kills;
#TITLETRANSLIT:;
#SUBTITLETRANSLIT:;
#ARTISTTRANSLIT:;
#GENRE:;
#CREDIT:;
#BANNER:Radio Kills.png;
#BACKGROUND:;
#LYRICSPATH:;
#CDTITLE:;
#MUSIC:21 - Letter Kills - Radio Up.ogg;
#OFFSET:0.072;
#SAMPLESTART:16.110;
#SAMPLELENGTH:13.180;
#SELECTABLE:YES;
#BPMS:0.000=185.180;
#STOPS:;
#BGCHANGES:;
#KEYSOUNDS:;

//---------------dance-single - ----------------
#NOTES:
     dance-single:
     :
     Hard:
     9:
     0.688,0.695,0.382,0.085,0.143,410.000,36.000,8.000,0.000,0.000,0.000,0.688,0.695,0.382,0.085,0.143,410.000,36.000,8.000,0.000,0.000,0.000:
0000
0000
0000
0000
,
0000
0000
0000
0000
,
0000
0000
0000
0000
,
0000
0000
0000
0000
,
0000
0000
0000
0000
,
0000
0000
0000
0000
,
0000
0000
0000
0000
,
0000
0000
0000
0000
0000
0000
1000
0001
,
1000
1000
0010
0100
0010
1000
0100
0000
,
0010
0001
1000
0010
0100
0010
0100
0010
,
0010
1000
0100
0010
0001
0010
1000
0000
,
0010
0001
0100
1000
0100
0001
1000
0100
,
0010
0001
0001
0000
0001
1000
0010
0100
,
0010
1010
1100
0011
,
0101
0000
0010
1000
0100
0010
0001
0000
,
0001
0000
1000
0000
0010
1000
0000
1000
,
0100
0000
0010
0001
0010
0001
1000
0010
,
0100
1010
1100
0011
,
0101
0000
0010
1000
0100
1000
0010
0100
,
0001
0000
1000
0000
0100
0000
0100
0000
0010
0000
0010
0000
0001
1000
0001
1000
,
0001
1000
0001
1000
0001
0000
0100
0000
0010
0000
0000
0000
0000
0000
0010
0000
,
0000
1000
0100
0001
0100
0000
1000
0010
,
0100
0020
1000
0100
,
0031
1010
1100
0011
,
0001
1000
0002
0000
1000
0000
0010
0010
,
0013
0001
1000
0000
1010
0000
0010
1000
,
0010
0010
0200
0000
0010
0000
1000
0000
,
0001
0000
0000
0000
0010
0000
0000
0000
0001
0000
0000
0000
0301
0100
0001
0100
,
0001
0100
0001
0000
1000
0000
0000
0000
0110
0000
0000
0000
0010
0000
0001
0000
,
0010
0000
0101
0000
1010
0000
1000
0100
,
1000
0000
1010
0010
0100
0000
0101
0000
,
0001
1000
0010
0000
0110
0000
1001
0000
,
1000
0000
0010
0100
0010
0000
1000
0100
,
1000
0000
0010
0000
1010
0000
0100
0010
,
0100
0000
0102
0000
1000
0000
0100
0100
,
0100
0000
0000
0000
0013
0000
0001
0000
0100
0000
1000
0000
0100
0001
0100
0001
,
0100
0001
0100
0000
0010
0000
1000
0000
0100
0000
0010
0000
0001
0000
0000
0000
,
1000
0000
0001
0000
0100
0000
0010
0000
1000
0000
0000
0100
1000
0000
0001
0000
,
0001
1000
0001
0100
0010
0001
0010
0000
,
0010
0000
1000
0000
0100
0000
0010
0000
0001
0000
0000
0010
0001
0000
1000
0000
,
0001
0001
1000
0100
1000
0100
1000
0000
,
0001
0100
0001
0100
0001
0000
1000
0001
,
1000
0000
0010
1000
0100
0010
0001
0000
,
1000
0010
1000
0010
1000
0000
0100
1000
,
0100
0000
0010
0001
0010
0001
0010
0000
,
0001
1000
0010
0100
,
0110
0000
1001
0000
,
0011
0000
0000
0000
0000
0000
0000
0000
1100
0000
0000
0000
1000
0100
1000
0100
,
1000
0100
1000
0100
1000
0000
0001
0000
1000
0000
0000
0000
0000
0000
0010
0000
,
0000
0000
0100
0000
0010
0000
1000
0000
0001
0000
0000
0000
0010
0100
0010
0000
,
0001
1000
0010
0000
0100
0000
0010
0000
,
2100
0001
0010
0100
,
3001
0001
0001
0000
1000
0000
0010
0100
,
0010
0000
1000
0000
0100
0000
0000
0000
0011
0000
0000
0000
0001
0100
0001
0100
,
0001
0100
0020
0000
1000
0000
0001
0000
,
0100
0000
0000
0000
1030
0000
0010
0000
1000
0000
0100
0000
0010
0001
0010
0001
,
0010
0001
0010
0001
0010
0000
0000
0000
0100
0000
0000
0000
0010
0000
0001
0000
,
1000
0010
1000
0000
0100
0000
0010
0001
,
0010
0000
0001
0100
0001
0000
0010
0100
,
0010
0000
0100
0000
1000
0000
0001
1000
,
0001
0000
0001
0100
0001
0000
0100
0010
,
0100
0010
1000
0000
0100
0000
0010
0001
,
0100
0000
0110
0000
0010
0000
1000
0001
,
0100
0000
0010
0000
0010
0000
1000
0000
1000
0000
0001
0000
0001
1000
0001
1000
,
0001
1000
0001
1000
0001
0000
0000
0000
1000
0000
0000
0000
0010
0000
1000
0000
,
0010
0100
0001
0000
0110
0000
1100
0000
,
1001
0000
0001
0100
0010
0000
0010
1000
,
0001
1000
0001
0000
0110
0000
1000
0100
,
1000
0001
0100
0010
0100
0000
0010
1000
,
0100
0010
0001
0000
1001
0000
1000
0100
,
1000
0001
0010
0000
0011
0000
1100
1000
,
0001
0100
0010
1000
0010
1000
0010
1000
,
0010
1000
2002
0000
0000
0000
3003
0000
;

//---------------dance-single - ----------------
#NOTES:
     dance-single:
     :
     Medium:
     6:
     0.396,0.425,0.011,0.233,0.000,238.000,1.000,22.000,0.000,0.000,0.000,0.396,0.425,0.011,0.233,0.000,238.000,1.000,22.000,0.000,0.000,0.000:
0000
0000
0000
0000
,
0000
0000
0000
0000
,
0000
0000
0000
0000
,
0000
0000
0000
0000
,
0000
0000
0000
0000
,
0000
0000
0000
0000
,
0000
0000
0000
0000
,
0000
0000
0000
0000
,
0000
0010
0100
0010
,
0010
1000
0100
0000
1000
0000
0001
0000
,
0100
0000
0010
1000
0100
1000
0001
0000
,
0100
0000
0010
0000
1000
0000
0100
1000
,
0001
0100
0010
0010
,
1000
0100
1000
0001
,
0100
0000
0010
1000
,
0100
0000
1000
0000
0001
0100
0000
0100
,
0010
0000
0010
1000
,
0100
1000
0001
0100
,
0010
0000
0010
2000
,
0000
0000
0000
0000
0000
3000
0100
1000
,
0001
0000
0100
0000
0100
0000
0000
0010
,
0000
1000
0100
0000
1000
0000
0000
1000
,
0000
0001
0100
0000
0100
0000
0000
0010
,
0000
0010
1000
0000
0100
0000
1000
0000
,
0001
0100
0001
0000
0100
0000
0000
0010
,
0000
1000
0100
0000
1000
0000
0000
1000
,
0000
0001
0100
0000
0100
0000
0010
0000
,
1000
0001
1000
0100
,
1000
0001
0100
0000
0010
0000
0010
0000
,
1000
0100
1000
0001
,
0100
0010
1000
0000
0001
0000
1000
0000
,
0100
0000
0010
0000
0001
0100
0010
0000
,
0010
0100
0010
0000
1000
0010
1000
0000
,
0010
0100
0010
0000
0100
0000
0010
0000
,
1000
0100
1000
0001
,
0100
0000
0010
1000
0010
0000
0010
1000
,
0010
1000
0010
1000
,
0010
0100
0010
0000
0100
0000
0001
0000
,
1000
0000
0100
1000
0100
0000
1000
0000
,
0001
0000
0100
0000
0010
0000
1000
0001
,
1000
0100
1000
0010
,
0100
0001
0010
0200
,
1300
0000
1000
0010
,
0100
0000
0001
0000
1000
0100
0000
0100
,
1000
0000
1000
0001
,
0100
0010
1000
0010
,
0100
0000
0010
0000
,
1000
0000
0100
1000
,
0001
0000
0100
0000
0100
0000
0000
0010
,
0000
1000
0100
0000
1000
0000
0000
0001
,
0000
0100
0010
0000
1000
0000
0000
0001
,
0000
1000
0100
0000
1000
0000
0001
0000
,
0100
0000
0010
0000
1000
0000
0000
1000
,
0000
0001
0100
0000
0100
0000
0000
0010
,
0000
1000
0001
0000
1000
0000
0100
0000
,
1000
0001
0100
0010
,
1000
0001
1000
1000
,
0010
0200
0000
0320
,
0000
1030
0100
1000
,
0001
0200
0000
0320
,
0000
2030
0000
3200
,
0000
1300
0001
0100
,
0010
2000
0000
0000
,
0000
0002
0000
0000
,
3003
0100
0010
1000
,
0100
2000
0000
3200
,
0000
2300
0000
3001
,
0100
0000
0020
0000
0000
0030
0020
0000
,
0000
2030
0000
3200
,
0000
2300
0000
3000
,
1000
0002
0000
0000
,
0000
0200
0000
0000
,
0303
2002
0000
3003
;

//---------------dance-single - ----------------
#NOTES:
     dance-single:
     :
     Easy:
     4:
     0.297,0.309,0.074,0.021,0.000,187.000,7.000,2.000,0.000,0.000,0.000,0.297,0.309,0.074,0.021,0.000,187.000,7.000,2.000,0.000,0.000,0.000:
0000
0000
0000
0000
,
0000
0000
0000
0000
,
0000
0000
0000
0000
,
0000
0000
0000
0000
,
0000
0000
0000
0000
,
0000
0000
0000
0000
,
0000
0000
0000
0000
,
0000
0000
0000
0000
,
0000
0010
1000
0001
,
0000
0001
1000
0100
,
0100
1000
0001
0100
,
0000
0010
0100
0001
,
1000
0000
0100
1000
,
0001
0100
0000
0100
,
0100
0000
0010
1000
,
0001
1000
0000
1000
,
1000
0000
0001
0100
,
0010
1000
0001
0001
,
1000
0000
0001
0100
,
0000
0010
0100
0001
,
0000
1000
0100
0000
,
1000
0001
0100
0000
,
0010
0100
0001
0000
,
0001
1000
0100
0100
,
0100
1000
0001
0000
,
0001
0100
0010
0000
,
0010
1000
0100
0100
,
1000
0001
0100
0100
,
0010
0100
0000
0010
,
0000
0100
0000
0010
,
1000
0001
0000
0001
,
0000
1000
0000
0100
,
1000
0001
0000
0100
,
0000
0010
0000
0010
,
1000
0100
0000
0100
,
1000
0001
0000
0100
,
0100
0100
0000
0010
,
0000
0010
1000
0001
,
0000
0001
1000
0100
,
0000
0100
1000
0001
,
0100
0000
0010
1000
,
0001
0000
0001
0100
,
0100
0000
0010
1000
,
0001
0000
0001
1000
,
0100
0000
0100
1000
,
0001
0100
0100
0100
,
0100
0000
0010
0000
,
1000
0000
0001
0010
,
0010
0010
0100
0000
,
1000
0001
0100
0000
,
0010
1000
0001
0000
,
0100
1000
0001
0000
,
0001
0100
0010
0000
,
0010
0010
0010
0000
,
0010
0100
0001
0000
,
0001
1000
0100
1000
,
1000
0100
0000
0001
,
0000
0010
1000
0001
,
0000
1001
0000
0001
,
0000
0100
0010
0100
,
0000
1001
0000
0110
,
0000
1001
0000
0000
,
0001
0100
0000
0010
,
0000
0100
0100
0100
,
0000
0010
1000
0001
,
0000
1000
0000
0001
,
0000
1001
0000
0001
,
0000
0100
0000
0010
,
0000
0100
0010
0100
,
0000
0110
0000
0010
,
0000
1000
0001
1000
,
0000
0001
1000
0001
,
0000
2002
0000
3003
;
