#TITLE:Party Song;
#SUBTITLE:;
#ARTIST:Miss Papaya;
#TITLETRANSLIT:;
#SUBTITLETRANSLIT:;
#ARTISTTRANSLIT:;
#GENRE:;
#CREDIT:;
#BANNER:Party Song.png;
#BACKGROUND:;
#LYRICSPATH:;
#CDTITLE:;
#MUSIC:11 - Miss Papaya - Party Song.ogg;
#OFFSET:0.788;
#SAMPLESTART:40.510;
#SAMPLELENGTH:15.000;
#SELECTABLE:YES;
#BPMS:0.000=109.990;
#STOPS:;
#BGCHANGES:;
#KEYSOUNDS:;

//---------------dance-single - ----------------
#NOTES:
     dance-single:
     :
     Hard:
     7:
     0.476,0.435,0.049,0.458,0.361,290.000,5.000,47.000,0.000,0.000,0.000,0.476,0.435,0.049,0.458,0.361,290.000,5.000,47.000,0.000,0.000,0.000:
0000
0000
0000
0000
,
1001
0000
0000
0000
1000
0001
0000
0100
0010
0000
1000
0100
0000
0000
1000
0000
,
0010
0000
0100
0000
0020
0000
0000
0000
2030
0000
0000
3020
0000
0000
0230
0000
,
0300
0000
0000
0000
0010
1000
0000
0001
0100
0000
0010
1000
0000
0000
1000
0000
,
0001
0000
0100
0000
0010
0000
0000
0010
0000
0000
1000
0000
0002
0000
0000
1003
,
0001
0000
0000
0000
1000
0010
0000
0010
0100
0000
0100
0001
0000
0000
1000
0000
,
0010
0000
0100
0000
0020
0000
0000
0000
2030
0000
0000
3002
0000
0000
0203
0000
,
0000
0000
0300
0000
0100
0010
0000
1000
0001
0000
0010
0100
0000
0000
1000
0000
,
0001
0000
0100
0000
0100
0000
0000
0010
0000
0000
1000
0000
0001
0000
0000
1000
,
0000
0010
0200
0000
0000
0000
0000
0000
,
0310
0000
0000
0000
1000
0000
0000
0001
1000
0000
0001
0000
0100
0000
0010
0000
,
1010
0000
0000
0000
1000
0000
0000
0001
0000
0000
0100
0000
0010
0000
0000
1000
,
0000
0000
0100
0000
0001
0000
0000
1000
0000
0000
0001
0000
0100
0000
0000
1000
,
0000
0000
0001
0000
0100
0000
0000
0010
0000
0000
1000
0000
0010
0000
0000
0100
,
0000
0000
0010
0000
2000
0000
0000
0002
0000
0000
3003
0000
1000
0000
0010
0000
,
0100
0010
0000
0000
1000
0000
0000
0100
0000
0000
0010
0000
0001
0000
0000
0100
,
0000
0000
0010
0000
1000
0000
0000
0001
0000
0000
0010
0000
0100
0000
0000
1000
,
0000
0000
0010
0000
0100
0000
0000
0010
0000
0000
1000
0000
0001
0000
0000
0100
,
0000
0000
0010
0000
2000
0000
0000
0002
0000
0000
3003
0000
1000
0000
0001
0100
,
0000
0010
1000
0000
2000
0000
0000
0000
0001
0000
0001
0000
3001
0000
1000
0000
,
0010
0000
0100
0000
0010
0000
0000
0010
0000
0000
0020
0000
0000
0000
2000
0000
,
0000
3030
0010
2000
0000
0000
3001
0000
,
1000
0020
0000
0230
0000
0000
0300
0010
,
1000
0200
0000
0000
0300
0100
0010
0001
,
1000
0000
0010
0000
0100
0000
0000
0100
0000
0000
0200
0000
0000
0000
0320
0000
,
0000
0000
0130
0000
0010
1000
0001
1000
,
0100
0000
0010
0000
0001
0000
0000
0001
0000
0000
0002
0000
0000
0000
0000
0000
,
1003
0000
0000
0000
0010
1000
0000
1000
0100
0000
0100
0010
0000
0000
0001
0000
,
1000
0000
0010
0000
0100
0000
0000
0000
0100
0000
0000
0100
0000
0000
0200
0000
,
0000
0000
0000
0000
0310
1000
0000
0001
1000
0000
0100
1000
0000
0000
1000
0000
,
0010
0000
0100
0000
0001
0000
0000
0010
0000
0000
0100
0000
2000
0000
0000
0000
,
3001
0000
0000
0000
1000
0010
0000
0010
0100
0000
0010
1000
0000
0000
1000
0000
,
0001
0000
0010
0000
0100
0000
0000
0000
0200
0000
0000
2300
0000
0000
3002
0000
,
1003
0000
0000
0000
1000
0001
0000
0001
1000
0000
0001
1000
0000
0000
1000
0000
,
0010
0000
0100
0000
0002
0000
0000
0023
0000
0000
0230
0000
0320
0000
0000
0032
,
0000
2003
3020
0000
1000
0000
0031
0000
,
0110
0000
0000
0000
0010
0000
0000
1000
0001
0000
0100
0000
0010
0000
1000
0000
,
1001
0000
0000
0000
1000
0010
0000
1000
0100
0000
0010
0001
0000
0000
0001
0000
,
1000
0000
0100
0000
0020
0000
0000
0000
0032
0000
0000
2000
0003
0000
3200
0000
,
0310
0000
0001
0000
1000
0010
0000
0010
0100
0000
0010
0001
0000
0000
0010
0000
,
1000
0000
0001
0000
0100
0000
0000
0010
0000
0000
1000
0000
0002
0000
0000
0000
,
1003
0000
0001
0000
1000
0100
0000
0010
0001
0000
0001
0100
0000
0000
0010
0000
,
1000
0000
0001
0000
0200
0000
0000
0000
0302
0000
0000
2003
0000
0000
3200
0000
,
0320
0000
0000
0000
0031
1000
0000
0001
1000
0000
0001
1000
0000
0000
1000
0000
,
0010
0000
0100
0000
0010
0000
0000
1000
0000
0000
0100
0000
0010
0000
0000
0001
,
0000
1000
0002
0000
1000
0000
0000
0000
,
1003
0000
0010
1000
0001
0000
0001
1000
,
1100
0000
0000
0000
;

//---------------dance-single - ----------------
#NOTES:
     dance-single:
     :
     Challenge:
     9:
     0.653,0.596,0.487,0.117,0.624,407.000,50.000,12.000,0.000,0.000,0.000,0.653,0.596,0.487,0.117,0.624,407.000,50.000,12.000,0.000,0.000,0.000:
0000
0000
0000
0000
,
1001
0000
0000
0000
1000
0001
0000
0100
0010
0000
1000
0100
0000
0000
1000
0000
,
0010
0000
0100
0000
0020
0000
0000
0000
2030
0000
0000
3020
0000
0000
0230
0000
,
0300
0000
0000
0000
0010
1000
0000
0001
0100
0000
0010
1000
0000
0000
1000
0000
,
0001
0000
0100
0000
0010
0000
0000
0010
0000
0000
1000
0000
0002
0000
0000
1003
,
0001
0000
0000
0000
1000
0010
0000
0010
0100
0000
0100
0001
1000
0000
0001
0000
,
0110
0000
0100
0000
0010
0000
0000
1000
0001
0000
1000
0000
1000
0000
0010
0000
,
1010
0000
0000
0000
1000
0010
0000
0100
0010
0000
0001
0010
0100
0000
0010
0000
,
1010
0000
1000
0000
1100
0000
0000
0010
0001
0000
1000
0000
1010
0000
1000
0000
,
1001
0000
0000
0000
1100
0000
0000
1000
0010
0000
0100
0000
0010
0000
0000
0000
,
0110
0000
0000
0000
0010
0000
0000
1000
0001
0000
0010
0000
0100
0000
0000
0000
,
1100
0000
0000
0000
0010
0000
0000
0010
0001
0000
1000
0000
0010
0000
0000
0100
,
0010
0000
2000
0000
3100
0000
0000
0010
0001
0000
0100
0000
0010
0000
1000
0000
,
1010
0000
1000
0100
1000
0000
0000
0010
1000
0000
0010
0100
0001
0000
0000
0001
,
0010
0000
0000
0000
0100
0000
1000
0000
0100
0000
0000
0000
0000
0000
2000
0000
3010
0000
0000
0000
0000
0000
0010
0100
0010
0000
0000
0000
1000
0000
0000
0000
,
0001
0100
0000
0000
0010
0000
0000
1000
0001
0000
0001
0020
0130
0000
0000
0100
,
1000
0000
0010
0000
0100
0000
0010
1000
0001
0000
1000
0000
0010
0000
0100
0010
,
0000
0000
1000
0000
0001
0000
0010
0001
0000
0000
0001
0000
1000
0000
0010
1000
,
0000
0000
0000
0000
1000
0000
0010
0000
0100
0000
0000
0000
0010
0000
1000
0000
0001
0000
0000
0000
0000
0000
1000
0010
0100
0000
0000
0000
0010
0000
1000
0000
,
0000
0100
0010
0000
0011
0000
0000
0010
0001
0000
1000
0010
0100
0000
0000
0000
,
0110
0000
0000
0000
1001
0000
0000
1100
1000
0000
1000
0010
0000
0100
0010
0000
,
0110
0000
0000
0000
1100
0000
0000
1010
0000
0000
0010
0000
0100
0000
0000
0010
,
1000
0000
0000
0000
1100
0000
0000
1010
0000
0000
1001
0000
0000
0000
2000
0000
,
3010
0000
0100
0010
1000
0000
0000
1000
0010
0000
0010
1000
0010
0000
0000
0000
,
1001
0000
0000
0000
1100
0000
0000
0010
0000
0000
0011
0000
0010
0000
0010
0100
,
1000
0000
0000
0000
1010
0000
0000
0010
0100
0000
0010
1000
1000
0000
0000
0000
,
1100
0000
0000
0000
0000
0000
0000
0000
0010
0000
0000
0000
0000
0000
0001
0000
0000
0000
0000
0000
0100
0000
0000
0000
0000
0000
0000
0000
0001
0000
1000
0100
,
1000
0000
0000
0000
1000
0001
0000
0001
1000
0000
0001
1000
0001
0000
1000
0000
,
1001
0000
1000
0000
0100
0000
0000
0010
0001
0000
0001
0000
0011
0000
0001
1000
,
0000
1000
0001
0000
0001
1000
0000
0010
1000
0000
1000
0100
1000
0000
0001
0000
,
1001
0000
0001
0000
0101
0000
0001
1000
0000
0010
1000
0000
1100
0000
1000
0001
,
1000
0000
0010
0000
1000
0001
0000
0001
0010
0000
0100
1000
0100
0000
1000
0000
,
1001
0000
0001
0010
0001
0000
0000
1000
0001
0000
1000
0000
1001
0000
1000
0010
,
0000
0010
0100
0000
0010
1000
0000
1000
0100
0000
0010
0001
1000
0000
0010
0000
,
1010
0000
1000
0100
1000
0000
1000
0001
1000
0000
1000
0000
1010
0000
0010
1000
,
0100
0010
0001
0000
1001
0000
0000
1000
0001
0000
1000
0000
1001
0000
0000
0000
,
0101
0000
0000
0000
0010
0000
0000
1000
0010
0000
0100
0000
0020
0000
2030
0000
,
3100
0000
0000
0000
0010
0001
0000
0001
1000
0000
0010
1000
0100
0000
0010
0000
,
0001
0000
1000
0010
1000
0000
0010
0000
1000
0010
0000
0100
0000
0100
0001
0000
,
0101
0000
0001
0010
0001
1000
0000
0010
1000
0000
1000
0100
0010
0000
0001
0000
,
0011
0000
0001
0100
0010
0000
1000
0010
0100
0000
0010
0000
1010
0000
1000
0100
,
1000
0001
0100
0000
0110
0010
0000
1000
0100
0000
0010
0001
1000
0000
0010
0000
,
1010
0000
1000
0010
0100
0000
0010
1000
0001
0000
0001
0010
0000
0000
0110
0000
,
0011
0001
0010
0000
0001
1000
0000
0010
1000
0000
1000
0100
0010
0000
0001
0000
,
0011
0000
0001
0200
1300
0000
1000
0100
0000
0100
0001
0000
0010
0000
1000
0010
,
0000
0001
1000
0000
1010
0000
1000
0100
1000
0000
1000
0010
0100
0001
0010
0100
,
1100
0000
0110
0000
0001
0000
0100
0010
1000
0000
0100
0010
0001
1000
0010
0100
,
0110
0000
0000
0000
;

//---------------dance-single - ----------------
#NOTES:
     dance-single:
     :
     Medium:
     5:
     0.326,0.275,0.078,0.000,0.000,226.000,8.000,0.000,0.000,0.000,0.000,0.326,0.275,0.078,0.000,0.000,226.000,8.000,0.000,0.000,0.000,0.000:
0000
0000
0000
0000
,
1001
0000
0010
0000
0100
0001
1000
0000
,
0100
1000
0001
0100
,
0010
0000
1000
0001
0100
0000
0010
0000
,
1000
0000
0100
1000
0001
0000
0101
0000
,
1010
0000
0010
0000
1000
0100
1000
0000
,
0001
0000
0100
0000
0010
1000
0001
0000
,
1000
0000
0100
0000
1000
0001
0100
0000
,
0010
0000
1000
0000
0100
1000
0001
0000
,
0100
0010
1000
0000
0100
0000
1000
0001
,
0100
0000
0010
0000
1000
0001
0100
0000
,
1001
0000
0010
0000
1000
0100
1000
0000
,
0001
0000
0100
0010
1000
0000
0100
0000
,
1000
0000
0001
0100
0010
0000
1000
0000
,
0100
0000
1000
0001
0100
0000
0010
1000
,
0100
0000
1000
0000
0001
0000
0100
0010
,
1000
0000
0100
0000
1000
0000
0001
0100
,
0001
1000
0010
0100
,
0001
1000
0100
0000
1000
0000
0010
0000
,
0100
0000
0001
0000
1000
0100
1000
0000
,
0001
0100
0010
0000
1000
0000
0100
0000
,
1000
0000
0001
0100
0001
0000
1000
0100
,
1000
0000
0010
0000
0100
0000
0001
1000
,
0100
0000
1000
0000
0001
0000
0100
0010
,
1000
0000
0100
0000
1000
0000
0001
0100
,
0001
0000
1000
0000
0010
0000
0100
0001
,
1000
0000
0100
0000
1000
0000
0001
0100
,
0010
0000
0010
0000
1000
0100
1000
0000
,
0001
0000
0100
0000
0010
0000
1000
0100
,
1000
0001
0100
0010
,
0010
0100
0001
0000
1000
0000
0100
0000
,
0000
1000
0001
0100
,
0010
0000
1000
0000
0001
0000
0100
0010
,
1000
0100
1000
0001
,
0100
0010
1000
0000
0001
0000
1000
0000
,
0100
1000
0001
0000
0100
0000
0010
0000
,
1001
0100
1000
0001
,
0110
0010
1000
0100
,
1000
0001
0100
0000
0010
0000
1000
0000
,
0100
0000
1000
0001
0100
0000
0010
0000
,
1000
0001
1000
0000
0100
1000
0100
0000
,
1000
0000
0001
0100
0010
0000
1000
0000
,
0100
0000
1000
0000
0001
0000
0100
0010
,
1000
0001
0100
0010
,
1000
0001
1000
0000
0001
1000
0001
0000
,
1000
0001
1000
0000
0010
0000
0100
0000
,
0110
0010
1000
0001
,
1001
0000
0000
0000
;

//---------------dance-single - ----------------
#NOTES:
     dance-single:
     :
     Easy:
     2:
     0.153,0.137,0.029,0.000,0.000,107.000,3.000,0.000,0.000,0.000,0.000,0.153,0.137,0.029,0.000,0.000,107.000,3.000,0.000,0.000,0.000,0.000:
0000
0000
0000
0000
,
0000
1000
0000
0001
,
0000
0010
0010
0010
,
0000
1000
0000
0001
,
0000
0100
0100
0100
,
0100
0100
0000
0010
,
0000
1000
0000
0001
,
0000
0100
0000
0010
,
0000
1000
0000
0001
,
0000
1000
0000
0010
,
0000
0100
0000
1000
,
1001
0001
0000
0100
,
0000
0010
0000
1000
,
0000
0100
0000
0010
,
0000
0100
0000
0001
,
0001
0001
0000
1000
,
0000
0010
0000
0100
,
0000
0001
0000
1000
,
0000
0010
0000
0100
,
0100
0100
0000
0010
,
0000
1000
0000
0001
,
0000
0100
0000
0010
,
0000
1000
0000
0001
,
0000
0100
0000
0010
,
0000
1000
0000
0100
,
0000
0001
0000
0100
,
0000
0010
0010
0010
,
0010
0010
0000
0100
,
0000
1000
0000
0010
,
0000
0001
0001
0001
,
0000
0010
0000
0100
,
0000
1000
1000
1000
,
0000
0010
0000
0100
,
0000
0001
0001
0001
,
0000
1000
0000
0010
,
0000
0100
0000
0010
,
0000
1000
0000
0010
,
1001
0100
0000
0010
,
0000
1000
0000
0001
,
0000
0100
0100
0100
,
0000
0010
0000
1000
,
0000
0010
0010
0010
,
0000
0100
0000
0010
,
0000
1000
0000
1000
,
0000
0001
0000
0001
,
0000
0010
0000
0100
,
0000
0010
0000
1000
,
1001
0000
0000
0000
;
