#TITLE:Panic 2007;
#SUBTITLE:;
#ARTIST:Druid & Stormtrooper;
#TITLETRANSLIT:;
#SUBTITLETRANSLIT:;
#ARTISTTRANSLIT:;
#GENRE:;
#CREDIT:;
#BANNER:Panic 2007.png;
#BACKGROUND:;
#LYRICSPATH:;
#CDTITLE:;
#MUSIC:Panic 2007 (Short).ogg;
#OFFSET:-0.220;
#SAMPLESTART:40.510;
#SAMPLELENGTH:15.000;
#SELECTABLE:YES;
#BPMS:0.000=175.560;
#STOPS:;
#BGCHANGES:;
#KEYSOUNDS:;

//---------------dance-single - ----------------
#NOTES:
     dance-single:
     :
     Challenge:
     11:
     0.809,0.875,0.122,0.031,0.607,721.000,16.000,4.000,0.000,0.000,0.000,0.809,0.875,0.122,0.031,0.607,721.000,16.000,4.000,0.000,0.000,0.000:
0000
0000
0000
0000
,
0000
0000
0000
0000
,
1000
0001
1000
0001
,
1000
0000
0000
0000
0001
0000
0000
0000
1000
0000
0001
1000
0001
1000
0001
0000
,
0010
0100
0010
0100
,
0010
0000
0000
0000
0100
0000
0000
0000
0010
0000
0100
0010
0100
0010
0100
0000
,
0010
0000
0001
0000
0010
0001
0010
0001
,
0001
0000
0000
0000
0001
0000
0000
0000
0001
0000
0010
0001
0010
0001
0010
0000
,
0001
0100
0001
0100
,
0001
0000
0000
0000
0100
0000
0000
0000
0001
0000
0100
0001
0100
0001
0100
0000
,
0010
1000
0010
1000
,
0010
0000
0000
0000
1000
0000
0000
0000
0010
0000
1000
0010
1000
0010
1000
0000
,
0100
0010
0100
0010
,
0100
0000
0000
0000
0010
0000
0000
0000
0100
0000
0010
0100
0010
0100
0010
0000
,
0001
0000
0010
0000
0001
0010
0001
1001
,
0000
0000
0000
0000
0000
0000
0000
0000
0000
0000
0000
0000
0000
0000
1000
0010
,
0100
0010
1000
0000
0100
0000
0010
0000
0001
0000
1000
0000
0010
0000
0000
0010
,
0000
0000
0010
0000
1000
0000
0100
0000
0010
0000
0001
0010
0100
1000
0001
0010
,
0100
1000
0001
0000
1000
0000
0010
0000
0100
0000
0010
0000
0100
0000
0000
0100
,
0000
0000
0100
0000
0010
0000
1000
0000
0100
0000
0010
0001
0100
0010
1000
0100
,
0010
0001
1000
0000
0100
0000
0010
0000
0001
0000
1000
0000
0010
0000
0000
0100
,
0000
0000
0010
0000
1000
0000
1000
0000
1000
0000
0100
0010
0001
1000
0100
1000
,
0010
0100
0010
0000
1000
0000
0100
0000
0010
0000
0100
0000
0010
0000
0000
0001
,
0000
0000
1000
0000
0010
0000
0010
0000
0010
0000
1000
0001
0010
0100
0010
0001
,
0010
0001
0010
0000
0001
0000
1000
0000
0010
0000
0100
0000
0010
0000
0000
1010
,
0000
0000
0010
0000
0010
0000
1000
0000
0100
0000
0010
0001
1000
0010
0100
0010
,
1000
0100
0010
0000
0001
0000
1000
0000
1000
0000
0010
0000
0100
0000
0000
0010
,
0000
0000
1000
0000
0001
0000
0100
0000
0010
0000
1000
0100
0010
0100
1000
0001
,
0100
0010
0100
0000
0010
0000
1000
0000
0100
0000
0010
0000
0001
0000
0000
1000
,
0000
0000
0001
0000
0100
0000
0010
0000
1000
0000
0100
0010
0001
1000
0010
0100
,
0010
1000
0100
0000
0010
0000
0001
0000
1000
0000
0010
0000
0100
0000
0000
0100
,
0000
0000
0010
0000
1000
0000
1000
0000
1000
0000
0100
0010
0001
1000
0001
0000
,
1000
0001
1000
0001
,
1000
0000
0000
0000
0001
0000
0000
0000
1000
0000
0010
1000
0001
0100
0001
0000
,
0100
0001
0100
0001
,
0100
0000
0000
0000
0001
0000
0000
0000
0100
0000
0010
1000
0100
0010
0001
0000
,
0100
0010
0100
0010
,
0100
0000
0000
0000
0010
0000
0000
0000
0100
0000
0010
1000
0100
1000
0010
0000
,
1000
0010
1000
0010
,
1000
0000
0000
0000
0010
0000
0000
0000
1000
0000
0010
1000
0001
0010
0100
0000
,
1000
0000
0100
0000
1000
0000
0100
0000
1000
0000
0100
0010
0001
0100
0010
0000
,
0100
0000
0010
0000
0100
0000
0010
0000
0100
0000
0010
1000
0001
0010
0100
0000
,
1000
0000
0001
0000
1000
0000
0001
0000
1000
0000
0010
0100
0001
0010
0100
0000
,
0010
0000
0001
0000
0010
0000
0001
0000
0010
0000
0001
0010
0100
0010
0001
0000
,
1000
0000
0010
0100
0010
1000
0100
0000
0010
0000
0001
1000
0010
0100
0010
0000
,
1000
0000
0100
0010
0001
1000
0010
0000
0100
0000
0010
1000
0100
0010
0001
0000
,
1000
0001
0100
0000
0010
1000
0001
0000
0010
0100
1000
0000
0001
0100
0020
0000
,
0000
0000
0000
0000
0000
0000
0000
0000
0000
0000
1030
0001
1000
0001
0010
0100
,
1000
0001
1000
0000
0010
0000
0100
0000
0001
0000
0010
0000
0100
0000
0000
1000
,
0000
0000
0001
0000
0010
0000
0100
0000
0010
0000
0001
1000
0010
0100
0010
1000
,
0100
0010
0001
0000
1000
0000
0010
0000
0100
0000
0010
0000
1000
0000
0000
0001
,
0000
0000
0010
0000
0100
0000
0100
0000
1000
0000
0010
0100
0010
1000
0100
0010
,
0001
1000
0001
0000
1000
0000
0010
0000
0100
0000
0010
0000
1000
0000
0000
1000
,
0000
0000
1000
0000
1000
0000
1000
0000
0001
0000
0010
0100
0010
0001
1000
0010
,
0100
0010
1000
0000
0100
0000
0010
0000
0001
0000
1000
0000
0010
0000
0000
0100
,
0000
0000
0010
0000
1000
0000
0100
0000
0010
0000
0001
0010
0100
1000
0001
0100
,
0010
1000
0100
0000
0010
0000
0001
0000
1000
0000
0010
0000
0100
0000
0000
0010
,
0000
0000
1000
0000
0001
0000
0010
0000
0100
0000
1000
0001
0100
0010
1000
0100
,
0010
0100
1000
0000
0001
0000
0100
0000
0010
0000
1000
0000
0001
0000
0000
0010
,
0000
0000
0100
0000
1000
0000
0001
0000
0100
0000
0001
1000
0001
1000
0001
0100
,
0010
0100
0001
0000
1000
0000
0100
0000
0010
0000
0100
0000
1000
0000
0000
0001
,
0000
0000
0100
0000
0010
0000
1000
0000
1000
0000
0100
0010
0100
1000
0001
0100
,
0010
1000
0001
0000
1000
0000
0001
0000
0100
0000
0010
0000
1000
0000
1001
0000
,
0000
0000
0000
0000
0000
0001
1000
0000
,
0001
1000
0001
0000
0100
0000
0010
0000
0000
1000
0000
0000
0001
0000
0000
0000
,
0110
0000
0000
0000
0010
0000
0001
0000
1000
0000
0010
0000
0000
0000
0100
0010
,
1000
0001
1000
0000
0001
0000
0010
0000
0000
0100
0000
0000
1000
0000
0000
0000
,
1001
0001
0100
0010
1000
0001
1001
0000
,
0001
1000
0001
0000
0100
0000
0010
0000
0000
1000
0000
0000
0001
0000
0000
0000
,
1001
0000
0000
0000
0001
0000
1000
0000
0100
0000
0010
0000
0000
0000
0100
1000
,
0100
1000
0001
0000
0100
0000
0010
0000
0000
1000
0000
0000
0001
0000
0000
0000
,
1100
1000
0001
0100
0010
1000
1001
0000
,
1000
0001
0100
0000
0010
0000
1000
0000
0000
0100
0000
0000
0100
0000
0000
0000
,
1000
0000
0000
0000
0001
0000
1000
0000
0001
0000
0001
0000
0000
0000
1000
0001
,
0100
0010
1000
0000
0100
0000
0010
0000
0000
0010
0000
0000
0001
0000
0000
0000
,
1000
0001
0100
0010
1000
0100
1000
0000
,
0001
1000
0010
0000
0100
0000
0010
0000
0000
1000
0000
0000
0100
0000
0000
0000
,
0010
0000
0000
0000
0001
0000
0010
0000
0100
0000
1000
0000
0000
0000
0001
1000
,
0010
1000
0001
0000
1000
0000
0001
0000
0000
0100
0000
0000
0010
0000
0020
0000
,
0000
0000
0000
0000
0000
0130
0100
0000
,
0001
1000
0100
0000
1000
0000
0001
0000
0000
0100
0000
0000
0010
0000
0000
0000
,
1001
0000
0000
0000
0010
0000
0100
0000
0010
0000
0010
0000
0000
0000
1000
0001
,
0100
0001
1000
0000
0100
0000
1000
0000
0000
0001
0000
0000
0100
0000
0000
0000
,
0010
1000
0001
0010
0100
0100
0100
0000
,
1000
0001
1000
0000
0100
0000
1000
0000
0000
0001
0000
0000
0100
0000
0000
0000
,
0110
0000
0000
0000
0010
0000
1000
0000
0001
0000
0010
0000
0000
0000
0100
1000
,
0001
0100
0010
0000
1000
0000
0001
0000
0000
0100
0000
0000
0010
0000
0000
0000
,
1001
1000
0001
0010
0100
1000
1100
0000
,
0001
0100
0010
0000
0100
0000
0010
0000
0000
1000
0000
0000
0001
0000
0000
0000
,
0110
0000
0000
0000
0100
0000
1000
0000
0001
0000
0100
0000
0000
0000
0010
0100
,
0010
1000
0001
0000
0010
0000
0100
0000
0000
1000
0000
0000
0001
0000
0000
0000
,
0100
0010
1000
0001
0010
0100
1000
0000
,
0001
1000
0001
0000
1000
0000
0001
0000
0000
1000
0000
0000
0001
0000
0000
0000
,
1001
0000
0000
0000
0010
0000
0100
0000
0010
0000
0100
0000
0000
0000
0010
1000
,
0001
0010
0100
0000
1000
0000
0001
0000
0000
1000
0000
0000
0001
0000
2002
0000
,
0000
0000
3003
0000
;
