#TITLE:No Scrubs;
#SUBTITLE:;
#ARTIST:TLC;
#TITLETRANSLIT:;
#SUBTITLETRANSLIT:;
#ARTISTTRANSLIT:;
#GENRE:;
#CREDIT:;
#BANNER:No Scrubs.png;
#BACKGROUND:;
#LYRICSPATH:;
#CDTITLE:;
#MUSIC:01-tlc-no_scrubs.ogg;
#OFFSET:0.866;
#SAMPLESTART:32.070;
#SAMPLELENGTH:13.180;
#SELECTABLE:YES;
#BPMS:0.000=92.900;
#STOPS:;
#BGCHANGES:;
#KEYSOUNDS:;

//---------------dance-single - ----------------
#NOTES:
     dance-single:
     :
     Hard:
     8:
     0.519,0.465,0.283,0.108,0.454,389.000,34.000,13.000,0.000,0.000,0.000,0.519,0.465,0.283,0.108,0.454,389.000,34.000,13.000,0.000,0.000,0.000:
0000
0000
0000
0000
0000
0000
0000
0000
0000
0000
0000
0000
1000
0001
0100
0010
,
0000
0000
0000
0000
1000
0001
0010
0100
0000
0000
0000
0000
1000
0001
0100
0010
,
0000
0000
0000
0000
0100
0010
0100
0001
0000
0000
0000
0000
1000
0100
1000
0001
,
0000
0000
0000
0000
0001
1000
0001
1000
0000
0000
0000
0000
1000
0001
0100
0010
,
0000
0000
0000
0010
0000
1000
0100
1000
0100
0000
0000
0001
1000
0000
0001
0100
,
0010
0000
1000
0100
0000
1000
0100
0000
0000
1100
0000
0000
1000
0000
0001
0000
,
0100
0000
0010
0100
0000
0010
0000
0010
1000
0000
0000
0000
0001
0000
1000
0000
,
0001
0100
0001
0000
1000
0001
0000
0001
1000
0001
0100
0000
0010
0000
0000
0100
,
0010
0000
0000
1000
0001
0000
0000
0000
1001
0000
0000
0000
1001
0000
0000
0000
,
1000
0001
0100
0010
0100
0100
0101
0000
,
0001
1000
0010
0100
0010
0000
1000
0000
0001
0000
0010
0000
0110
0000
0000
0000
,
0100
1000
0001
0100
0010
0000
0100
0000
0010
0000
1000
0000
1001
0000
0000
0000
,
0001
0000
1000
0000
0010
0100
0010
0000
1000
0000
0001
0000
0101
0000
0000
0000
,
1000
0000
0001
0000
0010
0000
0100
0000
1100
0000
0000
1000
0001
0000
0001
1000
,
0010
0100
0010
0000
1000
0000
0001
0000
0010
0000
0100
0000
1100
0000
0000
0000
,
1000
0001
0010
0100
0010
0001
1000
0000
0001
0000
1000
0010
0100
0000
0010
0000
,
0110
0000
0000
0000
0010
0000
1000
0000
0001
0010
0001
0000
1001
0000
0000
0000
,
1000
0000
0001
0000
0100
0000
0010
0000
1001
0000
0000
0001
1000
0000
0001
0100
,
0010
1000
0100
0000
1000
0000
0001
0000
0100
0000
0010
0000
1010
0000
0000
0000
,
1000
0001
0010
0100
1000
0010
0100
0000
0010
0000
1000
0100
0010
0000
0001
0000
,
1001
0000
0000
0000
0001
0000
1000
0000
0010
0100
0010
0000
0110
0000
1000
0100
,
1000
0000
0001
0100
0001
0010
0100
1000
0100
0000
0010
0001
1000
0000
0001
0100
,
0010
0000
0100
0010
0000
0100
0000
0010
0000
0000
0100
0010
0100
0010
1000
0000
,
0001
0000
0010
0001
0100
0010
1000
0000
1001
0000
1000
0000
0100
0000
0010
0001
,
0100
0000
0010
1000
0200
0000
0310
0000
0110
0000
0000
0000
1001
0000
0000
0000
,
1000
0001
0100
0010
1000
0001
0011
0000
,
0001
0010
0100
1000
0100
0000
1000
0000
0001
0000
0100
0000
0110
0000
0000
0000
,
0010
1000
0001
0010
0100
0000
1000
0000
0001
0000
0100
0000
0101
0000
0000
0000
,
0010
0000
1000
0000
0001
0010
0100
0000
0020
0000
0000
0030
0011
0000
0000
0000
,
0001
0000
1000
0000
0010
0000
0100
0000
0110
0000
0000
0100
0010
0000
0010
1000
,
0001
1000
0001
0000
0010
0000
0001
0000
0100
0000
0010
0000
1010
0000
0000
0000
,
1000
0001
0100
0010
1000
0001
0010
0000
0110
0000
0010
0001
1000
0000
0001
0000
,
0101
0000
0000
0000
0001
0000
1000
0000
0010
0100
0010
0000
0220
0000
0000
0330
,
0100
0000
0010
0000
1000
0000
0001
0000
0011
0000
0000
0001
0010
0000
0100
1000
,
0001
0100
0010
0000
1000
0000
0001
0000
0010
0000
0100
0000
1100
0000
0000
0000
,
1000
0001
0010
0100
0010
0001
1000
0000
0001
0000
0100
0010
1000
0000
0001
0000
,
0011
0000
0000
0000
0001
0000
1000
0000
0010
0100
0010
0000
0110
0000
0010
0100
,
0000
0000
0010
0000
1000
0000
0001
0000
0020
0000
0000
0001
0000
0000
0031
0000
,
1001
0000
0000
0000
0001
0100
0010
0100
0000
0000
0010
0100
0010
0000
1000
0100
,
0000
0000
1000
0001
0100
0000
0010
0000
0200
0000
0000
0010
0000
0000
0310
0000
,
0110
0000
0000
0000
1000
0001
1000
0001
0000
0000
1000
0001
0100
0000
0010
0100
,
0000
0010
0000
0010
1000
0000
0010
0000
0100
0000
0020
0000
2030
0000
0000
0001
,
0000
0000
3001
0000
0100
0010
0100
0010
0000
0000
1000
0100
0010
0000
0001
0100
,
0000
0000
0010
1000
0000
0000
0001
0010
0000
0000
0100
0000
2000
0000
0000
0000
,
3001
0100
0020
0000
0230
0000
0302
0000
,
0000
0000
1003
0001
1001
0000
0002
0000
,
0000
0000
0003
0000
;

//---------------dance-single - ----------------
#NOTES:
     dance-single:
     :
     Medium:
     5:
     0.271,0.250,0.200,0.017,0.000,202.000,24.000,2.000,0.000,0.000,0.000,0.271,0.250,0.200,0.017,0.000,202.000,24.000,2.000,0.000,0.000,0.000:
0000
0000
0000
0000
,
0000
0000
0000
0000
,
0000
0000
0000
0000
,
0000
0000
0000
0000
,
0000
0000
0000
0000
0000
0000
1000
0010
,
0100
0000
0010
1000
0001
0000
0001
0000
,
1000
0000
0100
1000
0001
0000
0001
0000
,
0100
0000
0010
1000
0001
0000
1000
0000
,
0001
0100
0010
1001
,
0100
1000
0001
0000
0100
0000
0110
0000
,
0010
1000
0001
0000
0100
0000
0101
0000
,
0010
1000
0100
0000
1000
0000
1001
0000
,
0001
0100
0010
0000
1001
0000
1100
0000
,
0001
0100
0010
0000
1010
0000
0010
0000
,
0100
0000
0001
1000
0100
0000
1100
0000
,
1000
0001
0100
0000
0010
0000
0010
1000
,
0100
0000
1000
0000
0001
0100
1000
0000
,
0100
0000
0010
1000
0100
0000
0010
0000
,
0001
0100
1000
0000
0100
0000
0010
0000
,
0010
1000
0100
0000
0001
0000
0100
1000
,
0010
0100
0001
0010
,
0100
0000
1000
0001
0100
0000
0010
0000
,
1000
0000
0001
0100
0010
0000
0010
0000
,
1000
0000
0100
1000
0100
0000
1000
0000
,
0001
0100
0010
1001
,
1000
0100
1000
0000
0001
0000
1001
0000
,
0001
0100
0010
0000
1000
0000
0110
0000
,
0010
1000
0100
0000
1000
0000
0001
0000
,
0100
0010
1000
0000
0100
0000
1001
0000
,
0010
0100
0001
0000
1100
0000
1000
0000
,
0010
0000
0100
0001
0100
0000
0110
0000
,
0010
1000
0001
0000
1100
0000
1000
0010
,
0101
0000
0010
0000
1000
0100
1000
0000
,
1000
0001
0100
0000
0110
0000
0010
0000
,
1000
0000
0100
1000
0001
0000
0110
0000
,
0010
1000
0100
0000
1000
0000
0001
0100
,
0010
1000
0001
0010
,
0100
0000
1000
0000
0001
1000
0001
0000
,
0100
0000
0010
0000
1000
0000
0100
1000
,
0001
0101
1010
1100
,
0101
1010
0110
0010
,
1000
0000
0100
0000
1000
0001
0100
0000
,
0010
0000
1000
0100
1000
0000
0001
0000
,
0100
0010
1000
0100
,
1000
0001
0100
0000
0010
0000
2000
0000
,
0000
0000
3000
0001
1000
0000
0002
0000
,
0000
0003
0000
0000
;

//---------------dance-single - ----------------
#NOTES:
     dance-single:
     :
     Easy:
     2:
     0.181,0.193,0.175,0.058,0.000,124.000,21.000,7.000,0.000,0.000,0.000,0.181,0.193,0.175,0.058,0.000,124.000,21.000,7.000,0.000,0.000,0.000:
0000
0000
0000
0000
,
0000
0000
0000
0000
,
0000
0000
0000
0000
,
0000
0000
0000
0000
,
0000
0000
0000
1000
,
0010
0100
0010
1000
,
0100
1000
0001
0100
,
0010
0100
0000
0001
,
1000
0100
1000
1001
,
0000
0001
0100
0110
,
0000
0010
1000
1001
,
0000
1000
0001
1001
,
0000
0010
1000
1001
,
0001
0100
0110
0010
,
1000
0100
1000
1001
,
0001
0100
0010
1000
,
1001
0001
0100
0010
,
1000
0001
1001
0001
,
1000
0100
1000
1001
,
0001
0100
0010
1000
,
0001
1000
0100
1001
,
0001
0100
0100
0010
,
1000
0001
1000
0001
,
0000
0100
0000
0010
,
1000
0001
1000
1001
,
0000
0001
0100
0110
,
0000
0010
1000
1001
,
0000
0001
1000
1001
,
0000
1000
0010
0110
,
0010
1000
1001
0001
,
1000
0010
0100
0110
,
0010
1000
0001
1000
,
0100
1000
0001
1001
,
0010
0100
0001
1000
,
0100
1000
0001
1001
,
0001
0100
0010
1000
,
1001
0100
1000
0002
,
0000
0000
0000
0000
,
0000
0000
0000
2003
,
0000
0000
0000
0000
,
0000
0000
0000
3002
,
0000
0000
0000
0000
,
0000
0000
0000
0203
,
0000
0000
0000
0320
,
0000
0000
0000
2030
,
0000
0000
0000
3002
,
0000
0003
0000
0000
;
