#TITLE:Never Ever;
#SUBTITLE:(Weekend);
#ARTIST:Al Storm;
#TITLETRANSLIT:;
#SUBTITLETRANSLIT:;
#ARTISTTRANSLIT:;
#GENRE:;
#CREDIT:;
#BANNER:Never Ever.png;
#BACKGROUND:;
#LYRICSPATH:;
#CDTITLE:;
#MUSIC:Never Ever (weekend).ogg;
#OFFSET:0.635;
#SAMPLESTART:54.730;
#SAMPLELENGTH:15.000;
#SELECTABLE:YES;
#BPMS:0.000=175.520;
#STOPS:;
#BGCHANGES:;
#KEYSOUNDS:;

//---------------dance-single - ----------------
#NOTES:
     dance-single:
     :
     Hard:
     8:
     0.556,0.513,0.116,0.000,0.183,455.000,14.000,0.000,0.000,0.000,0.000,0.556,0.513,0.116,0.000,0.183,455.000,14.000,0.000,0.000,0.000,0.000:
0000
0000
0000
0000
,
0000
0000
0000
0000
,
0000
0000
0000
0000
,
0000
0000
0000
0000
,
0000
0000
0000
0000
1000
0000
0001
0100
,
0010
0000
0000
0000
0000
0000
0010
0000
1000
0000
0000
0001
0000
0000
0100
0000
,
0010
0000
0000
0000
1000
0000
0001
0010
,
0100
0000
0000
1000
1001
0000
0000
0000
,
1000
0100
0001
0100
1000
0000
0010
0100
,
0001
0000
0000
0000
0000
0000
0001
0000
1000
0000
0000
0010
0000
0000
0100
0000
,
0010
0000
0000
0000
0000
0000
0000
0000
1010
0000
0000
1000
0000
0000
0010
0000
,
0100
0000
0000
0000
0000
0000
0010
0000
1000
0000
0000
0100
0000
0000
0010
0000
,
0001
1000
0010
0100
0010
0000
1000
0001
,
0100
0000
0000
0000
0000
0000
0010
0000
1000
0000
0000
0100
0000
0000
0010
0000
,
0011
0000
0000
0000
0000
0000
0001
0000
1000
0000
0000
0010
0000
0000
0100
0000
,
0010
0000
0000
0000
0000
0000
0010
0000
1000
0000
0000
0001
0000
0000
0100
0000
,
1000
0100
0001
1000
0100
0000
0010
0001
,
0100
0000
0000
0000
0000
0000
0010
0000
1000
0000
0000
1000
0000
0000
1000
0000
,
1000
0000
0000
0000
0000
0000
0010
0000
0100
0000
0000
0010
0000
0000
1000
0000
,
0001
0000
0000
0000
0000
0000
0001
0000
0010
0000
0000
0100
0000
0000
1000
0000
,
0010
0100
0010
1000
0001
0000
0001
1000
,
0010
0000
0100
0000
0000
0000
0010
0000
1000
0000
0000
0001
0000
0000
0001
0000
,
1000
0000
0000
0000
0000
0000
0100
0000
0010
0000
0000
0001
0000
0000
0000
0000
,
1000
0000
0000
0000
0000
0000
0001
0000
0100
0000
0000
0010
0000
0000
1000
0000
,
0100
1000
0100
1000
0001
0000
0001
0100
,
0010
0000
0000
0000
0000
0000
0010
0000
1000
0000
0000
1100
0000
0000
1000
0000
,
0100
0000
0010
0000
0011
0000
0001
1000
,
0010
0000
0100
0010
1000
0000
1000
0001
,
0010
0100
1000
0001
1000
0000
0010
0100
,
0100
0000
0000
0000
0001
0000
0100
0000
0010
0000
0000
0110
0000
0000
0010
0000
,
1000
0000
0100
0010
0001
0000
0001
0100
,
0001
0000
0001
0100
0010
0000
0010
1000
,
0100
1000
0010
0100
0010
0000
1000
0100
,
1000
0000
0000
0000
0000
0000
0001
0000
0100
0000
0000
0010
0000
0000
0100
0000
,
0001
0000
0000
0000
1010
0000
0010
0100
,
0010
0000
0000
1000
0100
0000
0010
0001
,
0010
1000
0010
0001
0010
0000
0001
0100
,
1000
0000
0000
0000
0000
0000
0100
0000
0001
0000
0000
0010
0000
0000
0100
0000
,
1000
0000
0000
0100
1000
0000
1000
0001
,
1000
0000
0000
1000
1001
0000
1010
0000
,
0100
0001
0100
0001
0100
0000
0010
1000
,
0100
0000
0000
0000
0000
0000
0010
0000
0001
0000
0000
1000
0000
0000
0001
0000
,
0100
0000
0000
0000
0000
0000
0000
0000
1001
0000
0000
1000
0000
0000
0010
0000
,
0100
0000
0000
0000
0000
0000
0010
0000
1000
0000
0000
0001
0000
0000
0010
0000
,
0100
0001
0100
1000
0010
0000
0100
0010
,
0100
0000
0000
0000
0001
0000
0100
0000
0001
0000
0000
1000
0000
0000
0100
0000
,
1000
0000
0000
0000
0000
0000
0010
0000
0100
0000
0000
0001
0000
0000
1000
0000
,
0001
0000
0000
0000
0000
0000
0001
0000
1000
0000
0000
0010
0000
0000
0100
0000
,
0100
0010
1000
0100
0010
0000
0001
1000
,
0010
0000
0000
0000
0000
0000
0010
0000
1000
0000
0000
0100
0000
0000
0010
0000
,
0010
0000
0000
0000
0000
0000
0001
0000
1000
0000
0000
0010
0000
0000
0100
0000
,
0010
0000
0000
0000
0000
0000
0010
0000
1000
0000
0000
0001
0000
0000
1000
0000
,
0100
0001
1000
0010
0001
0000
1000
1000
,
0010
0000
0100
0000
0000
0000
0010
0000
0100
0000
0000
0001
0000
0000
0010
0000
,
0100
0000
0000
0000
0000
0000
1000
0000
0100
0000
0000
0010
0000
0000
0000
0000
,
0011
0000
0000
0000
0000
0000
0001
0000
1000
0000
0000
0010
0000
0000
1000
0000
,
0100
1000
0100
1000
0001
0000
1000
1000
,
1000
0000
0000
0000
0000
0000
0010
0000
0100
0000
0000
0010
0000
0000
1000
0000
,
0001
0000
0000
0000
0000
0000
0000
0000
0001
0000
0000
0010
0000
0000
0100
0000
,
1000
0000
0000
0000
0000
0000
0100
0000
0010
0000
0000
0001
0000
0000
1000
0000
,
0001
0010
0100
0010
1000
0000
0010
0001
,
0100
0000
0000
0000
0000
0000
0010
0000
1000
0000
0000
0100
0000
0000
0010
0000
,
0100
0000
0000
0000
0000
0000
1000
0000
0001
0000
0000
0100
0000
0000
0010
0000
,
0100
0000
0000
0000
0000
0000
0010
0000
1000
0000
0000
0001
0000
0000
0001
0000
,
0010
1000
0010
0001
0100
0000
0010
1000
,
0001
0000
0000
0000
0000
0000
0001
0000
0001
0000
0000
1000
0000
0000
0001
0000
,
0001
0000
0000
0000
0000
0000
0001
0000
0100
0000
0000
0010
0000
0000
1000
0000
,
0100
0000
0000
0000
0000
0000
0010
0000
0001
0000
0000
1000
0000
0000
0010
0000
,
0100
0010
0100
0100
0010
0000
1000
0000
,
0100
0000
0010
0000
0000
0000
0001
0000
1000
0000
0000
0100
0000
0000
0010
0000
,
1000
0000
0000
0010
0001
0000
1000
0000
,
1010
0000
0000
0000
0000
0000
0010
0000
1000
0000
0000
0100
0000
0000
0100
0000
,
0010
0001
0100
0001
0100
0000
0010
1000
,
0010
0000
0000
0000
0000
0000
1000
0000
0001
0000
0000
0100
0000
0000
0010
0000
,
0110
0000
0000
0000
0010
0000
1000
0001
,
0100
0000
0000
0100
0001
0000
1000
0001
,
0100
0010
1000
0100
0010
0000
0001
1000
,
0010
0000
0000
0000
0000
0000
0100
0000
0010
0000
0000
0010
0000
0000
0010
0000
,
1000
0000
0000
1000
0010
0000
0100
1000
,
0100
0000
0000
0100
0001
0000
0010
0001
,
1000
0000
0001
1000
1001
0000
1000
0010
,
0100
0000
0000
0000
0000
0000
0100
0000
0010
0000
0000
1000
0000
0000
0001
0000
,
0010
0000
0000
0000
0100
0000
1000
0001
,
0100
0000
0000
0010
1000
0000
0010
1000
,
0100
0010
0001
1000
0100
0000
0010
0001
,
0100
0000
0000
0000
0000
0000
0010
0000
1000
0000
0000
0001
0000
0000
1000
0000
,
0100
0000
0000
0100
0010
0000
0001
1000
,
0010
0000
0000
0100
0010
0000
0010
1000
,
1000
0100
0100
0001
0000
0000
0000
0000
;

//---------------dance-single - ----------------
#NOTES:
     dance-single:
     :
     Medium:
     5:
     0.378,0.440,0.340,0.000,0.000,278.000,41.000,0.000,0.000,0.000,0.000,0.378,0.440,0.340,0.000,0.000,278.000,41.000,0.000,0.000,0.000,0.000:
0000
0000
0000
0000
,
0000
0000
0000
0000
,
0000
0000
0000
0000
,
0000
0000
0000
0000
,
0000
0000
0001
1000
,
0100
0000
1000
0001
,
0100
0000
0001
0010
,
0100
0000
1001
0000
,
0100
1000
0100
1000
,
0001
0000
0001
0100
,
0010
0000
0010
1000
,
0001
0000
0001
0010
,
0100
1000
0001
0100
,
0010
0000
0010
1000
,
0100
0000
0010
0001
,
0100
0000
0001
0100
,
1000
0100
0010
0001
,
1000
0000
1000
0100
,
0010
0000
1000
0001
,
0010
0000
0100
0001
,
0100
1000
0010
0100
,
1000
0000
1000
0100
,
0010
0000
0010
1000
,
0001
0000
0001
0010
,
0100
1000
0001
0100
,
0001
0100
0001
1000
,
0001
1000
0001
0010
,
0001
0010
0001
1000
,
0001
1000
0001
0100
,
0001
0100
0001
0010
,
0001
0010
0001
1000
,
0001
1000
0001
0100
,
0001
0100
0010
1000
,
0010
0000
0010
0100
,
0010
0000
0010
1000
,
0100
0000
1000
0001
,
0100
0001
1001
0100
,
1000
0000
0001
0100
,
0001
0000
1000
0100
,
1000
0000
1001
0100
,
1001
0100
1001
0010
,
0100
0000
1001
0010
,
0100
0000
1001
0100
,
1000
0000
0101
0010
,
1000
0100
1001
0010
,
1001
0000
0001
0100
,
1001
0000
0100
1000
,
1001
0000
0010
0100
,
1001
0010
1001
0100
,
1001
0000
0001
0100
,
0001
0000
0010
1000
,
0100
0000
1000
0001
,
0100
0010
1000
0001
,
0101
0000
0001
1000
,
1100
0000
1000
0010
,
1010
0000
0010
0100
,
0110
1001
1100
0101
,
1010
0000
0010
1000
,
0001
0000
0001
0010
,
0100
0000
1000
0001
,
0101
1010
1001
1100
,
0101
0000
0010
1000
,
1001
0000
0001
0010
,
1100
0000
1000
0001
,
0101
1010
1001
0100
,
1000
0000
1000
0001
,
0100
0000
0001
1000
,
0010
0000
0010
0100
,
0001
1000
0100
1000
,
1001
0000
0001
0010
,
1100
0000
1000
0010
,
0101
0000
0001
1000
,
1001
0110
1001
0001
,
0100
0000
0001
1000
,
0100
0000
1000
0001
,
0010
0000
0100
1000
,
0001
0001
0100
0010
,
1000
0000
0001
0001
,
0100
0000
0010
1000
,
0001
0000
0100
0001
,
1000
0100
1001
0000
,
1000
0000
0001
0100
,
0110
0000
0010
0001
,
0001
0000
1000
0100
,
0100
1000
0001
0100
,
0010
0000
0010
1000
,
0001
0000
0001
0010
,
0100
0000
1000
0001
,
0100
0000
0001
1000
0000
0000
0000
0000
;

//---------------dance-single - ----------------
#NOTES:
     dance-single:
     :
     Easy:
     2:
     0.213,0.219,0.025,0.000,0.000,177.000,3.000,0.000,0.000,0.000,0.000,0.213,0.219,0.025,0.000,0.000,177.000,3.000,0.000,0.000,0.000,0.000:
0000
0000
0000
0000
,
0000
0000
0000
0000
,
0000
0000
0000
0000
,
0000
0000
0000
0000
,
0000
0000
0001
1000
,
0100
0000
1000
0001
,
0100
0000
0001
0010
,
0100
0000
1001
0000
,
0000
0000
0001
0000
,
0100
0000
0010
0000
,
1000
0000
0100
0000
,
1000
0000
0001
0000
,
0100
0100
0100
0000
,
0010
0000
1000
0000
,
0001
0000
0010
0000
,
0100
0000
1000
0000
,
0001
0001
0001
0000
,
0100
0000
0010
0000
,
1000
0000
0001
0000
,
0010
0000
0100
0000
,
1000
0000
0001
0000
,
0100
0000
0010
0000
,
1000
0000
0001
0000
,
1000
0000
0100
0000
,
1000
1000
1000
0000
,
0001
0000
0100
0000
,
0010
0000
0010
0000
,
0100
0000
0001
0000
,
1000
0000
0100
0000
,
1000
0000
0001
0000
,
0100
0000
0010
0000
,
0100
0000
0001
0000
,
1000
0000
0100
0000
,
1000
0000
0001
0000
,
1000
0000
0010
0000
,
0100
0000
0010
0000
,
1000
0000
0001
0000
,
1000
0000
0100
0000
,
0010
0000
0001
0000
,
0100
0000
0110
0000
,
1001
0000
0100
0000
,
1000
0000
0001
0000
,
0100
0000
0010
0000
,
1000
0000
1000
0000
,
0100
0000
1000
0000
,
0001
0000
0100
0000
,
0010
0000
1000
0000
,
0001
0000
0100
0000
,
0010
0010
0010
0000
,
0100
0000
0001
0000
,
1000
0000
0100
0000
,
1000
0000
0001
0000
,
0100
0100
0100
0000
,
0010
0000
1000
0000
,
0001
0000
0010
0000
,
0100
0000
1000
0000
,
0001
0001
0001
0000
,
0100
0000
0010
0000
,
1000
0000
0001
0000
,
1000
0000
0010
0000
,
0100
0000
0001
0000
,
1000
0000
0010
0000
,
0100
0000
0010
0000
,
1000
0000
0001
0000
,
1000
0000
0100
0000
,
1000
0000
0010
0000
,
0100
0000
0010
0000
,
1000
0000
0100
0000
,
1000
0000
0001
0000
,
0100
0000
0010
0000
,
1000
0000
0001
0000
,
0010
0000
0100
0000
,
1000
1000
1000
0000
,
0001
0000
0100
0000
,
0010
0000
0100
0000
,
0001
0000
1000
0000
,
0100
0000
1000
0000
,
0010
0000
0100
0000
,
0001
0000
1000
0000
,
0100
0000
1000
0000
,
0001
0000
0100
0000
,
0010
0000
0100
0000
,
0001
0000
1000
0000
,
0100
0000
1000
0000
,
0001
0000
0100
0000
,
0010
0000
0100
0000
,
1000
0000
0100
0000
,
0001
0000
0010
0000
,
0100
0000
0000
0000
;
