#TITLE:Need The Speed;
#SUBTITLE:;
#ARTIST:m1dy;
#TITLETRANSLIT:;
#SUBTITLETRANSLIT:;
#ARTISTTRANSLIT:;
#CREDIT:;
#BANNER:Need The Speed.png;
#BACKGROUND:;
#LYRICSPATH:;
#CDTITLE:;
#MUSIC:11-need the speed.ogg;
#OFFSET:0.816;
#SAMPLESTART:79.850;
#SAMPLELENGTH:14.960;
#SELECTABLE:YES;
#BPMS:0.000=111.170,7.000=444.680,15.000=111.170,17.000=222.340,49.000=111.170,51.000=222.340,75.000=111.170,77.000=222.340,113.000=444.680,122.000=222.340,150.000=444.680,158.000=222.340,186.000=444.680,194.000=111.170,200.000=222.340,204.000=444.680,212.000=222.340,268.000=111.170,272.000=222.340,330.000=444.680,334.000=222.340,335.000=444.680,343.000=222.340,367.000=444.680,375.000=222.340,376.000=444.680,380.000=222.340,404.000=111.170,408.000=444.680,416.000=222.340,442.000=444.680,446.000=111.170,448.000=222.340,503.000=444.680,505.000=222.340,519.000=111.170,520.000=222.340,548.000=444.680,563.000=222.340;
#STOPS:75.000=0.020
,121.000=0.964
,204.000=0.020
,269.000=0.020
,270.000=0.020
,334.000=0.830
,375.000=0.270
,447.000=0.020
,475.875=0.019
,480.000=0.020
;
#BGCHANGES:;

//---------------dance-single - ----------------
#NOTES:
     dance-single:
     :
     Challenge:
     12:
     1.000,1.000,0.294,0.561,0.470: // measure 1
0000
0000
0000
0000
,  // measure 2
0000
0000
0000
0000
0000
0000
1000
0001
,  // measure 3
1000
0001
1000
0001
1000
0001
1000
0001
,  // measure 4
1000
0001
1000
0001
1000
0001
2000
0000
,  // measure 5
0000
0000
0000
0000
3001
0100
0001
0100
0001
0100
0001
0100
0001
0100
0001
0100
,  // measure 6
0001
0100
0001
0100
0001
0000
1000
0000
0010
0000
1000
0000
0100
0000
1000
0000
,  // measure 7
0001
1000
0100
1000
0001
1000
0010
1000
,  // measure 8
0100
0010
0001
1000
0100
1000
0010
0100
,  // measure 9
0001
1000
0100
0010
0001
1000
0100
1000
,  // measure 10
0001
0000
1000
0001
0100
0000
0010
0000
1000
0000
0100
0000
0010
0000
0001
0000
,  // measure 11
1000
0010
0100
0001
0100
0010
1000
0001
,  // measure 12
1000
0000
0001
0000
1000
0001
1000
0001
1000
0001
1000
0001
1000
0001
1000
0001
,  // measure 13
1000
0001
1000
0001
2000
0000
0020
0030
0200
0300
3020
0030
0001
0000
1000
0000
,  // measure 14
0010
0100
0010
1000
0100
0001
0100
1000
,  // measure 15
0010
0001
0010
1000
0100
0010
0001
0010
,  // measure 16
0100
1000
0100
1000
0010
0100
0010
1000
,  // measure 17
0100
0000
0010
0000
0001
0000
1000
0000
0010
0000
1000
0010
0100
0000
0010
0000
,  // measure 18
1000
0100
0010
0001
1000
0010
0100
0010
,  // measure 19
0100
0010
1000
0100
0010
0001
1001
1010
,  // measure 20
0101
0000
0011
0000
1100
0000
1000
0000
0100
0000
1000
0000
0100
0010
0100
0010
,  // measure 21
0100
0010
0100
0010
0100
0000
0010
0000
0001
0000
0100
0000
0010
0000
1000
0100
,  // measure 22
1000
0010
0100
0010
1000
0100
0010
0001
,  // measure 23
1000
0000
0010
1000
0001
0000
1000
0000
0010
0000
0100
0000
0010
0000
0100
0000
,  // measure 24
0010
0000
1000
0100
2000
3100
1000
0100
1000
0000
0010
0000
0100
0000
0001
0000
,  // measure 25
1000
0100
2000
3100
2000
3000
0010
0000
0100
0000
0001
0000
0010
0000
0100
0000
,  // measure 26
1000
0000
0001
0100
0001
0000
1000
0000
0010
0000
0100
0000
0010
0000
1000
0000
,  // measure 27
0001
0000
0000
0001
1000
0000
0020
0030
2000
3000
0020
0030
2000
3000
0020
0030
,  // measure 28
2000
3000
0020
0030
2000
3000
0001
0100
0001
0000
1000
0000
0200
1300
0100
0000
,  // measure 29
2200
3300
1000
0001
1000
0001
1000
0001
,  // measure 30
1000
0001
1000
0001
1000
0001
1000
0001
,  // measure 31
1000
0000
0000
0000
0001
0000
0000
0000
2000
3000
0000
0000
0000
0000
0000
0000
0001
0000
0000
0000
0010
0000
0000
0000
0100
0000
0000
0000
1000
0000
0000
0000
,  // measure 32
0001
1000
0100
0010
0001
1000
0010
0100
,  // measure 33
0010
1000
0100
0010
0001
1000
0010
0100
,  // measure 34
0010
0000
1000
0000
0100
0000
0010
0000
0001
1000
0001
1000
0001
1000
0001
1000
,  // measure 35
0001
1000
0001
1000
0001
1000
0001
1000
0001
0000
1000
0000
0010
0000
0100
0000
,  // measure 36
0010
1000
0100
0010
0001
1000
0010
0100
,  // measure 37
0010
0000
1000
0000
0001
0000
0010
0000
0002
0003
2000
3000
0020
0030
0200
0300
,  // measure 38
0010
1000
0010
1000
0010
1000
0010
1000
0010
0000
0100
0000
0010
0000
0100
0000
,  // measure 39
0010
0100
0010
0100
0010
0100
0010
0100
,  // measure 40
0010
0100
0010
0100
0010
1000
0010
1000
,  // measure 41
0100
0001
0100
1000
0010
0001
0010
1000
,  // measure 42
0100
0010
0001
0100
1000
0100
0001
0010
,  // measure 43
1000
0010
0001
0010
0001
0100
0010
1000
,  // measure 44
0100
0000
0010
0000
0001
0000
1000
0001
1000
0000
0001
0000
0100
0000
0010
0000
,  // measure 45
1000
0100
0010
0001
1000
0100
0010
0001
,  // measure 46
1000
0000
0010
0000
0100
0000
0010
0000
2000
3000
0200
0300
0020
0030
0002
0003
,  // measure 47
1000
0010
1000
0010
1000
0010
1000
0010
1000
0000
0001
0000
1000
0000
0001
0000
,  // measure 48
1000
0001
1000
0001
1000
0001
1000
0001
,  // measure 49
1000
0001
1000
0001
2000
0000
0000
0000
,  // measure 50
0000
0000
0000
0000
,  // measure 51
3001
0100
0001
0100
0001
0100
0001
0100
0001
0100
0001
0100
0001
0100
0001
0100
,  // measure 52
0001
1000
0010
1000
0010
1000
0010
1000
,  // measure 53
0010
1000
0010
1000
0010
1000
0010
1000
,  // measure 54
0010
0100
0000
0001
0000
0100
0000
0010
,  // measure 55
0000
1000
0000
0100
0000
0010
0000
0001
,  // measure 56
0000
1010
0000
0110
0000
0101
0000
0110
,  // measure 57
0000
1001
0000
1100
0000
0110
0000
0011
,  // measure 58
0000
1000
0000
0010
0000
0100
0000
0001
,  // measure 59
0000
1000
0000
0100
0000
0001
0000
0100
,  // measure 60
0000
1010
0000
0110
0000
0101
0000
0011
,  // measure 61
0000
0110
0000
1100
0000
1001
0000
0110
,  // measure 62
0000
1000
0000
0100
0000
0010
0000
0001
,  // measure 63
0000
1000
0000
0010
0000
0001
0000
0010
,  // measure 64
0000
1010
0000
0110
0000
0101
0000
0011
,  // measure 65
0000
0110
0000
1100
0000
1010
0000
0110
,  // measure 66
0000
0001
0000
0010
0000
0100
0000
1000
,  // measure 67
0000
0010
0000
0100
0000
0010
0000
1000
,  // measure 68
2001
0000
0000
0000
,  // measure 69
3001
1000
0010
0100
0000
0100
0100
0100
,  // measure 70
0010
0000
0000
1000
0000
0000
1000
0000
0000
0000
1001
0000
0000
0000
0000
0000
,  // measure 71
1000
0000
0000
0001
0000
0000
0001
0000
0000
0000
1000
0000
0010
0000
0100
0000
,  // measure 72
0010
0000
0000
0010
0000
0000
0010
0000
0000
0000
1010
0000
0000
0000
0000
0000
,  // measure 73
1001
0000
0000
0001
0000
0000
0001
0000
0000
0000
1000
0000
0010
0000
1000
0000
,  // measure 74
0100
0000
0000
0010
0000
0000
0001
0000
0000
0000
1001
0000
0000
0000
0000
0000
,  // measure 75
1001
0000
0000
0001
0000
0000
0001
0000
0000
0000
1000
0000
0100
0000
0001
0000
,  // measure 76
0100
0000
0000
1000
0000
0000
0001
0000
0000
0000
0101
0000
0000
0000
0000
0000
,  // measure 77
1000
0010
0100
0001
1000
0010
0100
0001
,  // measure 78
1000
0000
0000
0001
0000
0000
1001
0000
0000
0000
0110
0000
0000
0000
0000
0000
,  // measure 79
0010
0000
0000
1000
0000
0000
0001
0000
0000
0000
1000
0000
0100
0000
0010
0000
,  // measure 80
0001
0000
0000
1000
0000
0000
0010
0000
0000
0000
0110
0000
0010
1000
0010
1000
,  // measure 81
0010
1000
0010
1000
0010
1000
0010
1000
,  // measure 82
0010
0100
0010
0100
0010
0100
0010
0100
,  // measure 83
0002
0203
0302
0203
0301
1000
0001
1000
,  // measure 84
0001
1000
0001
1000
0001
000M
1000
0100
,  // measure 85
1000
0100
1000
0100
1000
0100
1000
0100
,  // measure 86
1000
0100
1000
0100
1000
0100
1000
0100
,  // measure 87
1000
0100
0001
0100
1000
0010
0100
0010
,  // measure 88
1000
0100
0010
0100
1000
0001
0100
0010
,  // measure 89
1000
0001
0100
0010
1000
0100
0010
0001
,  // measure 90
1000
0000
0100
0000
0010
0000
0001
0000
1000
0000
0010
0100
0010
0000
1000
0000
,  // measure 91
0100
0010
0001
0100
0010
0100
0010
1000
,  // measure 92
0100
0010
0001
0010
0100
1000
0001
0100
,  // measure 93
0001
0100
0001
0100
0001
0100
0001
0100
,  // measure 94
0001
0100
0001
0100
0001
0100
0001
00M0
,  // measure 95
1000
0010
1000
0010
1000
0010
1000
0010
,  // measure 96
1000
0100
0010
0100
1000
0001
0100
0010
,  // measure 97
1000
0100
0010
0100
1000
0001
0010
0100
,  // measure 98
0010
0001
1000
0100
1000
0010
0100
0001
,  // measure 99
1000
0000
0010
0000
0100
0000
1000
0000
0100
0000
0001
0000
0100
0000
0010
1000
,  // measure 100
0010
1000
0100
0010
0001
1000
0100
0010
,  // measure 101
0100
1000
0001
0100
0010
1000
0100
0010
,  // measure 102
2002
0000
0000
0000
0000
0000
0000
0000
0000
0000
0000
0000
0000
0000
0000
0000
0M00
00M0
0M00
00M0
0M00
00M0
0M00
00M0
0M00
00M0
0M00
00M0
0M03
00M0
0M00
00M0
,  // measure 103
3001
1000
0001
1000
0001
1000
0001
1000
,  // measure 104
0001
1000
0001
1000
0001
1000
0001
1000
,  // measure 105
0001
1000
0020
0130
0020
2030
3100
0020
,  // measure 106
0031
1000
0020
0130
0020
2030
3100
0020
,  // measure 107
0031
1000
0200
0310
0002
2003
3010
0200
,  // measure 108
0310
1000
0200
0310
0002
0203
0310
0M00
,  // measure 109
1000
0100
0020
0031
2000
3020
0130
0020
,  // measure 110
1030
0100
0020
0031
2000
3020
1030
0200
,  // measure 111
0310
0001
0010
0001
1000
0001
1000
0001
,  // measure 112
1000
0001
1000
0001
2000
0000
0000
0000
,  // measure 113
3001
0100
0020
1030
0002
2003
3010
0200
,  // measure 114
0310
1000
0200
0310
0002
0203
0310
2000
,  // measure 115
3001
0100
0020
1030
0002
2003
3100
0020
,  // measure 116
0031
0000
1000
0000
0020
0000
0130
0000
0002
0000
2003
0000
3001
0000
0200
0001
,  // measure 117
1300
0100
0001
0100
1000
0100
0001
0100
,  // measure 118
1000
0010
0001
0010
1000
0010
0001
0010
,  // measure 119
1000
0000
0100
0000
0010
0000
0001
0000
1000
0100
1000
0100
1000
0100
1000
0100
,  // measure 120
1000
0001
1000
0000
0001
0000
1000
0000
0001
0000
1000
0000
0001
0000
1000
0000
0001
0000
1000
0000
0001
0000
1000
0000
0001
0000
1000
0000
0001
0000
1000
0000
,  // measure 121
0002
0000
0000
1003
0000
0000
1000
0000
0000
0000
0001
0000
0100
0000
0010
0000
,  // measure 122
1000
0000
0000
0001
0000
0000
0100
0000
0000
0000
0110
0000
0000
0000
0000
0000
,  // measure 123
1000
0000
0100
0000
0010
0000
0001
0000
1000
0000
0010
1000
0010
0000
1000
0000
,  // measure 124
0001
0000
0010
0000
0100
0000
1000
0000
0100
0000
0010
0100
0010
0000
0001
0000
,  // measure 125
1000
0000
0010
0000
0100
0000
0010
0000
1000
0000
0001
0100
0010
0000
1000
0000
,  // measure 126
0100
0010
0100
0010
0100
0010
0100
0010
0100
0010
0100
0010
0100
0000
1000
0000
,  // measure 127
0100
0000
1000
0000
0100
0000
0010
0000
0001
0000
1000
0000
0010
0000
0100
0010
,  // measure 128
1000
0000
0100
0000
0010
0000
0001
0000
1000
0000
0010
0000
0100
0000
0010
1000
,  // measure 129
0001
0000
1000
0000
1001
0000
1000
0000
0010
0000
0001
0000
0010
0000
1000
0100
,  // measure 130
1000
0000
0100
0000
0010
0001
0010
0001
0010
0001
0010
0001
0020
0000
0000
0000
,  // measure 131
0031
1000
0010
0100
0010
1000
0100
0010
,  // measure 132
0001
0000
1000
0000
0010
0000
0100
0000
0001
0000
1000
0000
0100
0010
0100
0010
,  // measure 133
0001
1000
0010
0100
0010
1000
0100
1000
,  // measure 134
0100
0000
0010
0000
0001
0000
0010
0000
0100
0000
1000
0000
0001
1000
0001
1000
,  // measure 135
0001
0100
0010
1000
0100
0010
0001
1000
,  // measure 136
0010
0100
0010
1000
0100
0010
0001
1000
,  // measure 137
0020
0000
2030
0000
3002
0000
0203
0000
0310
1000
0010
1000
0010
1000
0010
1000
,  // measure 138
0001
1000
0001
1000
0001
1000
0001
1000
,  // measure 139
0001
0000
0000
1000
0000
0000
0001
0000
0000
1000
0000
0000
2002
0000
0000
0000
0000
0000
0000
0000
0000
0M00
00M0
0MM0
,  // measure 140
0MM0
0MM0
0MM0
00M0
0M00
00M0
0M00
00M0
0M00
00M0
0M00
00M0
0000
0MM0
0M00
0000
00M0
0000
0000
0000
0000
0MM0
0000
0000
,  // measure 141
0000
00M0
0M00
00M0
0M00
00M0
3003
0000
0000
M00M
0000
0000
;
