#TITLE:Lovegame;
#SUBTITLE:;
#ARTIST:Lady GaGa;
#TITLETRANSLIT:;
#SUBTITLETRANSLIT:;
#ARTISTTRANSLIT:;
#CREDIT:;
#BANNER:Lovegame.png;
#BACKGROUND:;
#LYRICSPATH:;
#CDTITLE:;
#MUSIC:02 Lady GaGa - Lovegame.ogg;
#OFFSET:-0.225;
#SAMPLESTART:52.670;
#SAMPLELENGTH:13.200;
#SELECTABLE:YES;
#BPMS:0.000=104.980;
#STOPS:;
#BGCHANGES:;

//---------------dance-single - ----------------
#NOTES:
     dance-single:
     :
     Hard:
     8:
     0.480,0.501,0.345,0.067,0.198: // measure 1
0000
0000
0000
0000
,  // measure 2
0000
0000
0000
0000
,  // measure 3
0000
0000
0000
0000
,  // measure 4
0000
0000
0000
0000
,  // measure 5
1001
0000
0001
0000
1000
0010
0000
0100
0010
0000
0000
0000
0110
0000
1010
0000
,  // measure 6
0000
0000
1000
0000
0100
0010
0000
0001
0100
0000
0000
0000
0110
0000
1001
0000
,  // measure 7
0000
0000
1000
0000
0010
0100
0000
0010
1000
0000
0000
0000
1001
0000
0110
0000
,  // measure 8
0000
0000
0010
0000
1000
0010
0000
0100
0001
0000
0000
0000
0110
0000
1001
0000
,  // measure 9
1000
0000
0010
0000
0010
0100
0000
0100
0010
0000
0000
0000
1010
0000
1100
0000
,  // measure 10
0000
1000
0010
0100
0010
1000
0100
0010
,  // measure 11
0001
1000
1001
0000
0001
0000
0011
0101
,  // measure 12
0000
0000
0010
0000
0000
1000
0000
0000
0100
0000
0100
0000
0010
0000
0001
0000
,  // measure 13
0100
0010
1000
0001
0100
1000
0100
0001
,  // measure 14
1000
0100
0001
0100
1000
0010
0100
0010
,  // measure 15
1000
0100
0010
0000
0001
0100
0010
0000
,  // measure 16
1000
0100
1100
0000
0010
0001
0011
0000
,  // measure 17
0002
0000
1003
0010
0200
0000
0310
0000
,  // measure 18
1000
0000
0100
0010
0001
0000
1000
0000
0020
0000
0000
0000
0130
0000
0100
0000
,  // measure 19
0100
0000
0001
1000
0100
0100
0100
0010
,  // measure 20
0001
0100
1000
0100
0002
0000
1003
0100
,  // measure 21
0010
0000
0010
0000
0001
0000
0100
0000
0010
0000
1000
0000
0010
0000
0000
0010
,  // measure 22
1000
0010
0100
0001
0010
0000
0100
1000
0001
0000
0100
0000
0110
0000
0010
0000
,  // measure 23
0010
0000
1000
0000
0100
0000
0100
0000
1000
0000
0001
0000
0100
0000
0000
0010
,  // measure 24
1000
0010
0100
0001
1000
0000
0001
1000
0010
0000
0100
0000
1001
0000
0000
0000
,  // measure 25
0010
0000
1000
0100
1000
0000
0001
0000
0100
0010
1000
0000
0100
0000
0010
0001
,  // measure 26
0100
0000
0001
0000
1000
0100
1000
0000
0001
0000
0100
0010
1000
0000
0001
0000
,  // measure 27
1100
0000
0000
0000
0101
0000
0000
0000
1010
0000
0000
0000
0001
0000
0100
0010
,  // measure 28
0000
0000
1100
0000
0000
0110
0000
0000
1001
0000
0000
0000
0101
0000
1000
0001
,  // measure 29
1000
0000
1000
0000
0100
1000
0001
0000
0100
0000
0010
1000
0100
0000
0010
0000
,  // measure 30
0001
0100
1000
0000
0001
0000
0010
1000
0100
0000
1000
0000
0001
0000
0000
0000
,  // measure 31
0101
0000
1010
0000
1100
0000
0001
0100
,  // measure 32
1000
1000
0100
0010
1000
0000
0100
0000
,  // measure 33
1000
0001
0100
0000
0110
0000
0010
1010
,  // measure 34
0000
0000
1000
0000
0000
0001
0000
0000
0100
0000
0000
0000
0010
0000
1010
0000
,  // measure 35
0000
0000
1000
0000
0000
0001
0000
0000
0100
0000
0000
0000
0010
0000
0110
0000
,  // measure 36
0000
0000
1000
0000
0000
0001
0000
0000
0100
0000
0000
0000
0010
0000
1000
0000
,  // measure 37
0001
0000
0100
0000
0010
1000
0000
1000
0100
0000
0000
0000
0010
0000
0011
0000
,  // measure 38
0000
1000
0010
1000
0100
0001
0100
1000
,  // measure 39
0010
1000
1001
0000
1000
0000
0100
0110
,  // measure 40
0000
0000
0001
0000
0000
1000
0000
0000
0010
0000
0000
0000
1000
0000
0010
0000
,  // measure 41
0100
0010
0001
0010
1000
0100
0001
1000
,  // measure 42
0010
0001
1000
0010
0100
0010
1000
0001
,  // measure 43
1000
0010
0110
0000
0001
1000
1100
0000
,  // measure 44
0010
0001
0101
0000
0010
1000
1001
0000
,  // measure 45
0020
0000
1030
0001
0200
0000
0310
0000
,  // measure 46
1000
0000
0001
0100
0010
0000
1000
0000
0200
0000
0000
0000
0301
0000
0100
0000
,  // measure 47
1000
0000
1000
0010
0100
0100
0100
0010
,  // measure 48
1000
0001
0100
0010
2000
0000
3100
0010
,  // measure 49
0001
0000
1000
0000
0010
0000
0100
0000
0010
0000
0010
0000
0010
0000
0000
1000
,  // measure 50
0100
0010
0001
1000
0010
0000
0100
0010
1000
0000
0100
0000
0011
0000
0001
0000
,  // measure 51
0100
0000
0010
0000
1000
0000
0001
0000
1000
0000
1000
0000
1000
0000
0000
0010
,  // measure 52
1000
0001
0100
0010
1000
0000
0100
0010
0001
0000
1000
0000
0001
0000
1001
0000
;

//---------------dance-single - ----------------
#NOTES:
     dance-single:
     :
     Medium:
     5:
     0.286,0.305,0.134,0.034,0.000:
0000
0000
0000
0000
,
0000
0000
0000
0000
,
0000
0000
0000
0000
,
0000
0000
0000
0000
,
1001
0000
0010
0000
0100
0000
0010
0100
,
0000
0000
0010
0000
1000
0000
0001
1000
,
0000
0000
0001
0000
0100
0000
0010
0100
,
0000
0000
0100
0000
0001
0000
1000
0100
,
1000
0000
0001
0000
0100
0000
0001
0100
,
0000
0001
1000
0100
,
1000
0000
0001
0000
0100
0000
0010
0100
,
0000
1000
0001
0100
,
0010
1000
0001
0010
,
0100
0000
1000
0000
0001
0100
0010
0000
,
0010
0010
0010
0000
0010
0010
0010
0000
,
0100
0100
0100
0000
0100
0100
0100
0000
,
0002
0003
1000
0000
2000
0000
3000
0000
,
0001
0100
0010
0010
,
1000
0000
0100
0000
1000
0001
0100
0000
,
0010
1000
0001
0000
,
1000
0000
0001
0000
0100
0100
0100
0000
,
0010
0000
1000
0000
0001
0001
0001
0000
,
0010
0000
0100
0000
1000
1000
1000
0000
,
0001
0000
0100
0000
0010
0010
0010
0000
,
0010
1000
0001
0100
,
0010
1000
0100
0000
1000
0001
0100
0001
,
1000
0100
1000
0101
,
1010
0000
1100
0000
0011
0000
0001
0100
,
1000
0000
0100
0000
0010
1000
0100
0000
,
1000
0000
0001
0000
0010
0010
0010
0000
,
0001
0100
0010
1010
,
0101
1100
0011
0101
,
0010
0000
1000
0000
0100
0000
1000
0100
,
0000
0000
1000
0000
0001
0000
0100
0001
,
0000
0000
1000
0000
0010
0000
0100
0010
,
0000
0000
1000
0000
0001
0000
0100
0001
,
0001
0001
1000
0000
0100
0000
1000
1000
,
0000
0000
0001
0000
0100
0000
0010
1000
,
0100
1000
0001
0000
0100
0000
0100
0100
,
0000
0010
1000
0001
,
0100
0010
0100
0000
0010
0100
0010
0000
,
0100
0010
0100
0000
0010
0100
0010
0000
,
0010
1010
0001
0101
,
0001
0011
1000
1100
,
2001
0000
0000
3000
0002
0000
0000
0003
,
0100
0010
1010
0100
,
1000
0000
0001
0000
0100
0100
0100
0000
,
0010
0000
1000
0000
0001
0000
0001
0100
,
0001
0001
1000
0100
,
1000
0000
0001
0000
0100
0010
0100
0000
,
0010
1000
0001
0010
,
0100
0000
1000
0000
0001
0100
0001
1000
;

//---------------dance-single - ----------------
#NOTES:
     dance-single:
     :
     Easy:
     3:
     0.222,0.305,0.109,0.000,0.000:
0000
0000
0000
0000
,
0000
0000
0000
0000
,
0000
0000
0000
0000
,
0000
0000
0000
0000
,
1001
1000
1000
0000
,
0001
0100
0010
0000
,
0010
1000
0001
0000
,
1000
0001
0010
0000
,
0100
1000
0001
0000
,
1000
0010
0100
0000
,
0010
1000
0001
0000
,
1000
0001
0100
0000
,
0010
0010
0010
1000
,
1000
1000
0100
0100
,
0100
0011
1000
1010
,
0100
0101
0010
0011
,
0101
0000
0110
0000
,
0010
1000
0100
0000
,
0010
0001
1000
1000
,
0010
0100
0001
1000
,
0100
0100
1000
1000
,
0001
0001
0010
0010
,
0001
0001
0100
0100
,
0010
0010
0100
0100
,
0010
1000
0001
1000
,
0100
1000
0010
0100
,
0110
0010
1000
0100
,
1000
0001
0100
0010
,
0010
1000
1000
0100
,
0100
1000
1000
0001
,
0001
0100
0100
0010
,
0010
0100
0100
0001
,
1000
0000
0100
1000
,
1000
0001
0100
0000
,
0010
1000
0001
0000
,
1000
0010
0100
0000
,
0010
1000
0001
0000
,
1000
0100
1000
0001
,
0100
0010
0100
0000
,
0010
1000
0001
0000
,
1000
1000
0100
0100
,
0010
0010
0100
0100
,
1000
1001
0001
1001
,
0010
0110
0100
0110
,
0010
0000
1000
0000
,
0001
1000
0010
0000
,
0100
0001
1000
1000
,
0100
1000
0001
0100
,
0010
0010
0100
0100
,
0001
0001
1000
1000
,
0100
0100
0010
0010
,
0001
0000
0001
0000
1000
0000
1000
1001
;
