#TITLE:Johanna (Shut Up);
#SUBTITLE:(Radio Edit Alternative Option);
#ARTIST:Crazy Loop;
#TITLETRANSLIT:;
#SUBTITLETRANSLIT:;
#ARTISTTRANSLIT:;
#GENRE:;
#CREDIT:;
#BANNER:Johanna (Shut Up) (Radio Edit Alternative Option).png;
#BACKGROUND:;
#LYRICSPATH:;
#CDTITLE:;
#MUSIC:Johanna (Shut Up) (Radio Edit Alternative Option).ogg;
#OFFSET:-0.300;
#SAMPLESTART:54.250;
#SAMPLELENGTH:11.960;
#SELECTABLE:YES;
#BPMS:0.000=131.000,155.000=65.500,155.500=262.000,161.000=130.999,253.000=65.500,253.500=261.998,256.500=130.999,275.000=65.499,280.500=32.749;
#STOPS:160.250=0.020
,160.500=0.005
,160.750=0.020
,161.000=0.020
,256.500=0.010
;
#BGCHANGES:;
#KEYSOUNDS:;

//---------------dance-single - FlyaRespect2Mandodo----------------
#NOTES:
     dance-single:
     FlyaRespect2Mandodo:
     Challenge:
     11:
     0.855,0.830,0.133,0.228,1.000,764.000,18.000,31.000,16.000,0.000,0.000,0.855,0.830,0.133,0.228,1.000,764.000,18.000,31.000,16.000,0.000,0.000:
0000
0000
0000
0000
,
1000
0000
0100
0000
0010
0000
0001
0100
0000
0010
1000
0000
M0M0
0000
0100
0000
,
0010
0000
0001
0000
0100
0000
0010
1000
0000
0100
0010
0000
00MM
0000
0001
0000
,
0100
0000
0010
0000
1000
0000
0100
0010
0000
0100
1000
0000
0MM0
0000
0010
0000
,
0100
0000
0010
0000
1000
0000
0100
0010
0000
0000
MMMM
0000
0000
MMMM
0000
0000
,
1000
0010
0100
0001
0010
0000
0100
1000
0010
0100
0010
1000
0100
0000
0010
0000
,
0100
0010
0001
1000
0001
0000
0001
1000
0010
0100
0001
1000
0010
0000
1000
0000
,
0100
0010
0001
1000
0010
0000
1000
0010
0100
0001
0010
0100
1000
0000
0010
0000
,
0010
0100
0001
0010
0100
0000
1000
0010
0100
0010
1000
0100
0010
0000
0001
0000
,
0100
0010
0100
0010
1000
0000
1000
0100
0010
0001
0100
0010
1000
0000
0010
0000
,
1000
0100
0010
0100
1000
0000
0010
0100
0001
0010
0100
1000
0010
0000
0100
0000
,
0010
1000
0010
0100
0001
0000
0001
0100
0010
1000
0100
0010
0100
0000
0010
0000
,
0001
0100
0010
1000
0100
0000
0010
0001
0010
0100
1000
0010
0100
0000
0010
0000
,
1000
0010
1000
0010
1000
0010
1000
0001
0100
0001
0100
0001
0100
0001
0100
0001
,
2000
0000
0100
3010
0001
0000
0100
0000
0010
0000
1000
0100
1000
0000
0010
0000
,
0100
0000
0001
0000
0010
0000
0100
1000
0100
0010
0000
0001
0010
0000
0010
0000
,
0001
0100
0001
0000
0100
0000
0010
1000
0100
0000
0010
0000
0001
0000
0010
0000
,
0001
0000
0100
0000
0010
0000
1000
0100
0010
0001
0000
0001
0100
0000
0010
0000
,
2000
0100
3010
0001
1000
0000
0010
0000
2000
0010
3100
0001
0010
0000
0100
0000
,
2000
3010
1000
0100
0010
0000
0001
0000
0100
0000
1000
0000
0100
0000
0001
0000
,
0010
0100
0000
0100
0010
0000
0001
0100
0010
1000
0000
0100
0010
0000
0001
0100
,
0001
0010
0000
0010
0001
0000
0100
0000
0010
1000
0010
1000
0010
0000
1010
0000
,
1000
0010
1000
0000
0100
0000
0010
0000
0001
0100
0001
0000
0010
0000
0100
0000
,
2000
0000
3020
0000
0230
0000
0302
0000
0103
0010
0000
0010
1000
0000
0100
0010
,
0001
0000
1000
0000
0010
0000
1000
0100
0010
0000
0100
0000
1000
0000
0010
0000
,
0100
0010
1000
0100
0020
0032
0203
0320
,
1030
0000
0000
0100
1000
0000
0010
0000
0100
0000
0000
0001
0100
0000
0010
0000
,
1000
0000
0000
1000
0100
0000
0010
0000
0001
0000
0100
0000
0010
0000
1000
0000
,
0100
1000
0000
0100
1000
0000
0010
0000
0100
0001
0000
0100
0001
0000
0110
0000
,
0010
0000
0011
0000
0001
0000
0101
0000
0100
0000
0010
0000
1000
0100
1000
0100
,
1000
0000
0010
0100
0001
0000
0001
0010
0100
0000
1000
0001
0100
0000
0100
0010
,
1000
0000
0010
0100
0001
0000
0001
0010
0100
0000
0000
0000
1001
0000
0000
0000
,
1100
0000
0000
0000
0110
0000
0000
0000
0010
0000
0001
0000
0200
0300
0200
0300
,
0010
0000
1000
0000
0002
0003
0002
0003
0000
0000
0001
0000
0010
0000
0100
0000
,
1100
0000
1010
0000
0110
0000
0001
0100
,
0010
1000
0100
0000
0010
0000
0001
0100
0010
0000
0010
1000
0100
0000
0010
0000
,
0011
0000
0000
0000
0101
0000
0000
0000
0110
0000
0000
0000
2000
0000
0200
3000
,
0310
0000
0001
0000
0200
0000
0020
0300
0130
0000
0010
0000
2000
0000
0200
3000
,
0310
0000
0001
0000
0200
0000
0020
0300
0030
0000
0000
0000
2000
0000
0002
0000
,
0000
0000
0000
0000
,
0000
0000
0000
0000
3003
0000
0000
0000
1000
0001
1000
0001
1000
0010
1000
0010
,
1000
0001
0100
0010
0100
0001
0100
0001
1000
0000
0001
0000
1000
0000
0001
0000
,
0100
0000
0010
0000
1000
0000
0001
1000
0010
0100
0010
0100
0001
1000
0001
1000
,
0100
1000
0001
1000
0010
1000
0001
1000
0010
0000
0100
0000
0001
0000
0100
0000
,
0010
0000
1000
0000
0001
0000
0100
0010
1000
0010
1000
0001
0100
0010
0100
0001
,
1000
0100
1000
0001
0010
0001
1000
0100
1000
0000
0001
0000
0100
0000
0010
0000
,
1000
0000
0001
0100
0010
1000
0010
1000
0001
0000
0100
0000
0010
0000
1000
0000
,
0001
0000
0010
0000
0001
1000
0100
1000
0001
0100
0001
0100
0010
1000
0010
1000
,
0001
0100
0010
0100
0001
1000
0001
0010
0100
1000
0001
1000
0001
0100
0010
1000
,
0001
1000
0010
0100
0001
1000
0001
0010
0100
1000
0001
1000
0001
0010
0100
1000
,
0001
0100
0010
0100
0001
1000
0010
1000
0001
1000
0010
0100
0001
0100
0010
1000
,
0001
1000
0010
0100
0001
1000
0001
1000
0100
1000
0001
1000
0001
0000
0001
1000
,
0000
1000
0010
1000
0010
1000
0001
1000
0010
1000
0001
1000
0001
0000
0001
0100
,
0000
0010
1000
0010
1000
0001
1000
0010
1000
0100
0010
0001
1000
0010
1000
0001
,
0100
0001
0100
0010
0100
0010
1000
0001
1000
0010
1000
0001
0100
0010
1000
0010
,
0100
0001
0100
0010
1000
0001
1000
0100
0010
0100
1000
0001
1000
0000
0010
0100
,
0000
0100
0010
1000
0100
0010
0001
0100
0010
1000
0100
0010
0001
0000
0001
1000
,
0000
1000
0010
1000
0100
0010
0001
0100
0010
1000
0001
1000
0001
0000
0010
0100
,
0000
1000
0010
0100
0010
1000
0100
0010
0001
0100
0010
0100
0001
0000
0001
0100
,
0000
0010
1000
0100
0010
0001
0100
0010
1000
0100
0010
0001
1000
0000
0010
1000
,
0000
0010
0100
0010
1000
0100
1000
0100
0010
0001
0010
0001
0010
0000
0001
0100
,
0000
0010
1000
0100
0010
0001
0010
0100
1000
0100
0010
0001
0100
0000
0010
0100
,
0000
0010
1000
0010
0100
0001
0100
0010
1000
0010
0100
0010
1000
0000
0100
1000
,
0000
0001
1000
0000
2000
0000
0002
0000
0000
0000
0000
0000
0000
0000
0000
0000
,
0000
0000
0000
0000
3003
0000
0000
0000
1001
0000
0000
0000
1000
0010
1000
0100
,
0010
0001
0010
0100
1000
0010
0100
0010
1000
0100
0010
0001
1000
0000
0010
0000
,
1000
0000
0100
0000
0010
0001
0010
0100
1000
0010
0100
0001
0010
0100
1000
0010
,
1000
0100
0010
0001
1000
0000
0020
0000
0130
0000
0010
0000
1000
0000
0100
0000
,
0010
0000
0001
0010
0100
1000
0010
0100
0010
1000
0100
0010
0001
1000
0000
0100
,
0000
0110
0000
0011
0000
0000
1100
0000
1001
0000
0010
1000
0000
0000
0010
0000
,
1000
0000
0000
0000
0000
0000
0000
0000
0000
0000
0000
0000
0000
0000
0000
0000
0000
0000
0000
0000
0000
0000
0000
0000
0100
0000
0000
0000
0000
0000
2000
0000
0000
0000
0000
0000
0000
0000
0000
0000
0000
0000
0000
0000
0000
0000
0000
0000
0100
0000
0000
0000
0000
0000
0200
0000
0000
0000
0000
0000
0000
0000
0000
0000
0000
0000
0000
0000
0000
0000
0000
0000
3300
0000
0000
0000
0000
0000
0000
0000
MM00
0000
0000
0000
0000
0000
0000
0000
0000
0000
0000
0000
0000
0000
0000
0000
0000
0000
0000
0000
0000
0000
0000
0000
0000
0000
0000
0000
0000
0000
0000
0000
0000
0000
0000
0000
0000
0000
0000
0000
0000
0000
0000
0000
0000
0000
0000
0000
0000
0000
0000
0000
0000
0000
0000
0000
0000
0000
0000
0000
0000
0000
0000
0000
0000
0000
0000
0000
0000
0000
0000
0000
0000
0000
0000
0000
0000
0000
0000
0000
0000
0000
0000
0000
0000
0000
0000
0000
0000
0000
0000
0000
0000
0000
0000
0000
0000
0000
0000
0000
0000
0000
0000
0000
0000
0000
0000
0000
0000
0000
0000
0000
;
