#TITLE:HOTEL ROOM SERVICE;
#SUBTITLE:;
#ARTIST:MC BOY;
#TITLETRANSLIT:;
#SUBTITLETRANSLIT:;
#ARTISTTRANSLIT:;
#GENRE:;
#CREDIT:;
#BANNER:Hotel Room Service.png;
#BACKGROUND:;
#LYRICSPATH:;
#CDTITLE:;
#MUSIC:SAI 1663 - MC BOY - HOTEL ROOM SERVICE.ogg;
#OFFSET:-0.407;
#SAMPLESTART:22.730;
#SAMPLELENGTH:13.200;
#SELECTABLE:YES;
#BPMS:0.000=126.000;
#STOPS:;
#BGCHANGES:;
#KEYSOUNDS:;

//---------------dance-single - ----------------
#NOTES:
     dance-single:
     :
     Hard:
     7:
     0.397,0.418,0.131,0.000,0.121,262.000,13.000,0.000,0.000,0.000,0.000,0.397,0.418,0.131,0.000,0.121,262.000,13.000,0.000,0.000,0.000,0.000:
0000
0000
0000
0000
,
0000
0000
0000
0000
,
0000
0000
0000
0000
,
0000
0000
0000
0000
,
0000
0000
0000
0000
,
0000
0000
0000
0000
,
0000
0000
0000
0000
,
0000
0000
0000
1000
,
0010
0100
0001
0010
,
0100
1000
0001
0100
,
0010
1000
0100
0001
,
0100
0000
1000
0000
0010
0000
0100
0010
,
0100
0000
0010
1000
0010
0000
1000
0001
,
0100
0000
0010
1000
0001
0000
0001
1000
,
0010
0000
1000
0100
0010
0000
0001
1000
,
0100
0000
0010
0001
1000
0000
1000
0001
,
0010
0000
0100
0000
1000
0000
0000
0001
0000
0000
0100
0000
0010
0000
1000
0000
,
0001
0000
0100
0000
1000
0000
0000
0100
0000
0000
0010
0000
1000
0000
0100
0000
,
0010
0000
0001
0000
1000
0000
0000
0010
0000
0000
0100
0000
0010
0000
0100
0000
,
1000
0000
0100
0000
0010
0000
0000
1000
0000
0000
0100
0000
1000
0000
0100
0000
,
0010
0000
1000
0000
0001
0000
0000
0100
0000
0000
1000
0000
1000
0000
0100
0000
,
0010
0000
0001
0000
0100
0000
0000
0100
0000
0000
0010
0000
1000
0000
0100
0000
,
0010
0000
0001
0000
0100
0000
0000
0010
0000
0000
1000
0000
0100
0000
0010
0000
,
0001
0000
0100
0000
0100
0010
0000
0100
0000
0100
0010
0000
1000
0000
0000
0000
,
0100
0000
1000
0001
0100
0000
1010
0000
,
0001
0000
1100
1000
0001
0000
0100
0010
,
1000
0000
1000
0001
0100
0000
0010
0000
,
1100
0000
0001
0100
1000
0000
0110
0000
,
0010
0000
1000
0100
1000
0000
0001
0000
,
0100
0000
0010
1000
0100
0000
1000
0000
,
0001
0000
0000
0000
0001
0000
0100
0000
1000
0000
0000
0100
0000
0000
0010
0000
,
1000
0100
0100
0000
1000
0000
1001
0000
,
0010
0000
0001
0100
1000
0000
0100
0000
,
0010
0000
1000
0100
0010
0000
0001
0000
,
0000
0001
0100
0000
0010
1000
0100
1000
,
0000
1001
0000
0000
0001
0100
0010
0000
,
0000
1000
0100
0000
1000
0001
0100
0010
,
0000
0110
0000
0000
1000
0100
1000
0000
,
0000
1000
0001
0000
0100
0000
1000
0001
,
1000
0000
0001
0000
0000
0000
0001
0000
0100
0000
0000
0000
0010
0100
0010
0000
,
1000
0000
0100
0000
0010
0000
0000
0001
0000
0000
0100
0000
1000
0000
0001
0000
,
0010
0000
1000
0000
0100
0000
0000
0010
0000
0000
0001
0000
0100
0000
1000
0000
,
0001
0000
0010
0000
1000
0000
0000
0100
0000
0000
1000
0000
0001
0000
0100
0000
,
0010
0000
1000
0000
0001
0000
0000
0101
0000
0000
0010
0000
1000
0000
0100
0000
,
0010
0000
0001
0000
0010
0000
0000
0011
0000
0000
0001
0000
1000
0000
0100
0000
,
1000
0000
0010
0000
0100
0000
0000
0101
0000
0000
0010
0000
1000
0000
0100
0000
,
0010
0000
0001
0000
0100
0000
0000
0101
0000
0000
0010
0000
1000
0000
0010
0000
,
0100
0000
0010
0000
0100
0000
0000
0110
0000
0000
0010
0000
1000
0000
0000
0000
,
0100
0000
1001
0000
0010
0000
0001
0100
,
0001
0100
0000
0100
0010
1000
0100
0000
,
1000
0000
0001
0000
0100
0000
1000
0100
,
0010
0000
0001
0010
0000
0001
0000
0001
1000
0000
1000
0001
0000
0000
0000
0000
;

//---------------dance-single - ----------------
#NOTES:
     dance-single:
     :
     Medium:
     4:
     0.235,0.235,0.121,0.000,0.045,151.000,12.000,0.000,0.000,0.000,0.000,0.235,0.235,0.121,0.000,0.045,151.000,12.000,0.000,0.000,0.000,0.000:
0000
0000
0000
0000
,
0000
0000
0000
0000
,
0000
0000
0000
0000
,
0000
0000
0000
0000
,
0000
0000
0000
0000
,
0000
0000
0000
0000
,
0000
0000
0000
0000
,
0000
0000
0000
0000
,
0000
0000
0000
0000
,
0000
0000
0000
1000
,
0001
0100
0000
0001
,
1000
0100
0000
0010
,
0001
0100
0000
0010
,
1000
0001
0000
0010
,
0001
0100
0000
0001
,
1000
0100
0000
1001
,
0000
1100
0000
0101
,
0001
0001
0000
1100
,
0000
0101
0000
0011
,
0001
0001
0000
1010
,
0000
0011
0000
1000
,
1000
1000
0000
1010
,
0000
0101
0000
1000
,
0100
0000
0001
0000
0000
0000
1000
0010
,
1000
0000
0001
0000
0001
0000
0100
0001
,
0100
0010
0010
1000
,
0001
0100
0010
0010
,
1000
0000
0001
0000
0010
0000
0100
1000
,
0001
0100
0010
1000
,
0001
0010
0100
1000
,
0001
0100
0010
0010
,
0010
1000
0001
0100
,
0010
0010
1000
0100
,
1000
0001
0100
0101
,
0000
1000
1100
0000
0000
0000
0100
0000
,
0000
0010
0000
0000
0001
0000
0100
0000
,
0000
0010
1000
0000
1000
0000
0100
0000
,
0000
0010
0000
0000
0001
0000
0100
0000
,
0000
0010
0000
1000
,
0001
0100
0000
0000
0010
0000
0010
0000
,
1000
0000
0000
0000
0100
0000
0000
0100
0000
0000
0000
0000
1000
0000
0000
0000
,
0001
0000
0000
0000
0100
0000
0000
0100
0000
0000
0000
0000
0010
0000
0000
0000
,
1000
0000
0000
0000
0001
0000
0000
0001
0000
0000
0000
0000
0100
0000
0000
0000
,
0010
0000
0000
0000
1000
0000
0000
1000
0000
0000
0000
0000
0001
0000
0000
0000
,
0100
0000
0000
0000
0010
0000
0000
0010
0000
0000
0000
0000
1000
0000
0000
0000
,
0100
0000
0000
0000
0001
0000
0000
0001
0000
0000
0000
0000
0100
0000
0000
0000
,
0010
0000
0000
0000
1000
0000
0000
1000
0000
0000
0000
0000
0001
0000
0000
0000
,
0100
0000
0000
0000
0010
0000
0000
0010
0000
0000
0010
0000
1000
0000
0000
0000
,
0001
0100
0100
0010
,
1000
0001
0010
0100
,
1000
0001
0100
0010
,
1000
0000
0000
0000
0001
0000
0000
0000
0100
0000
0001
0100
0000
0000
0000
0000
;

//---------------dance-single - ----------------
#NOTES:
     dance-single:
     :
     Easy:
     2:
     0.154,0.209,0.010,0.000,0.066,106.000,1.000,0.000,0.000,0.000,0.000,0.154,0.209,0.010,0.000,0.066,106.000,1.000,0.000,0.000,0.000,0.000:
0000
0000
0000
0000
,
0000
0000
0000
0000
,
0000
0000
0000
0000
,
0000
0000
0000
0000
,
0000
0000
0000
0000
,
0000
0000
0000
0000
,
0000
0000
0000
0000
,
0000
0000
0000
0000
,
0000
0000
0000
0000
,
0000
0000
0000
0000
,
0000
0000
0000
0000
,
0000
0000
0000
1000
,
0001
0000
0000
0000
0100
0000
0000
0100
0000
0000
0000
0000
0010
0000
0000
0000
,
0010
0000
0000
0000
0010
0000
0000
0010
0000
0000
0000
0000
0100
0000
0000
0000
,
0100
0000
0000
0000
0100
0000
0000
0100
0000
0000
0000
0000
0010
0000
0000
0000
,
0010
0000
0000
0000
0010
0000
0000
0010
0000
0000
0000
0000
1000
0000
0000
0000
,
0000
0001
0000
0100
,
0000
0010
0000
1000
,
0000
0001
0000
0100
,
0000
0010
0000
1000
,
0000
0100
0000
0010
,
0000
0001
0000
0100
,
0000
0010
0000
1000
,
0000
0001
0000
0100
,
0000
0010
0000
1000
,
0000
0100
0000
0010
,
0000
0001
0000
1000
,
0000
0010
0000
0100
,
0000
0001
0000
1000
,
0000
0100
0000
1000
,
0000
0001
0000
0100
,
0000
0010
0010
0010
,
0000
1000
0000
0100
,
0000
0001
0000
1000
,
0000
0000
0000
0001
0000
0000
0000
0000
0000
0000
0000
0000
1000
0000
0000
0000
,
0000
0001
0000
0100
,
0000
0010
0000
0100
,
0000
0001
0000
0000
0000
0000
1000
0000
,
0000
0100
0000
1000
,
0000
0001
0000
0000
0000
0000
0100
0000
,
0100
0000
0000
0000
0100
0000
0000
0100
0000
0000
0000
0000
0001
0000
0000
0000
,
0001
0000
0000
0000
0001
0000
0000
0001
0000
0000
0000
0000
1000
0000
0000
0000
,
1000
0000
0000
0000
1000
0000
0000
1000
0000
0000
0000
0000
0010
0000
0000
0000
,
0010
0000
0000
0000
0010
0000
0000
0010
0000
0000
0000
0000
0100
0000
0000
0000
,
0100
0000
0000
0000
0100
0000
0000
0100
0000
0000
0000
0000
0001
0000
0000
0000
,
0001
0000
0000
0000
0001
0000
0000
0001
0000
0000
0000
0000
1000
0000
0000
0000
,
1000
0000
0000
0000
1000
0000
0000
1000
0000
0000
0000
0000
0100
0000
0000
0000
,
0100
0000
0000
0000
0100
0000
0000
0100
0000
0000
0000
0000
0001
0000
0000
0000
,
0000
1000
0000
0010
,
0000
0100
0000
0001
,
0000
1000
0000
0100
,
0000
1000
0000
0101
;

//---------------dance-single - ----------------
#NOTES:
     dance-single:
     :
     Challenge:
     9:
     0.718,0.575,0.192,0.000,0.667,478.000,19.000,0.000,0.000,0.000,0.000,0.718,0.575,0.192,0.000,0.667,478.000,19.000,0.000,0.000,0.000,0.000:
0000
0000
0000
0000
,
0000
0000
0000
0000
0000
0000
0001
1000
,
0010
0000
0100
0000
0010
0000
0000
1010
0000
0000
0110
0000
0100
0000
0001
0000
,
0010
0000
1000
0000
0010
0000
0000
0011
0000
0000
1001
0000
0001
0000
0100
0000
,
1000
0000
0100
0000
0001
0000
0000
0011
0000
0000
1100
0000
1000
0000
0001
0000
,
0100
0000
0010
0000
1000
0000
0000
1001
0000
0000
0110
0000
0010
0000
1000
0000
,
0001
0000
0010
0000
0100
0000
0000
1100
0000
0000
1100
0000
1000
0000
0001
0000
,
0100
0000
0010
0000
1000
0000
0000
1010
0000
0000
1001
0000
0001
0000
0100
0000
,
0010
0000
0010
0000
1000
0000
0100
1000
0000
1000
0001
0000
0100
0000
0010
0000
,
1000
0000
0001
0000
0010
0000
0100
1000
0000
1000
0001
0000
0100
0000
0010
0000
,
1000
0000
0001
0000
0010
0000
0100
1000
0000
1000
0001
0000
0100
0000
0010
0000
,
1000
0000
0001
0000
0010
0000
0100
1000
0000
1000
0001
0000
0100
0001
1000
0100
,
1000
0000
0001
0000
0100
0000
0010
1000
0000
1000
0001
0000
0100
0001
0010
0100
,
1000
0000
0001
0000
0100
0000
0010
1000
0000
1000
0001
0000
0010
0001
1000
0100
,
1000
0000
0001
0000
0100
0000
0010
1000
0000
1000
0001
0000
0100
0010
1000
0001
,
0010
0000
0100
0000
1000
0000
0001
0100
0000
0100
0010
1000
0010
0000
1000
0000
,
0001
0100
0010
0010
1000
0100
1000
0001
,
0100
0000
0100
0000
0001
0000
1000
0100
1000
0000
1000
0000
1001
0000
0001
0000
,
0001
0000
0100
0000
0010
0100
0010
0000
1000
0000
0100
0000
1000
0000
0001
0000
,
0100
0000
0010
0000
1000
0000
0001
0000
0100
0000
0001
0000
0010
0100
0000
0100
,
1000
0000
1000
0000
0001
0100
0000
0100
0010
0000
0010
0000
1000
0001
1000
0010
,
0100
0000
0001
0000
1000
0000
0100
0000
1000
0000
0001
0000
0100
0001
0000
0001
,
0100
0000
0100
0000
0010
1000
0000
1000
0010
0000
0100
0000
0010
1000
0001
1000
,
0100
0000
1000
0000
0001
1000
0000
0100
0001
0000
0100
0000
0010
1000
0001
1000
,
0100
0000
1000
0000
0001
1000
0000
1000
0001
0000
0100
0000
0010
1000
0000
1000
,
0010
0000
0100
0000
0010
0000
1000
0100
0000
0100
1000
0001
1000
0000
0010
0100
,
0000
0100
0010
0100
0010
0000
1000
0000
0100
0000
0000
1000
0001
0000
0100
0001
,
0100
0000
0000
1000
0010
1000
0000
0001
1000
0000
0000
0000
0100
0000
1000
0000
,
0001
0000
0001
0000
0100
0010
0100
0010
1000
0000
0000
0000
1000
0001
0000
0001
,
0000
0100
0010
1000
0010
1000
0001
1000
0100
0000
0100
0000
1000
0000
0000
0000
,
0001
0000
0000
0000
0100
0000
0010
0000
1000
0000
0001
1000
0000
0100
1000
0000
,
0100
1000
0001
0100
0010
0000
0000
0100
0000
0000
0001
0000
0100
0000
0001
1000
,
0010
0000
1000
0001
1000
0000
0100
0000
1000
0000
0001
0000
0101
0000
1000
0000
,
0010
0000
1000
0001
0100
0000
0010
0000
1000
0000
0001
0000
0101
0000
0001
0000
,
0001
0000
1000
0000
1100
0000
0001
0000
0100
0010
1000
0001
1000
0000
0100
0000
,
0100
0000
1100
0000
0001
0000
0100
0001
0100
0010
1000
0000
0100
0000
1000
0000
,
0001
0000
0100
0000
1001
0000
0100
0000
1000
0000
0001
0100
0010
0000
1000
0000
,
0001
0000
1100
0000
0001
0000
0100
0000
0010
1000
0001
1000
0100
0000
0100
0000
,
1000
0001
0100
0001
1000
0010
1000
0010
,
0100
0000
0010
0100
0000
0100
0000
0100
0010
1000
0010
1000
0001
0000
1000
0000
,
0100
0000
1000
0001
0100
0000
0001
1000
0000
1000
0100
1000
0001
0000
0100
0000
,
0010
0000
1000
0000
0010
0000
0100
0010
0000
0100
0010
1000
0001
0000
1000
0000
,
0100
0000
0010
0000
0001
0000
1000
0001
0000
0001
0100
0010
0100
0000
0001
0000
,
1000
0000
1000
0000
0100
0000
1000
0001
0000
0100
0010
1000
0001
0000
0010
0000
,
0100
0000
1000
0000
0001
0000
0100
0001
0000
0010
0001
0100
0010
0000
1000
0000
,
0001
0000
0100
0000
0010
0000
1000
0001
0000
0001
0010
0100
1000
0000
0001
0000
,
0100
0000
0010
0000
1000
0000
0001
0010
0000
0010
0100
1000
0001
0000
0100
0000
,
0010
0000
1000
0000
0001
0000
1000
0001
0000
0001
0100
0001
0100
0000
0010
1000
,
0001
0000
1000
0100
1000
0000
0001
0100
0001
0000
1000
0100
1000
0000
0010
0000
,
0100
0000
0001
0000
0001
0000
0001
0000
1000
0000
0100
0000
1000
0001
0100
0010
,
1000
0000
0001
0000
0001
1000
0000
0100
1000
0000
0001
0000
1000
0010
0100
0001
,
1000
0000
0100
1000
0000
0001
0000
0100
0001
1000
0001
1000
0000
0000
0000
0000
;
