#TITLE:Hot;
#SUBTITLE:;
#ARTIST:Inna;
#TITLETRANSLIT:;
#SUBTITLETRANSLIT:;
#ARTISTTRANSLIT:;
#GENRE:;
#CREDIT:;
#BANNER:Hot.png;
#BACKGROUND:;
#LYRICSPATH:;
#CDTITLE:;
#MUSIC:Inna-Hot.ogg;
#OFFSET:0.193;
#SAMPLESTART:8.250;
#SAMPLELENGTH:13.160;
#SELECTABLE:YES;
#BPMS:0.000=128.000;
#STOPS:194.000=0.030
;
#BGCHANGES:;
#KEYSOUNDS:;

//---------------dance-single - ----------------
#NOTES:
     dance-single:
     :
     Hard:
     8:
     0.509,0.424,0.100,0.200,0.508,424.000,13.000,26.000,0.000,0.000,0.000,0.509,0.424,0.100,0.200,0.508,424.000,13.000,26.000,0.000,0.000,0.000:
0000
0000
0000
0000
1001
0000
1000
0001
,
0010
0100
1000
0001
0100
0000
0010
1000
,
0001
0010
0100
1000
0001
0000
0100
0010
,
1000
0100
0010
0100
1000
0001
0000
0000
,
0000
0000
0000
0000
1001
0000
0001
0100
,
1000
0100
0001
0010
0001
0000
0010
0001
,
1000
0100
0001
0100
1000
0000
0001
0010
,
1000
0010
0001
1000
0010
0100
0000
0000
,
0000
0000
0110
0000
0010
0000
1000
0100
,
0100
0000
0010
0001
0000
1000
0000
0010
0000
0100
0000
0000
0010
0000
1000
0000
,
0001
0000
0010
0100
0000
1000
0000
0001
0000
0100
0000
0010
0000
0000
0010
0000
,
1000
0000
0001
1000
0000
0100
0000
0010
0000
0001
0000
0000
1000
0000
0001
0000
,
0100
0000
0010
1000
0001
0000
1000
0010
,
0100
0000
0010
0100
0000
0010
0000
1000
0000
0001
0000
0000
0010
0000
0100
0000
,
1000
0000
0001
0100
0000
0010
0000
0100
0000
0001
0000
1000
0000
0000
0001
0000
,
0010
0000
0001
0100
0000
0010
0000
1000
0000
0001
0000
1000
0000
0000
0001
0000
,
0000
1000
0000
0001
0000
0000
0000
0001
1000
0000
0001
0000
1000
0000
0000
0000
,
1000
0001
0000
0100
0000
0010
0000
0200
0000
0000
0000
0000
0000
0000
0000
0000
,
0310
0000
1000
0001
0000
0010
0000
0200
0000
0000
0000
0000
0000
0000
0000
0000
,
1300
0001
0000
0100
0000
0010
0000
2000
0000
0000
0000
0000
0000
0000
0000
0000
,
3001
0100
0000
0010
0000
1000
0000
0200
0000
0000
0000
0000
0000
0000
0000
0000
,
1300
0001
0000
0100
0000
0010
0000
0200
0000
0000
0000
0000
0000
0000
0000
0000
,
0310
0000
1000
0001
0000
0010
0000
0200
0000
0000
0000
0000
0000
0000
0000
0000
,
1300
0001
0000
0100
0000
0010
0000
2000
0000
0000
0000
0000
0000
0000
0000
3000
,
0001
0100
0010
2000
0000
0000
0000
0000
,
3100
0000
0010
0001
0000
1000
0000
0020
0000
0000
0000
0000
0000
0000
0000
0000
,
1030
0000
0001
0010
0000
0100
0000
1000
0000
0000
0000
0000
0000
0000
0000
0000
,
0001
0100
0000
0010
0000
0100
0000
0010
0000
0000
0000
0000
0000
0000
0000
0000
,
0010
1000
0000
0001
0000
0010
0000
0100
0000
0000
0000
0000
0000
0000
0000
0000
,
0100
0010
0000
0100
0000
1000
0000
0100
0000
0000
0000
0000
0000
0000
0000
0000
,
1000
0000
0001
0010
0000
1000
0000
0010
0000
0000
0000
0000
0000
0000
0000
0000
,
0001
0100
0000
0010
0000
1000
0000
0100
0000
0000
0000
0000
0000
0000
0000
0000
,
0010
0001
1000
0200
1000
0000
1300
0001
,
0100
0000
0010
0100
0000
0010
0000
1000
0000
0001
0000
0000
0010
0000
0100
0000
,
1000
0000
0100
0010
0000
0001
0000
0100
0000
0010
0000
0100
0000
0000
0001
0000
,
0100
0000
1000
0100
0000
0001
0000
0010
0000
0100
0000
0100
0000
0000
0000
0000
,
1000
0001
0010
0100
2000
0000
3001
0100
,
0010
0000
1000
0001
0000
0010
0000
0100
0000
0010
0000
0100
0000
0000
1000
0000
,
0001
0000
0100
0010
0000
1000
0000
0001
0000
0010
0000
0100
0000
0000
1000
0000
,
0001
0000
0010
0100
0000
0010
0000
0001
0000
1000
0000
0001
0000
0000
1000
0000
,
0000
1001
0000
0000
0110
0000
0000
0000
0110
0000
0000
0000
0010
0000
1000
0000
,
0001
0010
1000
0010
0002
0000
1003
0010
,
0100
0010
1000
0001
0020
0000
0130
1000
,
0001
0100
1000
0100
0001
1000
0000
0001
,
0000
0001
0000
1000
0000
0000
0000
0000
1001
0000
0000
0000
0001
0000
0010
0000
,
1000
0010
0001
0100
0020
0000
1030
0100
,
0001
0100
1000
0001
0200
0000
0310
1000
,
0001
0010
0100
1000
0100
0100
0000
1000
,
0000
0001
0000
1000
0000
0000
0000
0000
1001
0000
0000
0000
1000
0000
0001
0000
,
0100
0000
0000
0010
0000
0010
0000
0010
0000
0000
0000
0000
1000
0000
0001
0000
,
0010
0000
0000
0100
0000
0100
0000
0200
0000
0000
0300
0000
0100
0000
1000
0000
,
0001
0000
0000
1000
0000
0001
0000
0100
0000
0000
0000
0000
0000
0000
0000
0000
,
0000
0000
0000
0000
1001
0000
0001
1000
,
0010
0100
0010
1000
0002
0000
1003
0100
,
0001
0100
1000
0010
0200
0000
0310
1000
,
0001
0010
0100
1000
0001
0001
0000
0001
,
0000
1000
0000
0001
0000
0000
0000
0000
1001
0000
0000
0000
1000
0000
0001
0000
,
0100
0001
0010
0100
2000
0000
3100
0010
,
1000
0010
0001
0100
0020
0000
1030
0001
,
0100
0010
1000
0001
0010
0010
0000
1000
,
0000
0001
0000
1000
0000
0000
0000
0000
1001
0000
0000
0000
0001
0000
0100
0000
,
0010
1000
0001
0010
0200
0000
1300
0001
,
1000
0001
0010
0100
2000
0000
3001
0100
,
0010
1000
0001
0010
0100
1000
0000
1000
,
0000
0001
0000
1000
0000
0000
0000
0000
1001
0000
0000
0000
0001
0000
0010
0000
,
0100
0010
0001
1000
0020
0000
1030
1000
,
0001
0100
0010
1000
0002
0000
1003
0010
,
0100
0001
1000
0010
0100
0100
0100
0001
,
0000
0001
0000
1000
0000
0000
0000
0000
2002
0000
0000
0000
0000
0000
0000
0000
,
3003
0000
0000
0000
;

//---------------dance-single - ----------------
#NOTES:
     dance-single:
     :
     Medium:
     6:
     0.378,0.345,0.177,0.015,0.000,319.000,23.000,2.000,0.000,0.000,0.000,0.378,0.345,0.177,0.015,0.000,319.000,23.000,2.000,0.000,0.000,0.000:
0000
0000
1001
1000
,
0010
0100
0010
0000
0010
0000
1000
0100
,
1000
0000
0001
0000
0101
0000
0010
1000
,
0100
0000
1000
0000
0001
1000
0000
0000
,
0000
0000
0000
0000
1001
0000
0010
0100
,
0001
0000
0001
0000
1100
0000
0001
0100
,
0010
0000
1000
0000
1100
0000
1000
0001
,
0100
0000
0010
0000
0100
0010
0000
0000
,
0000
1001
1000
0100
,
1000
0001
0100
0000
0010
0000
1000
0001
,
0010
0000
0100
0000
1000
0001
0100
0000
,
0010
0010
1000
0001
,
0010
0000
0100
0000
1000
0000
0001
0100
,
0010
0000
1000
0000
0001
0000
1000
0001
,
0100
0000
0001
0000
1000
0000
0100
0010
,
0001
1000
0010
0100
,
0001
1000
1000
0100
,
1000
0001
0100
0000
0010
0000
1000
0000
,
0001
1000
0100
0000
1000
0000
0001
0000
,
0100
0010
1000
0000
0001
0000
1000
0000
,
0001
0100
0001
0000
1000
0000
0100
0000
,
1000
0001
0100
0000
0010
0000
1000
0000
,
0001
0010
0100
0000
1000
0000
0001
0000
,
0100
0010
1000
0000
0001
0000
0100
0000
,
0010
1000
0100
1000
0001
0000
0100
0000
,
0010
1000
0001
0000
0101
0000
0010
0000
,
1000
0001
1000
0000
0100
0000
1000
0000
,
0001
0100
0010
0000
1000
0000
0100
0000
,
1000
0001
0100
0000
0010
0000
1000
0000
,
0001
1000
0100
0000
1000
0000
0001
0000
,
0100
0010
1000
0000
0100
0000
1000
0000
,
0001
0100
0001
0000
1000
0000
0100
0000
,
1000
0001
0100
0010
1000
0000
0100
0000
,
1000
0000
0001
0100
0001
0000
1000
0000
,
0100
0000
1000
0010
0100
0010
1000
0000
,
0100
0000
1000
0001
0100
0000
0010
0000
,
0001
0000
1000
0000
0010
0000
0100
0001
,
1000
0000
0100
1000
0001
0000
0100
0000
,
0010
0000
1000
0001
1000
0100
1000
0000
,
0001
0100
0010
1000
,
0001
1000
0100
0000
1000
0000
0001
0100
,
0001
0000
1000
0000
0100
0000
1000
0001
,
0100
0000
0010
0000
1001
0000
0100
1000
,
0001
0100
0010
1000
,
0001
1000
0100
0000
1000
0000
0001
0100
,
0010
0000
1000
0000
1100
0000
1000
0001
,
0100
0000
0010
0000
1001
0000
1000
0100
,
1000
0000
0001
0000
0100
0010
0000
0000
,
0000
0000
0000
1000
,
0100
1000
0001
0100
,
0010
1000
0001
1000
,
0100
1000
0001
0100
,
0010
0000
1000
0000
1001
0000
0100
1000
,
0001
0000
0101
0000
1100
0000
0010
0100
,
0001
0000
1001
0000
0110
0000
0010
1000
,
0001
1000
0100
0100
,
0010
0000
0001
0000
1000
0000
0010
0100
,
0001
0000
1000
0000
1100
0000
1000
0001
,
0100
0000
0010
0000
1001
0000
0001
0100
,
0010
1000
1100
0000
,
1000
0000
0001
0000
0100
0000
0010
1000
,
0001
0000
1000
0000
0101
0000
0010
1000
,
0100
0000
1000
0000
1001
0000
0010
0100
,
0001
1000
1100
0000
,
0000
0000
0000
0000
1000
0000
0001
0100
,
0010
0000
1000
0000
1001
0000
1000
0010
,
0100
0000
0001
0000
1000
0000
0100
1000
,
0010
0000
0100
0000
0001
1000
0000
0000
,
0000
0000
2002
0000
,
3003
0000
0000
0000
;

//---------------dance-single - ----------------
#NOTES:
     dance-single:
     :
     Easy:
     4:
     0.267,0.239,0.131,0.023,0.000,223.000,17.000,3.000,0.000,0.000,0.000,0.267,0.239,0.131,0.023,0.000,223.000,17.000,3.000,0.000,0.000,0.000:
0000
0000
1000
0010
,
0100
0010
1000
0100
,
1000
0001
0100
0010
,
1000
0000
0001
0000
1000
0001
0000
0000
,
0000
0000
0001
1000
,
0100
1000
0001
0100
,
1000
0100
0010
0001
,
0010
0000
1000
0000
0100
1000
0000
0000
,
0000
0001
0000
0100
,
0010
0010
1000
0100
,
1000
0001
0100
0100
,
0010
1000
0100
1000
,
0000
0000
0001
0100
,
0010
1000
0001
1000
,
0100
0001
0100
1000
,
0001
0100
0010
0000
,
0000
0000
1000
0000
,
0001
0100
0001
0000
,
1000
0100
1000
0000
,
0001
0100
0001
0000
,
0010
0100
0010
0000
,
1000
0100
1000
0000
,
0010
0001
0010
0000
,
0100
0010
0110
0000
,
0010
1000
0001
0000
,
1000
0100
1000
0000
,
0001
0100
0001
0000
,
0001
1000
0010
0000
,
0010
0100
1000
0000
,
1000
0100
0001
0000
,
0001
0010
0100
0000
,
1000
0001
0100
0000
,
0010
1000
0001
0000
,
1000
0100
1000
1000
,
0001
0100
0010
0010
,
1000
0100
1000
0001
,
0200
0000
0000
0310
,
1000
0100
1000
0001
,
0100
0010
1000
0001
,
0010
0100
1000
0001
,
0100
0010
1000
0100
,
1000
0001
0101
0010
,
1000
0100
1001
0100
,
0010
1000
0100
0000
,
0000
0000
1010
0001
,
0100
0010
1010
1000
,
0100
0010
1001
0010
,
0100
0001
1001
0000
,
0000
0000
0000
1000
,
0010
0010
0100
0100
,
0001
1000
0100
1000
,
0001
0100
0010
0000
,
0000
0000
0010
1000
,
0100
0100
0100
1000
,
0001
0100
0100
0010
,
1000
0001
1000
0000
,
0000
0000
0001
0100
,
0010
1000
1100
1000
,
0001
0100
0110
0010
,
1000
0001
1001
0000
,
0000
0000
1000
0001
,
0100
0010
0110
0010
,
1000
0001
0011
1000
,
0100
1000
1001
0000
,
0000
0000
0001
0100
,
0010
1000
1001
1000
,
0100
0010
0011
0001
,
0100
0010
1001
0000
,
0000
0000
2002
0000
,
3003
0000
0000
0000
;
