#TITLE:Elements;
#SUBTITLE:(The Sound of Thunder);
#ARTIST:Jamie Ritmen;
#TITLETRANSLIT:;
#SUBTITLETRANSLIT:;
#ARTISTTRANSLIT:;
#GENRE:;
#CREDIT:;
#BANNER:Elements.png;
#BACKGROUND:;
#LYRICSPATH:;
#CDTITLE:;
#MUSIC:3-28 The Day I Die (Darwin & Entity.ogg;
#OFFSET:0.909;
#SAMPLESTART:40.510;
#SAMPLELENGTH:14.940;
#SELECTABLE:YES;
#BPMS:0.000=179.020;
#STOPS:;
#BGCHANGES:;
#KEYSOUNDS:;

//---------------dance-single - ----------------
#NOTES:
     dance-single:
     :
     Challenge:
     13:
     1.000,1.000,0.618,0.367,1.000,762.000,74.000,44.000,43.000,0.000,0.000,1.000,1.000,0.618,0.367,1.000,762.000,74.000,44.000,43.000,0.000,0.000: // measure 1
0000
0000
0000
0000
,  // measure 2
0000
0000
0000
0000
,  // measure 3
0000
0000
0000
0000
,  // measure 4
0000
0000
0000
0000
,  // measure 5
0000
0000
0000
0000
,  // measure 6
1000
0001
1000
0000
0001
0000
0000
0000
0100
0000
0000
0000
0100
0010
0000
0000
,  // measure 7
1100
0000
0010
0000
0001
0000
1000
0000
0000
0011
0000
0000
,  // measure 8
0010
0000
0100
0000
0010
0000
1000
0000
0000
0110
0000
0000
,  // measure 9
0010
0000
0001
0000
0100
0000
1000
0000
0000
0101
0000
0000
,  // measure 10
0002
0000
2003
0000
3020
0000
0230
0000
0320
2000
0000
3030
,  // measure 11
1000
0000
0100
0000
0010
0000
0011
0000
0000
1001
0000
0000
,  // measure 12
1000
0000
0010
0000
0100
0000
0101
0000
0000
1001
0000
0000
,  // measure 13
1000
0000
0010
0000
0100
0000
1010
0000
0000
1100
0000
0000
,  // measure 14
1000
0100
1000
0100
1000
0000
0100
0000
0100
0010
0000
0000
,  // measure 15
0001
1000
0001
1000
0002
0003
0100
0010
1000
0100
0020
0030
,  // measure 16
0001
1000
0010
1000
0100
0010
0001
0000
0001
2000
0000
3000
,  // measure 17
1100
0000
0110
0000
0011
0000
1000
0010
1000
0010
1000
0010
,  // measure 18
1000
0000
0000
0000
1100
0000
0000
0000
0110
0000
0000
0000
0011
0000
0001
0000
0010
0000
0001
0010
0001
0010
0001
0000
,  // measure 19
0010
0000
0110
0000
1100
0000
1010
1000
0010
1000
0010
1000
,  // measure 20
0010
0100
0010
0100
0000
0000
0010
1000
0010
1000
0000
0000
0001
1000
0001
1000
0000
0000
0001
0000
0100
0000
0010
0000
,  // measure 21
1000
0000
1100
0000
0110
0000
1100
0100
0010
0001
0000
0001
,  // measure 22
1000
0000
0000
0000
1010
0000
0000
0000
0110
0000
0000
0000
0101
0000
0100
0000
0010
0000
1000
0100
1000
0100
1000
0000
,  // measure 23
0010
0000
0110
0000
1001
0000
0110
0010
1000
0001
0000
0001
,  // measure 24
1000
0100
1000
0100
0000
0000
1000
0001
1000
0001
0000
0000
1000
0010
1000
0010
0000
0000
1000
0000
0001
0000
1000
0000
,  // measure 25
0001
0000
0100
0000
0010
0000
1010
0010
0100
0001
0000
0001
,  // measure 26
1001
0000
0000
0000
1100
0000
0000
0000
1010
0000
0000
0000
0110
0000
0010
0000
1000
0000
0100
0010
0100
0010
0100
0000
,  // measure 27
0010
0000
0011
0000
1001
0000
1010
1000
0010
1000
0000
1000
,  // measure 28
0100
0000
0010
0000
0002
0000
1003
0000
0000
0000
0000
0000
1000
0001
1000
0000
0010
0000
0100
0000
0010
0100
0010
0000
,  // measure 29
1000
0000
1100
0000
0110
0000
1100
1000
0001
0100
0000
0010
,  // measure 30
0110
0000
0000
0000
1010
0000
0000
0000
1100
0000
0000
0000
1001
0000
1000
0000
0001
0000
1000
0100
1000
0100
1000
0000
,  // measure 31
0100
0000
0000
0000
0010
0000
0000
0000
0001
1000
0001
0000
1000
0000
0010
0000
0100
0000
0010
0000
0000
0000
0010
0000
,  // measure 32
1000
0100
1000
0100
1000
0000
0100
1000
0100
1000
0100
0000
0010
0001
0010
0001
0010
0001
0010
0000
0001
0000
2000
0000
,  // measure 33
0020
0000
0000
0000
,  // measure 34
0000
0000
0000
0000
0000
3000
1030
0010
1000
0010
1000
MMMM
,  // measure 35
0000
0M00
M000
00M0
0000
000M
0M00
0000
M000
0000
00M0
0000
,  // measure 36
0M00
0000
000M
00M0
0M00
0000
M000
000M
M000
0M00
0000
M00M
,  // measure 37
0000
00M0
0000
0MM0
000M
M000
0000
M0M0
0000
000M
M000
0M00
,  // measure 38
00M0
0000
000M
0M00
0000
M00M
0000
00M0
0000
M000
0000
000M
,  // measure 39
1000
0000
0000
0000
0001
0000
0000
0000
0100
0000
0000
0000
0010
1000
0010
1000
0010
1000
0010
0100
0010
0100
0010
0100
,  // measure 40
0010
0000
0000
0000
1000
0000
0000
0000
0001
0000
0000
0000
1000
0100
1000
0100
1000
0100
1000
0000
0000
0001
1000
0001
,  // measure 41
1000
0000
0000
0000
0001
0000
0000
0000
0100
0000
0000
0000
0010
1000
0010
1000
0010
1000
0010
0100
0001
0100
0001
0100
,  // measure 42
0001
0000
0000
0000
0100
0000
0000
0000
1000
0000
0000
0000
0100
0001
0100
0001
0100
0001
0100
0000
0000
0001
0100
0010
,  // measure 43
1000
0000
0000
0000
0010
0000
0000
0000
0100
0000
0000
0000
0010
1000
0010
1000
0010
1000
0100
0010
0001
0010
0001
0010
,  // measure 44
0001
0000
0000
0000
1000
0000
0000
0000
0010
0000
0000
0000
0100
0010
0100
0010
0100
0010
0100
0000
0000
0001
0100
0001
,  // measure 45
0100
0000
0001
0000
0100
0000
0010
0000
1000
0000
0000
0000
1000
0100
1000
0100
1000
0100
1000
0100
1000
0100
1000
0100
,  // measure 46
1000
0000
0000
0000
0100
0000
0000
0000
0010
0000
0000
0000
0001
0010
0001
0100
0010
0000
1000
0000
0000
0000
1000
0010
,  // measure 47
1000
1000
1100
0100
,  // measure 48
0110
0010
0011
0001
,  // measure 49
1001
1000
1010
0010
,  // measure 50
0110
0010
1001
1000
,  // measure 51
1100
0010
0011
1000
,  // measure 52
1100
0000
0100
0010
0000
0000
0011
0000
0000
0001
0000
0000
,  // measure 53
0101
0000
0000
1010
0000
0000
1100
0000
0010
0001
0000
0000
,  // measure 54
0001
0000
1000
0010
1000
0100
0110
0000
0000
1001
0000
0000
,  // measure 55
1000
0000
0010
0000
0100
0000
0010
1000
0001
0100
0000
0010
,  // measure 56
1000
0000
0100
0000
0010
0000
0001
1000
0001
2000
3200
2300
,  // measure 57
3002
0003
1001
0000
1100
0000
1001
0001
0100
0010
0000
0010
,  // measure 58
1000
0100
1000
0100
0000
0000
0100
0010
0100
0010
0000
0000
0010
0001
0010
0001
0010
0000
0001
0000
1000
0000
0010
0000
,  // measure 59
0100
0000
0010
0000
1000
0000
0001
0010
1000
0010
0000
0001
,  // measure 60
0200
0000
0300
0000
0020
0000
0030
0000
2000
0000
3000
0000
0100
0000
0010
0000
0001
0000
1000
0001
1000
0001
1000
0001
,  // measure 61
0200
0300
0200
0300
0002
0003
0002
0203
0320
0230
0300
0001
,  // measure 62
0010
0001
0010
0001
0010
0001
0010
0001
0010
0001
0010
0001
0010
0000
0001
0000
0010
0000
0001
0000
0100
0000
1000
0000
,  // measure 63
0100
0000
0001
0000
1000
0000
0001
1000
0100
0010
0000
0001
,  // measure 64
1000
0000
0000
0000
0200
0000
0300
0000
1000
0000
0000
0000
1000
0000
0001
0000
0100
0000
0010
1000
0010
1000
0010
1000
,  // measure 65
0010
0000
2000
3000
0200
0300
0010
0100
1000
0001
0000
0001
,  // measure 66
0100
0010
0100
0010
0000
0000
0010
1000
0010
1000
0000
0000
1000
0000
0100
0010
0001
0000
1000
0000
0001
0000
1000
0000
,  // measure 67
0001
0000
1000
0000
0001
0000
0100
0010
1000
0001
0000
1000
,  // measure 68
0002
0000
0003
0000
2000
0000
3000
0000
0020
0000
0030
0000
0100
0000
0010
0000
1000
0000
0100
0010
0100
0010
0001
0000
,  // measure 69
1000
0000
0020
0030
0200
0300
0010
1000
0100
0010
0000
0001
,  // measure 70
1001
0000
1000
0001
0100
1000
0100
0001
0010
1000
0010
0001
,  // measure 71
1000
0000
0010
0100
0001
1000
0100
0010
0001
1000
0100
0010
,  // measure 72
0001
0010
0100
1000
0001
0010
0100
1000
0001
0100
0010
1000
,  // measure 73
0001
0100
0010
1000
0010
0100
0001
1000
0010
0100
0001
0100
,  // measure 74
0010
1000
0100
0010
0001
1000
0100
0010
0001
0010
0100
1000
,  // measure 75
1001
0000
1001
0000
1001
0000
1001
0000
1000
0100
0000
0010
,  // measure 76
0001
0000
0000
0000
0001
0000
0000
0000
1000
0000
0000
0000
0010
0000
1000
0000
0100
0000
0010
0001
0010
0001
0010
0000
,  // measure 77
0001
0000
1000
0000
0002
0003
0100
0000
0000
0110
0000
0010
,  // measure 78
1000
0100
1000
0100
0000
0000
1000
0001
1000
0001
0000
0000
1000
0010
1000
0010
0000
0000
1000
0000
0001
0000
0100
0000
,  // measure 79
0010
0000
1000
0000
0001
0000
0100
0000
0010
1000
0000
1000
,  // measure 80
0200
0300
0200
0300
0200
0300
0100
0000
0010
0001
2000
3002
,  // measure 81
1003
0000
0100
0000
0010
0000
0001
1000
0010
0100
0000
0010
,  // measure 82
1000
0100
1000
0100
0000
0000
0100
0010
0001
0010
0000
0000
0001
0100
0002
0103
0000
0000
0001
0000
1000
0000
0010
0000
,  // measure 83
0100
0010
0100
0000
0000
0000
0110
0000
0010
1000
0000
0010
,  // measure 84
1000
0000
0000
0000
1000
0000
0000
0000
1000
0000
0000
0000
0001
0000
0100
0000
0001
0000
0100
0001
0100
0000
0000
0000
,  // measure 85
0010
0000
1000
0000
0010
0000
0100
0000
0000
0010
0000
1000
,  // measure 86
0100
1000
0100
1000
0000
0000
0001
0100
0001
0100
0000
0000
0010
1000
0010
1000
0000
0000
0001
0000
0010
0000
0001
0000
,  // measure 87
0020
0000
0000
0000
0000
0000
0031
0000
1000
0001
0000
0001
,  // measure 88
1001
0000
0110
0000
1001
0000
0110
0000
0010
1000
0000
0000
,  // measure 89
1001
0000
1000
0200
0320
0030
0001
1000
0010
0100
0000
0010
,  // measure 90
1000
0100
1000
0100
0000
0000
1000
0001
1000
0001
0000
0000
1000
0010
1000
0010
0000
0000
1000
0000
0010
0000
0100
0000
,  // measure 91
MMMM
0000
0000
0000
;
