#TITLE:Drill Instructor 2;
#SUBTITLE:;
#ARTIST:Captain Jack;
#TITLETRANSLIT:;
#SUBTITLETRANSLIT:;
#ARTISTTRANSLIT:;
#GENRE:;
#CREDIT:;
#BANNER:Drill Instructor 2.png;
#BACKGROUND:;
#LYRICSPATH:;
#CDTITLE:;
#MUSIC:03 - Drill Instructor 2.ogg;
#OFFSET:-1.741;
#SAMPLESTART:37.990;
#SAMPLELENGTH:13.200;
#SELECTABLE:YES;
#BPMS:0.000=115.010;
#STOPS:;
#BGCHANGES:;
#KEYSOUNDS:;

//---------------dance-single - ----------------
#NOTES:
     dance-single:
     :
     Hard:
     8:
     0.513,0.565,0.355,0.065,0.156,437.000,49.000,9.000,0.000,0.000,0.000,0.513,0.565,0.355,0.065,0.156,437.000,49.000,9.000,0.000,0.000,0.000:
0000
0000
0000
0000
,
1000
0001
1000
0001
0000
1000
0001
0000
1000
0010
0100
0001
0000
0010
0100
0000
,
1000
0001
0100
0010
0000
1000
0100
0000
0010
0001
0010
0001
0000
0100
0010
0000
,
1000
0010
1000
0010
0000
0100
0010
0000
0100
0001
0010
0100
0000
1000
0001
0000
,
0100
1000
0100
0010
0000
1000
0010
0000
1000
0100
0010
0001
0000
0100
1000
0000
,
0001
0010
1000
0100
0000
0010
0001
0000
0100
0010
1000
0100
0000
0010
0001
0000
,
0100
0010
1000
0100
0000
0010
0001
0000
0100
0010
1000
0100
0000
0010
0001
0000
,
0100
1000
0100
0010
0000
1000
0000
0001
1000
0000
0010
0000
0100
0000
0010
0000
,
1010
1010
1010
1010
0010
0100
0001
0010
,
1100
1100
1100
1100
1000
0010
0100
0001
,
1010
1010
1010
0000
0001
0100
0010
1000
,
1100
1100
1100
0000
1000
0010
0100
0001
,
0011
0011
0011
0011
0100
1000
0010
0100
,
1001
1001
1001
1001
0010
0100
0001
0010
,
0100
1000
1100
0000
0010
0100
0001
0010
,
0100
1000
1100
0000
0010
0010
0010
0001
,
1000
0001
1000
0000
1000
1000
1000
0010
,
0100
0001
1000
0000
0001
0000
1000
0000
,
0010
0100
0101
0000
0010
1000
0100
1000
,
0100
1000
1000
0000
0001
0001
0001
0100
,
0010
1000
0100
0000
0100
0100
0100
1000
,
0010
0100
0001
0000
0001
0000
1000
0000
,
0010
0100
0101
0000
0010
1000
0100
1000
,
0001
0100
0110
0000
0010
1000
0001
0100
,
1000
0100
0000
0010
1000
0100
0010
0001
,
0100
0010
1000
0100
1000
0100
1100
0000
,
0000
0001
0100
0010
1000
0100
1100
0000
,
1000
0001
0100
0000
0010
1000
0100
1000
,
0001
0100
0000
1000
0100
0010
0001
0010
,
1000
0100
1000
0001
0100
0010
1010
0000
,
0000
0010
1000
0100
1000
0001
0101
0000
,
0010
1000
0100
0000
0200
0000
0000
0000
,
0010
0010
0320
0000
,
0000
0000
0032
0000
,
0100
0100
0203
0000
,
0000
0000
0010
0000
0010
0000
0010
0000
0310
1000
0010
1000
0000
1000
0100
0000
,
0000
0000
0000
0000
1000
0001
0100
0010
,
1010
1010
1010
1010
0010
0100
0001
0010
,
1100
1100
1100
1100
1000
0010
0100
0001
,
0010
0100
1000
0000
1000
0010
0100
0001
,
0010
0100
1000
0000
1000
0010
0100
0001
,
1001
1001
1001
1001
1000
0010
0100
0001
,
0110
0110
0110
0110
0010
0001
0100
1000
,
0001
0010
1000
0000
1000
0100
0001
1000
,
0010
0001
1000
0000
0010
0010
0010
1000
,
0001
0100
0001
0000
1000
1000
1000
0001
,
0100
0010
1000
0000
0001
0000
1000
0000
,
0010
1000
1100
0000
1000
0010
0100
0001
,
0100
0010
1000
0000
0010
0010
0010
1000
,
0100
0010
0001
0000
0100
0100
0100
0010
,
1000
0100
0010
0000
0001
0000
1000
0000
,
0010
0100
0001
0000
1000
0010
0100
0001
,
1000
0100
1000
0000
0001
1000
0001
0100
,
0010
1000
0000
0100
1000
0001
0100
1000
,
0001
0010
1000
0100
1000
0001
0100
0000
,
0000
0100
0010
1000
0100
1000
0001
0000
,
0001
0000
0100
0000
0010
1000
0100
1000
,
0001
1000
0000
1000
0010
0100
0001
0010
,
0100
1000
1000
0010
0100
0001
1000
0000
,
0000
1000
0010
0100
0001
0010
1100
0000
,
0000
1000
0020
0000
,
0100
0100
0230
0000
,
0000
0000
0000
0000
0020
0300
0000
0000
,
1000
0000
1000
0000
2000
0030
0000
0000
,
0100
0100
0100
0100
0200
0000
0000
3300
;

//---------------dance-single - ----------------
#NOTES:
     dance-single:
     :
     Medium:
     5:
     0.338,0.283,0.029,0.131,0.047,304.000,4.000,18.000,0.000,0.000,0.000,0.338,0.283,0.029,0.131,0.047,304.000,4.000,18.000,0.000,0.000,0.000:
0000
0000
0000
0000
,
1000
0000
0000
0010
0000
0000
0100
0000
0010
0000
0000
1000
0000
0000
0100
0000
,
1000
0000
0000
0001
0000
0000
0100
0000
0010
0000
0000
0010
0000
0000
1000
0000
,
0100
0000
0000
0010
0000
0000
0001
0000
0100
0000
0000
0010
0000
0000
1000
0000
,
0100
0000
0000
1000
0000
0000
0001
0000
0100
0000
0000
0010
0000
0000
1000
0000
,
0001
0000
0000
0010
0000
0000
0100
0000
1000
0000
0000
0001
0000
0000
0100
0000
,
0010
0000
0000
1000
0000
0000
0100
0000
1000
0000
0000
0001
0000
0000
0100
0000
,
0010
0000
0000
1000
0000
0000
0001
0000
0100
0000
0000
0000
0010
0000
0000
0000
,
0010
1000
0010
0000
0100
0000
0001
0000
,
0100
0001
0100
0000
0010
0000
1000
0000
,
0100
1000
0100
0000
1000
0000
0001
0000
,
0100
0001
0100
0000
0010
0000
1000
0000
,
0001
0100
1000
0000
0100
0000
0001
0000
,
0010
1000
0010
0001
0100
0000
0010
0000
,
1000
0010
1000
0000
0010
0000
0100
0000
,
0001
0100
0001
0000
1000
0000
1000
0000
,
0100
0100
0100
0000
1000
0000
0001
0000
,
0100
0100
0100
0000
0010
0000
1000
0000
,
0001
0100
0010
1000
,
0100
0100
0100
0000
1000
1000
1000
0000
,
0001
0000
0100
0000
0010
0010
0010
0000
,
0100
1000
0101
1010
,
0010
0000
1000
0000
0100
0100
0100
0000
,
0010
0000
0001
0000
0001
0000
0100
0010
,
0000
1000
0001
0000
0100
0001
0000
1000
,
0100
0000
1000
0001
0100
0000
0001
1000
,
0100
0000
1000
0001
0100
0000
0001
1000
,
0100
0000
1000
0000
0010
0000
0100
0001
,
0000
1000
0100
1000
0000
0010
0100
0001
,
0000
0001
1000
0100
0000
1000
0001
0000
,
0100
0000
0010
0000
1000
0001
0100
0000
,
0001
0010
0200
0000
,
2300
0000
0000
0000
0002
3000
0000
0000
0203
0000
0000
0000
0000
0000
0000
0000
,
0000
0000
0320
0000
,
2030
0000
0000
0000
0002
3000
0000
0000
0200
0000
0000
0003
0000
0000
0000
0000
,
0000
0310
1000
0100
2000
0000
0000
0000
,
0000
3000
1000
0010
,
0100
0010
0100
0000
0010
0000
1000
0000
,
0100
1000
0100
0000
1000
0000
0001
0000
,
0010
0001
0010
0000
0100
0000
1000
0000
,
0001
0100
1000
0000
0100
0000
0010
0000
,
1000
0001
0010
0000
0100
0000
1000
0000
,
0100
0100
0100
0000
1000
0000
0001
0000
,
0100
0010
1000
0000
0001
0000
0010
0000
,
0100
1000
0001
0000
0001
0001
0001
0000
,
0100
0000
0010
0000
1000
1000
1000
0000
,
0100
0010
1001
0110
,
0010
0010
0010
0000
1000
0000
0001
0000
,
0100
0100
0100
0000
0010
0010
0010
0000
,
1000
0000
0100
0000
0100
0100
0100
0000
,
0010
0001
0100
0010
,
0010
1000
1000
0000
0001
0100
0100
0000
,
0010
1000
1000
0000
0001
0000
0100
0010
,
0000
0010
1000
0000
0001
0100
0000
0010
,
1000
0001
0000
0001
0010
0000
0100
0000
,
0000
1000
0001
0000
0100
0000
0010
0000
,
1000
0001
0010
0100
,
1000
0001
0000
0100
0010
0000
0010
1000
,
0000
0001
0010
0000
0100
1000
0001
0000
,
0000
0100
0000
0010
1000
0000
0001
0000
,
0100
0010
0020
0000
,
2030
3200
0320
0000
,
0000
0000
0032
0000
,
2003
3020
0230
0000
,
0000
0310
1000
0100
2000
0000
0000
0000
,
0000
3000
0000
0000
0000
0000
0000
0000
0000
0000
0000
0000
0000
0000
0000
0000
;

//---------------dance-single - ----------------
#NOTES:
     dance-single:
     :
     Easy:
     4:
     0.287,0.377,0.464,0.152,0.000,192.000,64.000,21.000,0.000,0.000,0.000,0.287,0.377,0.464,0.152,0.000,192.000,64.000,21.000,0.000,0.000,0.000:
0000
0000
0000
0000
,
1000
0000
0010
0000
,
0100
0000
0001
0000
,
0010
0000
0100
0000
,
1000
0000
0010
0000
,
0100
0000
0001
0000
,
1000
0000
0100
0000
,
0010
0000
0001
1000
,
1000
1000
0001
0001
,
0100
0100
0010
0010
,
1000
0100
1000
0001
,
0100
0010
1000
0000
,
0001
0000
0100
0010
,
1000
1000
0100
0000
,
1000
0000
0010
0000
,
0100
0000
0101
0101
,
1100
1100
1010
1010
,
0011
0011
0101
1010
,
1100
0011
0101
0110
,
1001
1100
0101
0101
,
1010
1010
1100
1100
,
0101
0101
0011
0110
,
1100
1001
0101
1010
,
1001
1100
0001
0100
,
0100
0000
1000
0000
,
0010
0000
1000
0000
,
0001
0000
0100
0010
,
0000
0010
1000
0000
,
0001
0000
0100
0010
,
1000
0000
0001
0000
,
0100
0000
0010
1000
,
0000
0001
0200
0000
,
0320
2030
3002
0000
,
0000
0000
0203
0000
,
0320
2030
3200
0000
,
0320
0000
0002
0000
,
0033
0000
1000
0010
,
0010
1000
0100
0010
,
0001
0100
0100
0010
,
1000
0100
1000
0001
,
0100
0010
1000
0000
,
0001
0000
0000
0100
0100
0000
0000
0000
,
0100
0000
1000
0000
,
0001
0000
0010
1000
,
0100
0000
1001
1001
,
0110
0110
1010
1010
,
0101
0101
0011
1100
,
1010
0110
0101
1001
,
1100
1001
1010
0110
,
0101
0011
0110
1100
,
1001
0101
1010
1001
,
0011
0110
1100
1001
,
0101
0000
1010
0000
0020
0030
0010
0000
,
1000
0000
0001
0100
,
0100
0000
0010
0010
,
0000
1000
1000
1000
,
0000
0000
0001
0100
,
0010
0000
1000
0001
,
1000
0010
0100
0001
,
0000
1000
0001
0100
,
0000
0000
2000
0000
,
3002
0203
0320
0000
,
0000
0000
2030
0000
,
3002
0203
0320
0000
,
2030
0000
0002
0000
,
3003
0000
0000
0000
;
