#TITLE:Dream A Dream;
#SUBTITLE:(Sy & Unknown Remix);
#ARTIST:Captain Jack;
#TITLETRANSLIT:;
#SUBTITLETRANSLIT:;
#ARTISTTRANSLIT:;
#GENRE:;
#CREDIT:;
#BANNER:DREAM A DREAM.png;
#BACKGROUND:;
#LYRICSPATH:;
#CDTITLE:;
#MUSIC:01-captain_jack-dream_a_dream-(sy_and_unknown_remix).ogg;
#OFFSET:-1.034;
#SAMPLESTART:33.490;
#SAMPLELENGTH:13.160;
#SELECTABLE:YES;
#BPMS:0.000=170.000;
#STOPS:;
#BGCHANGES:;
#KEYSOUNDS:;

//---------------dance-single - ----------------
#NOTES:
     dance-single:
     :
     Hard:
     9:
     0.625,0.597,0.399,0.189,0.058,560.000,59.000,28.000,0.000,1.000,0.000,0.625,0.597,0.399,0.189,0.058,560.000,59.000,28.000,0.000,1.000,0.000:
0000
0000
0000
0000
,
0000
0000
0000
0000
,
1001
0000
0110
0000
0002
0100
0103
0000
,
0010
0000
1000
0000
0002
0100
0103
0000
,
1001
0000
0110
0000
0020
1000
1030
0000
,
0100
0000
0010
0000
0002
1000
1003
0000
,
0110
0000
1001
0000
2000
0100
3100
0000
,
0010
0000
0001
0000
2000
0010
3010
0000
,
0010
0100
0001
0010
,
0100
1000
0001
0100
,
0010
1000
0001
0100
,
0010
1000
0001
1000
,
0001
0100
0001
0100
0001
0100
0001
0100
,
0010
0100
0010
0100
0010
0100
0010
0100
,
0010
1000
0010
1000
0010
1000
0010
1000
0010
1000
0010
1000
0010
1000
0010
2000
,
0000
0000
0000
0000
,
3001
0100
1000
0100
0001
0001
0001
0000
,
1000
0100
1000
1000
0001
0100
0001
1000
,
0010
0100
0001
0010
0100
0100
0100
0000
,
1000
0001
0100
0010
1000
1000
1000
0100
,
0010
0001
1000
0010
0100
0001
1000
0100
,
0010
0100
1000
0001
0100
0010
2000
3100
,
0010
0001
0100
0010
1000
0100
0010
0100
,
1000
0001
0100
0010
2000
0000
0000
0000
,
3001
0010
0100
1000
0001
0100
0010
0000
,
0010
1000
0001
0000
0001
0010
0100
0000
,
1000
0010
0100
0001
0010
0100
1000
0010
,
0001
0010
1000
0100
0020
0000
0030
0000
,
0001
0100
0010
0100
0001
0010
0100
0000
,
1000
0001
0010
0000
0010
0001
1000
0000
,
1000
0100
0001
0100
1000
0010
0100
0001
,
0100
1000
0100
0001
0020
0000
1031
0000
,
0010
1000
0001
0010
0100
1000
0001
0000
,
1000
0001
1000
0000
0001
1000
0001
0000
,
1000
0100
0001
0100
1000
0001
0100
1000
,
0100
0001
0010
0100
2000
0000
3000
0000
,
0001
0100
0010
0100
0001
0010
1000
0000
,
1000
0010
0001
0000
0001
0100
0010
0000
,
0010
1000
0001
0100
0010
1000
0100
0010
,
0001
1000
0010
0100
0020
0000
0030
0000
,
0110
0000
0010
0000
1000
0100
1000
0000
,
0001
0100
0000
0010
1000
0001
0010
0000
,
0110
0000
0100
0000
1000
0001
0100
0000
,
0010
1000
0001
0000
0010
0100
1000
0000
,
1001
0000
0001
0000
0100
0001
0010
0000
,
0010
0100
0000
0010
0100
0010
0001
0000
,
1001
0000
0001
0000
0100
0010
1000
0000
,
1001
0000
0001
0000
0000
0000
1000
0000
0000
0000
0001
0000
0000
0000
1000
0100
,
1000
0001
0011
1000
0001
0000
0000
0101
,
0000
0001
1000
0010
0100
0000
0001
0010
,
1000
0010
0001
0100
0010
0000
0000
0110
,
0000
0010
1000
0001
0010
0000
0100
0100
,
0010
0001
1000
0100
0001
0000
0000
1100
,
0000
0100
1000
0001
0100
0000
0010
0010
,
0100
1000
0100
0001
0010
0000
0000
0011
,
0000
0001
1000
0010
0010
0000
0000
0000
,
0010
1000
0001
0010
0100
0000
0000
0110
,
0000
0001
1000
0010
0100
0000
0010
0010
,
0100
0001
0010
0100
1000
0000
0000
1100
,
0000
1000
0001
0100
0010
0000
0100
0100
,
0010
1000
0100
0001
0100
0000
0000
1100
,
0000
1000
0001
0100
0010
0000
0100
0100
,
0010
0010
0000
0000
0000
0000
0000
0000
,
0010
0000
1000
0001
0000
1000
0001
1000
0002
0000
0000
0000
0000
0000
0000
0000
,
2003
0000
0000
0000
,
3002
0000
0000
0000
,
0203
0000
0000
0000
,
0320
0000
0000
0000
,
2030
0000
0000
0000
,
3002
0000
0000
0000
,
0023
0000
0000
0000
,
0230
0000
0000
0000
,
1300
0000
0001
0000
0100
0000
0010
1000
,
0001
0100
1000
0100
0001
0000
0001
0010
,
1000
0010
0001
1000
0001
0000
0001
0100
,
0001
1000
0100
0100
0000
0000
0000
0000
,
1001
0000
1100
0000
0101
0000
0001
0100
,
1000
0100
0001
0010
0100
0000
1000
0100
,
0010
0001
1000
0100
0010
0000
0001
0100
,
0010
0000
1000
0000
0100
0000
0100
0000
0010
0001
0010
0000
0011
0000
0000
0000
,
0001
1000
0010
0010
0000
0100
0100
0100
,
0010
1000
1000
0001
1000
0000
1000
0001
,
1000
0010
0100
0010
0100
0000
0010
1000
,
0001
0010
1000
0010
0000
0000
0000
0000
,
0002
0000
1003
1000
0000
0001
0100
0010
,
0100
0001
0010
0100
1000
0001
0100
0010
,
1000
1000
0100
0100
0010
0010
0001
1001
,
0000
0001
1000
0000
0110
0000
1001
0000
,
1010
0000
0101
0000
0011
0000
0100
1000
,
0000
1000
0001
0000
0101
0000
0110
0010
,
0100
0000
1010
0000
1100
0000
1000
0001
,
0000
0000
0010
0000
0100
0000
0000
0000
2100
0000
0000
0000
3000
0000
0000
0001
,
0100
0000
0110
0000
1010
0000
0100
1000
,
0000
0000
0001
0000
0100
0000
0000
0000
1010
0000
0000
0000
1001
0000
0000
0001
,
1000
0000
1100
0000
0011
0000
0001
0100
,
0000
0000
0010
0000
0100
0000
0000
0000
0220
0000
0000
0000
0330
0000
0000
0010
,
0100
0000
0110
0000
1010
0000
1000
0100
,
0000
0100
1000
0000
1001
0000
0101
0000
,
0110
0000
1010
0000
1100
0000
1000
0001
,
0000
0000
0010
0000
0100
0000
0000
0000
0220
0000
0000
0000
0330
0000
0000
0010
,
0100
0000
0101
0000
0011
0000
0010
0100
,
0000
0010
0100
0000
1100
0000
1001
0000
,
0011
0000
0110
0000
1100
0000
1000
0001
,
0000
1000
0001
0000
0110
0000
1001
0000
;

//---------------dance-single - ----------------
#NOTES:
     dance-single:
     :
     Medium:
     6:
     0.385,0.421,0.068,0.108,0.000,372.000,10.000,16.000,0.000,0.000,0.000,0.385,0.421,0.068,0.108,0.000,372.000,10.000,16.000,0.000,0.000,0.000:
0000
0000
0000
0000
,
0000
0000
0000
0000
,
1000
0000
0010
0000
0200
0000
0000
0300
,
0010
0000
1000
0000
0200
0000
0000
0300
,
1000
0000
0001
0000
0200
0000
0000
0300
,
0010
0000
1000
0000
0200
0000
0000
0300
,
1000
0000
0001
0000
0200
0000
0000
0300
,
0010
0000
1000
0000
0200
0000
0000
0300
,
1000
0001
0100
0010
,
1000
0001
1000
0100
,
1000
0001
0100
0010
,
1000
0001
0010
0100
,
1000
0001
1000
0000
0001
0100
0001
0000
,
1000
0010
1000
0000
0010
0100
0010
0000
,
1000
0001
1000
0001
1000
0001
1000
0001
,
2000
0000
0000
0000
0000
0000
0000
3000
,
0100
0000
1000
0000
0001
0100
0001
0000
,
1000
0000
0010
0000
0100
0010
0100
0010
,
0100
0000
0010
0000
1000
0100
1000
0000
,
1000
0000
0001
0000
0100
0001
0100
0000
,
0010
0000
1000
0000
0100
1000
0100
0000
,
1000
0001
0100
0000
0100
0001
0100
0000
,
0010
1000
0100
1000
,
0002
0000
0000
0000
0000
0000
0000
0003
,
1000
0000
0010
0000
0100
0010
0100
0000
,
0001
0100
0001
0000
1000
0100
1000
0000
,
1000
0000
0001
0000
0100
0010
1000
0000
,
0100
1000
0100
0000
1001
0000
0000
0000
,
0010
0000
0100
0000
0001
1000
0001
0000
,
1000
0010
1000
0000
0010
0100
0010
0000
,
0100
0000
0001
0000
1000
0100
1000
0000
,
0001
0000
0100
0010
0100
0000
0000
0000
,
0010
0000
1000
0000
0100
1000
0100
0000
,
1000
0001
1000
0000
1000
0010
1000
0000
,
0010
0000
0100
0000
0001
0100
0001
0000
,
1000
0000
0010
1000
0010
0000
0000
0000
,
0010
0000
0100
0000
0001
1000
0001
0000
,
1000
0000
0010
0000
0100
0010
0100
0000
,
0001
0000
1000
0000
0100
1000
0100
0000
,
1000
0010
0100
0000
,
0010
0000
1000
0100
,
0000
1000
0000
0000
0001
0000
0100
0000
,
0110
0000
0010
1000
,
0000
0001
0000
0000
0100
0000
0010
0000
,
1001
0000
0100
1000
,
0000
0001
0000
0000
0100
0000
0010
0000
,
0100
0000
0010
1000
,
0000
0100
0000
1000
0000
0001
0000
0100
,
0010
0000
1000
0000
0100
0000
0000
1000
,
0000
0001
0100
0010
,
1000
0000
0100
0000
1000
0000
0000
0001
,
0000
0100
0010
1000
,
0001
0000
1000
0000
0010
0000
0000
0100
,
0000
0010
1000
0001
,
1000
0000
0100
0000
1000
0000
0000
0001
,
0000
0100
0010
0000
,
0010
0000
1000
0000
0001
0000
0000
1001
,
0000
0010
0100
0001
,
1000
0000
0100
0000
1000
0000
0000
1001
,
0000
0010
0100
0001
,
1000
0000
0100
0000
0010
0000
0000
1001
,
0000
0010
0100
0001
,
1000
0000
0000
0000
,
0001
1000
0010
0000
,
0020
0000
0000
0000
,
2030
0000
0000
0000
,
3002
0000
0000
0000
,
0203
0000
0000
0000
,
0320
0000
0000
0000
,
2030
0000
0000
0000
,
3200
0000
0000
0000
,
2300
0000
0000
0000
,
3001
0100
0010
0000
,
0010
1000
1100
0000
,
1000
0001
0101
0000
,
0010
0000
1000
0100
0000
0100
1000
0000
,
1000
0001
0100
0000
,
0010
1000
0100
0000
,
1000
0001
0100
0000
,
0010
0000
1000
0000
0001
1000
0001
0000
,
0100
0010
0000
0010
,
1000
0100
1000
0001
,
0100
0000
0010
0000
1000
0000
0001
1000
,
0000
1000
0001
0100
0010
0000
0000
0000
,
0010
1000
0100
1000
,
0001
0100
0010
1000
,
0001
0100
0001
0100
0001
0100
0001
0100
,
0000
0001
1000
0000
0100
0000
0000
0000
,
1000
0000
0100
0000
1000
0000
0000
0001
,
0000
0100
0010
1000
,
0100
0000
1000
0000
0001
0000
0000
0100
,
0000
0010
1000
0000
,
0001
0000
0100
0000
0010
0000
0000
1000
,
0000
0010
0100
0001
,
1000
0000
0100
0000
1000
0000
0000
0001
,
0000
0100
0010
0000
,
0010
0000
1000
0000
0100
0000
0000
1000
,
0000
0001
0100
0010
,
1000
0000
0100
0000
1000
0000
0000
0001
,
0000
0100
0010
0000
,
0010
0000
1000
0000
0100
0000
0000
1000
,
0000
0001
0100
0010
,
1000
0100
1000
0001
,
1000
0010
0110
1001
;

//---------------dance-single - ----------------
#NOTES:
     dance-single:
     :
     Easy:
     3:
     0.280,0.281,0.027,0.135,0.000,266.000,4.000,20.000,0.000,0.000,0.000,0.280,0.281,0.027,0.135,0.000,266.000,4.000,20.000,0.000,0.000,0.000:
0000
0000
0000
0000
,
0000
0000
0000
0000
,
1000
0000
0010
0000
0200
0000
0000
0300
,
0010
0000
1000
0000
0200
0000
0000
0300
,
1000
0000
0001
0000
0200
0000
0000
0300
,
0010
0000
1000
0000
0200
0000
0000
0300
,
1000
0000
0001
0000
0200
0000
0000
0300
,
0010
0000
1000
0000
0200
0000
0000
0300
,
1000
0001
0100
0010
,
1000
0001
1000
0100
,
1000
0001
0100
0010
,
1000
0001
0010
0100
,
1000
0001
0100
1000
,
0100
0001
0010
0100
,
1000
0001
0100
0010
,
2002
0000
0000
0000
0000
0000
0000
3003
,
1000
1000
1000
0000
,
0001
0001
0001
0000
,
0100
0100
0100
0000
,
0010
0010
0010
0000
,
1000
0100
0000
1000
,
0000
0001
0000
0100
,
0000
0010
1000
0100
,
2002
0000
0000
3003
,
1000
1000
1000
0000
,
0001
0000
0100
0000
,
0010
1000
0001
0000
,
0100
0010
1000
0000
,
0001
1000
0100
0000
,
1000
0000
0001
0000
,
0100
0010
1000
0000
,
0001
1000
0001
0000
,
0100
0010
1000
0000
,
0001
0000
0100
0000
,
0001
1000
0100
0000
,
0010
0001
0100
0000
,
0010
1000
0001
0000
,
1000
0000
0010
0000
,
0001
0100
0010
0000
,
1000
0100
1000
0000
,
1001
0000
0001
0001
,
0000
1000
0000
0001
,
0100
0000
0010
1000
,
0000
0001
0000
0000
0100
0000
0010
0000
,
1000
0000
0001
0100
,
0000
0010
0000
0000
1000
0000
0100
0000
,
1000
0000
0001
0100
,
0000
0010
0000
1000
0000
0100
0000
0000
,
1000
0001
0100
0000
,
0010
0000
1000
0100
,
1000
0000
0000
0000
0001
0000
0000
0100
,
0000
0000
0010
0000
,
1000
0000
0100
0000
1000
0000
0000
0001
,
0000
0000
0100
0000
,
0020
1030
0100
0000
,
1000
0000
0001
0000
,
0100
0010
1000
0000
,
0001
0000
0100
0000
,
0010
1000
0100
0000
,
1000
0000
0001
0000
,
0100
0010
0100
0000
,
0001
0000
1000
0000
,
0100
1000
0000
0000
,
0002
0000
0000
0000
,
2003
0000
0000
0000
,
3200
0000
0000
0000
,
0320
0000
0000
0000
,
0230
0000
0000
0000
,
2300
0000
0000
0000
,
3002
0000
0000
0000
,
0203
0000
0000
0000
,
0320
0000
0000
0000
,
1030
1000
1000
0000
,
0001
0001
0001
0000
,
0100
0100
0100
0000
,
0010
0010
0010
0000
,
1000
1000
1000
0000
,
0100
0100
0100
0000
,
1000
1000
1000
0000
,
0001
0001
0001
0000
,
0100
0010
0000
0010
,
1000
0000
0100
0000
,
1000
0000
0001
0000
,
0100
0010
0100
0000
,
0010
1000
0100
1000
,
0001
0000
0100
0000
,
0010
1000
0001
0000
,
0100
0000
0010
0000
,
1000
1000
1000
0000
,
0001
0000
0100
0000
,
0010
0010
0010
0000
,
0100
0000
0001
0000
,
1000
1000
1000
0000
,
0100
0000
0010
0000
,
0001
0001
0001
0000
,
1000
0000
0010
0000
,
0100
0100
0100
0000
,
0010
0000
1000
0000
,
0001
0000
0010
0000
,
0100
0000
1000
0000
,
0001
0001
0001
0000
,
0100
0000
0010
0000
,
1000
0001
0100
0010
,
1001
0000
0000
0100
;
