#TITLE:Don't Trust Me;
#SUBTITLE:;
#ARTIST:3 Oh! 3;
#TITLETRANSLIT:;
#SUBTITLETRANSLIT:;
#ARTISTTRANSLIT:;
#GENRE:;
#CREDIT:;
#BANNER:Don't Trust Me.png;
#BACKGROUND:;
#LYRICSPATH:;
#CDTITLE:;
#MUSIC:Don't Trust Me.ogg;
#OFFSET:-0.242;
#SAMPLESTART:44.650;
#SAMPLELENGTH:15.000;
#SELECTABLE:YES;
#BPMS:0.000=130.040;
#STOPS:;
#BGCHANGES:;
#KEYSOUNDS:;

//---------------dance-single - ----------------
#NOTES:
     dance-single:
     :
     Hard:
     7:
     0.428,0.458,0.227,0.059,0.000,322.000,27.000,7.000,4.000,0.000,0.000,0.428,0.458,0.227,0.059,0.000,322.000,27.000,7.000,4.000,0.000,0.000:
0000
0000
0000
0000
,
0000
0000
0000
0000
,
0000
0000
0000
0000
,
0000
0000
0000
0000
,
0000
0000
0000
0000
,
0000
0000
0000
0000
,
0000
0000
0000
0000
,
0000
0000
0000
0000
,
1001
0000
1000
0000
0001
0000
0100
0010
,
1000
0001
0010
0100
0000
1100
1100
0100
,
0010
0001
0100
1000
0100
0001
0010
0100
,
1000
0001
0100
0010
0000
1010
1010
0010
,
0100
0000
0001
0000
1000
0000
0001
0010
,
1000
0010
0001
1000
0000
1001
1001
0000
,
0001
0100
1000
0100
0001
0100
1000
0001
,
0010
1000
0100
0001
0100
1000
0100
0000
,
1001
1000
0001
0100
0010
0100
0001
0001
,
1000
0100
0010
0100
1000
0001
0100
0100
,
0010
1000
0001
0100
0010
1000
0001
0001
,
0000
0000
1000
1000
0000
0001
0000
0100
,
0000
0010
1000
0001
,
0000
0000
1000
0001
0010
0000
0100
0000
,
0000
0000
1000
0000
0001
0000
0100
0100
,
0010
1000
0100
0011
,
1001
0001
1000
0010
0100
0010
1000
1000
,
0100
0010
0001
0100
0010
0100
0010
0010
,
1000
0001
0100
1000
0100
0001
0010
0010
,
0000
0000
0100
0100
0000
1000
0000
0001
,
0000
1000
0001
0100
,
0000
0000
0010
1000
0001
0000
0010
0000
,
0000
0000
0010
0000
0001
0000
1000
1000
,
0001
0100
0010
1001
,
1000
0000
0001
0000
0000
0000
1000
0001
,
1000
0001
0100
0100
0000
0110
0110
0200
,
0000
0301
1000
0010
0200
0000
0310
1000
,
0001
0010
0100
1000
0000
0101
0101
0002
,
0000
1003
1100
2000
0000
3001
0100
0010
,
0010
1000
0001
0010
0000
0110
0110
0000
,
0010
0001
1000
0001
0200
0000
0310
0010
,
1000
0001
0100
0010
0000
1100
1100
0100
,
0100
0010
0001
1000
,
0001
1000
0010
0100
0000
0110
0110
0010
,
0000
1000
0001
0010
0100
0010
0001
1000
,
0100
0001
0100
1000
0001
0100
0100
0010
,
0000
1000
0000
0001
0000
0100
0010
1000
,
0001
0010
0100
1000
0000
1100
1100
1000
,
0000
0001
0010
0100
0010
0000
1001
0000
,
0001
0100
0010
2000
0000
0000
0000
3000
,
1001
0001
0100
0010
1000
0001
0010
0010
,
0100
1000
0001
0100
0010
1000
0001
0001
,
0100
1000
0100
0001
0010
0100
0010
0010
,
0000
0000
0001
0001
0000
1000
0000
0001
,
0000
1000
0001
1000
,
0000
0000
1000
0001
0100
0000
0010
0000
,
0000
0000
1000
0000
0001
0000
0010
0010
,
0100
1000
0001
1000
,
1001
0001
0100
0010
1000
0001
0010
0010
,
0100
1000
0001
0100
0010
0100
0001
0001
,
1000
0010
0100
0010
1000
0001
1000
1000
,
0000
0000
0001
0001
0000
0100
0000
0010
,
0000
1000
0001
0010
,
0000
0000
0100
0010
0001
0000
1000
0000
,
0000
0000
0001
0000
1000
0000
0010
0010
,
0100
0000
0010
0000
1000
0000
0002
0003
,
MMMM
0000
0000
0000
;

//---------------dance-single - ----------------
#NOTES:
     dance-single:
     :
     Medium:
     5:
     0.298,0.296,0.042,0.000,0.000,243.000,5.000,0.000,2.000,0.000,0.000,0.298,0.296,0.042,0.000,0.000,243.000,5.000,0.000,2.000,0.000,0.000:
0000
0000
0000
0000
,
0000
0000
0000
0000
,
0000
0000
0000
0000
,
0000
0000
0000
0000
,
0000
0000
0000
0000
,
0000
0000
0000
0000
,
0000
0000
0000
0000
,
0000
0000
0000
0000
,
1000
0001
0100
0010
,
1000
0000
0001
0000
0100
0010
1000
0000
,
0100
1000
0001
0010
,
0100
0000
0010
0000
0001
0100
0010
0000
,
1000
0001
0010
0100
,
1000
0000
0001
0000
0100
0010
1000
0000
,
0001
0000
1000
1000
1000
0000
0001
0000
,
0100
0000
0010
0010
0010
0000
0110
0000
,
1001
0000
0100
0000
1000
0001
0100
0000
,
0010
0000
1000
0000
0001
1000
0100
0000
,
1000
0000
0001
0000
0100
0010
1000
0000
,
0001
0000
0100
0100
0000
0010
0000
1000
,
0000
0100
1000
0000
0001
0000
0100
0000
,
0000
0010
1000
0001
,
0000
0000
1000
0000
0100
0000
1000
0001
,
0100
0010
1000
0001
,
0000
0000
1000
0000
0001
0000
1000
0010
,
0100
0000
0010
0000
1000
0000
0001
0010
,
0100
0000
1000
0000
0001
0000
0100
0010
,
1000
0000
0001
0001
0000
0100
0000
0100
,
0000
0010
1000
0100
,
0000
1000
0001
0100
,
0000
0000
0010
0000
1000
0000
0001
1000
,
0100
1000
0001
0100
,
0110
0010
0000
1000
,
0100
0000
1000
0001
0000
0100
0010
1000
,
0000
0100
1000
0000
0001
0000
0100
0000
,
0010
0010
0010
0000
1000
0000
0100
0000
,
1000
0001
0100
0010
,
1000
0001
0010
0000
0100
0000
1000
0000
,
0001
0100
0010
0000
1000
0000
0001
0000
,
1000
0100
1000
0000
0001
0000
0100
0010
,
0100
0010
1000
0100
,
1000
0001
0100
0001
0000
1000
0100
1000
,
0000
0001
0100
0000
0010
0000
1000
0000
,
0001
0000
1000
0000
0100
1000
0001
0000
,
0100
0010
1000
0001
,
0010
0000
0100
1000
0001
0000
0100
0000
,
0010
1000
0100
0000
,
1000
0001
0101
0000
,
0001
0000
1000
0000
0100
0000
1000
0001
,
0100
0000
0010
0000
1000
0000
0010
1000
,
0001
0000
0100
0000
0010
0000
1000
0001
,
0010
0000
0100
1000
0000
1000
0000
0001
,
0000
0100
0010
1000
,
0000
1000
0001
0100
,
0000
0001
1000
0000
,
0100
0010
1000
0001
,
0000
0000
1000
0000
0100
0000
1000
0001
,
0100
0000
0010
0000
1000
0000
0001
0010
,
0100
0000
1000
0000
0001
0000
0001
0100
,
1000
0000
0100
0010
0000
1000
0000
0100
,
0000
1000
0001
0100
,
0000
0010
1000
0001
,
0000
0000
1000
0000
0100
0000
0100
1000
,
0001
0100
0010
1001
,
M00M
0000
0000
0000
;

//---------------dance-single - ----------------
#NOTES:
     dance-single:
     :
     Easy:
     4:
     0.233,0.323,0.076,0.000,0.000,185.000,9.000,0.000,2.000,0.000,0.000,0.233,0.323,0.076,0.000,0.000,185.000,9.000,0.000,2.000,0.000,0.000:
0000
0000
0000
0000
,
0000
0000
0000
0000
,
0000
0000
0000
0000
,
0000
0000
0000
0000
,
0000
0000
0000
0000
,
0000
0000
0000
0000
,
0000
0000
0000
0000
,
0000
0000
0000
0000
,
0010
0100
0000
0010
,
1000
0001
1000
0000
,
0001
0100
0001
0001
,
1000
0100
1000
0001
,
0100
0100
0000
0010
,
1000
0001
0100
0000
,
0010
1000
0100
1000
,
1001
0110
1001
1100
,
0000
1000
0001
0100
,
0000
0010
1000
0001
,
0000
0010
0100
1000
,
0000
1000
1000
1000
,
1000
0001
0100
0100
,
0000
0010
1000
0001
,
0000
1000
0100
1000
,
0001
0100
0010
1001
,
0000
1000
0100
1000
,
0000
0001
0100
0001
,
0000
1000
0010
1000
,
0000
0001
0100
0100
,
0100
0010
1000
0001
,
0000
1000
0001
0010
,
0000
0010
0100
1000
,
0001
0100
0010
1001
,
0100
0000
0000
1000
,
0001
0100
0100
0000
,
0010
1000
0001
0000
,
0001
1000
0100
0000
,
1000
0001
0100
0000
,
0010
0010
0010
1000
,
0100
1000
0001
0100
,
0010
1000
0100
1000
,
1001
0001
0000
0001
,
0100
0100
0010
0000
,
0010
1000
0100
0000
,
1000
0001
0100
0010
,
1000
0100
0000
1000
,
0001
0100
0010
0000
,
0010
1000
0001
0000
,
1000
0001
1001
0000
,
1000
0100
1000
0100
,
0000
1000
0001
0100
,
0000
0010
1000
0001
,
0000
1000
0001
0100
,
0100
0010
1000
0001
,
0000
1000
0001
0100
,
0000
0100
0010
1000
,
0100
0010
0001
1001
,
1000
0001
0100
0100
,
0000
0010
1000
0001
,
0000
1000
0001
0010
,
0000
0100
1000
0001
,
0100
0100
0100
0100
,
0000
0010
1000
0001
,
0000
1000
0001
0010
,
0100
1000
0001
0100
,
M00M
0000
0000
0000
;
